osu file format v14

[General]
AudioFilename: Ryu - We're so Happy.mp3
AudioLeadIn: 0
PreviewTime: 56037
Countdown: 0
SampleSet: Normal
StackLeniency: 0.3
Mode: 0
LetterboxInBreaks: 0
WidescreenStoryboard: 1

[Editor]
Bookmarks: 107442,107605,107767
DistanceSpacing: 1.4
BeatDivisor: 4
GridSize: 32
TimelineZoom: 3.199999

[Metadata]
Title:We're so Happy
TitleUnicode:We're so Happy
Artist:Ryu*
ArtistUnicode:Ryu☆
Creator:Yauxo
Version:Milan-'s Hard
Source:jubeat saucer
Tags:Lyawi Milan- appleeaterx captin1 Kyshiro Mayumi Morinaga jukebeat ミライダガッキ FutureTomTom
BeatmapID:1075309
BeatmapSetID:456072

[Difficulty]
HPDrainRate:5
CircleSize:3.5
OverallDifficulty:6
ApproachRate:7.8
SliderMultiplier:1.4
SliderTickRate:1

[Events]
//Background and Video events
0,0,"063 - sAUF0cD.jpg",0,0
//Break Periods
2,34183,43461
2,88669,92759
//Storyboard Layer 0 (Background)
//Storyboard Layer 1 (Fail)
//Storyboard Layer 2 (Pass)
//Storyboard Layer 3 (Foreground)
//Storyboard Sound Samples

[TimingPoints]
1551,324.324324324324,4,2,1,30,1,0
13145,-100,4,2,1,5,0,0
13226,-100,4,1,1,50,0,0
13956,-100,4,1,1,5,0,0
14037,-100,4,1,1,50,0,0
15253,-100,4,1,1,5,0,0
15334,-100,4,1,1,50,0,0
19145,-100,4,1,1,5,0,0
19226,-100,4,1,1,50,0,0
20442,-100,4,1,1,5,0,0
20523,-100,4,1,1,50,0,0
22348,-100,4,2,1,5,0,0
22632,-100,4,2,1,15,0,0
22956,-100,4,2,1,25,0,0
23280,-100,4,2,1,40,0,0
23442,-100,4,2,1,55,0,0
23605,-100,4,1,1,50,0,0
24334,-100,4,1,1,5,0,0
24415,-100,4,1,1,50,0,0
25632,-100,4,1,1,5,0,0
25713,-100,4,1,1,50,0,0
26929,-100,4,1,1,5,0,0
27010,-100,4,1,1,50,0,0
31388,-100,4,1,1,40,0,0
32686,-100,4,1,1,50,0,0
33902,-100,4,1,1,5,0,0
33983,-100,4,1,1,50,0,0
38523,-100,4,2,1,35,0,0
52145,-100,4,1,1,45,0,0
52226,-100,4,1,1,25,0,0
52469,-100,4,1,1,45,0,0
52550,-100,4,1,1,25,0,0
52794,-100,4,1,1,45,0,0
52875,-100,4,1,1,25,0,0
53118,-100,4,1,1,45,0,0
53199,-100,4,1,1,25,0,0
53442,-100,4,1,1,45,0,0
53605,-100,4,1,1,45,0,0
54091,-100,4,1,1,45,0,0
54253,-100,4,1,1,45,0,0
54740,-100,4,1,1,5,0,0
56037,-100,4,1,1,50,0,0
56361,-100,4,1,1,50,0,0
56402,-100,4,1,1,5,0,0
56686,-100,4,1,1,50,0,0
56726,-100,4,1,1,5,0,0
57010,-100,4,1,1,50,0,0
57050,-100,4,1,1,5,0,0
57334,-100,4,1,1,50,0,1
58064,-100,4,1,1,5,0,1
58145,-100,4,1,1,50,0,1
59848,-100,4,1,1,5,0,1
59929,-100,4,1,1,50,0,1
60659,-100,4,1,1,5,0,1
60740,-100,4,1,1,50,0,1
62523,-100,4,1,1,50,0,1
63253,-100,4,1,1,5,0,1
63334,-100,4,1,1,50,0,1
65037,-100,4,1,1,5,0,1
65118,-100,4,1,1,50,0,1
65848,-100,4,1,1,5,0,1
65929,-100,4,1,1,50,0,1
66496,-100,4,1,1,30,0,1
66740,-100,4,1,1,50,0,1
66821,-100,4,1,1,30,0,1
67064,-100,4,1,1,50,0,1
67632,-100,4,1,1,5,0,1
67713,-100,4,1,1,50,0,1
68442,-100,4,1,1,5,0,1
68523,-100,4,1,1,50,0,1
70226,-100,4,1,1,5,0,1
70307,-100,4,1,1,50,0,1
71037,-100,4,1,1,5,0,1
71118,-100,4,1,1,50,0,1
76834,-100,4,1,1,20,0,1
77118,-100,4,1,1,50,0,1
77159,-100,4,1,1,5,0,1
77442,-100,4,1,1,50,0,1
77483,-100,4,1,1,5,0,1
77767,-100,4,1,1,50,0,1
77807,-100,4,1,1,5,0,1
78091,-100,4,1,1,50,0,0
83199,-100,4,1,1,5,0,0
83280,-100,4,1,1,50,0,0
83605,-100,4,1,1,50,0,0
84578,-100,4,1,1,50,0,0
84902,-100,4,1,1,50,0,0
92361,-100,4,2,1,50,0,0
92402,-100,4,2,1,10,0,0
92686,-100,4,2,1,20,0,0
93010,-100,4,2,1,30,0,0
93334,-100,4,2,1,40,0,0
93659,-100,4,1,1,50,0,0
96253,-100,4,1,1,50,0,0
98929,-100,4,1,1,5,0,0
99010,-100,4,1,1,50,0,0
99091,-100,4,1,1,5,0,0
99172,-100,4,1,1,50,0,0
99415,-100,4,1,1,5,0,0
99496,-100,4,1,1,50,0,0
99821,-100,4,1,1,50,0,0
100064,-100,4,1,1,5,0,0
100145,-100,4,1,1,50,0,0
101361,-100,4,1,1,5,0,0
101442,-100,4,1,1,50,0,1
102172,-100,4,1,1,5,0,1
102253,-100,4,1,1,50,0,1
102821,-100,4,1,1,40,0,1
103064,-100,4,1,1,50,0,1
103145,-100,4,1,1,40,0,1
103388,-100,4,1,1,50,0,1
104767,-100,4,1,1,5,0,1
104848,-100,4,1,1,50,0,1
105415,-100,4,1,1,40,0,1
105659,-100,4,1,1,50,0,1
107361,-100,4,1,1,5,0,1
107442,-100,4,1,1,50,0,1
108010,-100,4,1,1,40,0,1
108253,-100,4,1,1,50,0,1
108659,-100,4,1,1,40,0,1
108902,-100,4,1,1,50,0,1
109469,-100,4,1,1,5,0,1
109550,-100,4,1,1,50,0,1
110605,-100,4,1,1,40,0,1
110848,-100,4,1,1,50,0,1
110929,-100,4,1,1,40,0,1
111172,-100,4,1,1,50,0,1
111740,-100,4,1,1,5,0,1
111821,-100,4,1,1,50,0,1
112550,-100,4,1,1,5,0,1
112632,-100,4,1,1,50,0,1
113199,-100,4,1,1,40,0,1
113442,-100,4,1,1,50,0,1
113523,-100,4,1,1,40,0,1
113767,-100,4,1,1,50,0,1
115145,-100,4,1,1,5,0,1
115226,-100,4,1,1,50,0,1
122199,-100,4,1,1,50,0,0

[Colours]
Combo1 : 159,234,226
Combo2 : 245,197,237
Combo3 : 168,207,255
Combo4 : 250,156,170

[HitObjects]
113,44,13226,6,0,P|99:77|99:111,1,70,8|0,1:0|0:0,0:0:0:0:
161,187,13550,1,2,0:0:0:0:
253,154,13713,2,0,B|323:140|323:140|389:158,1,140,0|0,0:0|0:0,0:0:0:0:
462,92,14199,1,2,0:0:0:0:
481,187,14361,2,0,L|475:327,1,140
382,292,14848,1,2,0:0:0:0:
295,337,15010,2,0,L|213:324,1,70
124,243,15334,2,0,L|194:233,1,70,0|2,0:0|0:0,0:0:0:0:
282,191,15659,1,0,0:0:0:0:
229,71,15821,6,0,P|209:99|202:134,2,70,8|0|2,1:0|0:0|0:0,0:0:0:0:
322,103,16307,1,0,0:0:0:0:
66,71,16632,5,0,0:0:0:0:
43,165,16794,2,0,P|77:164|129:148,1,70,2|0,0:0|0:0,0:0:0:0:
93,261,17118,2,0,P|125:251|171:222,1,70,8|0,1:0|0:0,0:0:0:0:
254,225,17442,1,2,0:0:0:0:
337,278,17605,1,0,0:0:0:0:
250,79,17929,5,0,0:0:0:0:
333,132,18091,2,0,L|423:116,1,70,2|0,0:0|0:0,0:0:0:0:
417,115,18334,1,0,0:0:0:0:
432,112,18415,6,0,L|418:210,2,70,8|0|2,1:0|0:0|0:0,0:0:0:0:
512,181,18902,2,0,L|488:333,1,140,0|0,0:0|0:0,0:0:0:0:
402,275,19388,1,2,0:0:0:0:
318,326,19550,2,0,B|257:300|257:300|179:311,1,140,0|0,0:0|0:0,0:0:0:0:
117,382,20037,1,2,0:0:0:0:
88,289,20199,2,0,L|99:213,1,70,0|0,0:0|0:0,0:0:0:0:
219,207,20523,2,0,L|208:131,1,70,0|2,0:0|0:0,0:0:0:0:
307,138,20848,1,0,0:0:0:0:
318,23,21010,6,0,P|284:30|258:53,2,70,8|0|2,1:0|0:0|0:0,0:0:0:0:
391,87,21496,1,0,0:0:0:0:
140,58,21821,5,0,0:0:0:0:
256,192,21983,12,0,23280,0:0:0:0:
466,122,23605,6,0,L|363:112,1,70,8|0,1:0|0:0,0:0:0:0:
313,63,23929,1,2,0:0:0:0:
313,160,24091,2,0,L|341:319,1,140
256,352,24578,1,2,0:0:0:0:
174,297,24740,2,0,L|199:160,1,140,0|0,0:0|0:0,0:0:0:0:
199,63,25226,1,2,0:0:0:0:
115,115,25388,2,0,L|46:122,1,70,0|0,0:0|0:0,0:0:0:0:
199,63,25713,2,0,L|268:56,1,70,0|2,0:0|0:0,0:0:0:0:
351,108,26037,1,0,0:0:0:0:
260,224,26199,6,0,P|255:190|266:157,2,70,8|0|2,1:0|0:0|0:0,0:0:0:0:
270,322,26686,2,0,P|336:288|422:298,1,140
496,272,27172,1,2,0:0:0:0:
488,171,27334,2,0,L|470:23,1,140,0|0,0:0|0:0,0:0:0:0:
388,84,27821,1,2,0:0:0:0:
306,30,27983,2,0,P|267:22|221:29,1,70,0|8,0:0|1:0,0:0:0:0:
139,14,28307,1,0,0:0:0:0:
182,101,28469,1,2,0:0:0:0:
83,101,28632,1,0,0:0:0:0:
83,101,28713,1,0,0:0:0:0:
83,101,28794,6,0,L|97:264,2,140,8|2|8,1:0|0:0|1:0,0:0:0:0:
76,336,29767,2,0,L|161:321,1,70,2|0,0:0|0:0,0:0:0:0:
258,249,30091,6,0,L|173:234,1,70,8|0,1:0|0:0,0:0:0:0:
281,135,30415,2,0,L|212:141,1,70,2|0,0:0|0:0,0:0:0:0:
371,180,30740,2,0,L|456:165,1,70,8|0,1:0|0:0,0:0:0:0:
347,66,31064,2,0,L|416:71,1,70,2|0,0:0|0:0,0:0:0:0:
256,192,31388,12,2,32686,2:0:0:0:
256,192,33983,5,4,1:0:0:0:
197,35,44361,6,0,L|112:23,1,70,8|8,1:0|1:0,0:0:0:0:
36,62,44686,2,0,L|-16:54,1,35,8|8,1:0|1:0,0:0:0:0:
82,149,44929,2,0,L|167:137,1,70,8|8,1:0|1:0,0:0:0:0:
177,148,45172,2,0,L|266:135,1,70,8|2,1:0|0:0,0:0:0:0:
315,349,45659,6,0,L|400:361,1,70,8|8,1:0|1:0,0:0:0:0:
476,322,45983,2,0,L|528:330,1,35,8|8,1:0|1:0,0:0:0:0:
430,235,46226,2,0,L|345:247,1,70,8|8,1:0|1:0,0:0:0:0:
335,236,46469,2,0,L|246:249,1,70,8|2,1:0|0:0,0:0:0:0:
197,35,46956,6,0,L|112:23,1,70,8|8,1:0|1:0,0:0:0:0:
36,62,47280,2,0,L|-16:54,1,35,8|8,1:0|1:0,0:0:0:0:
82,149,47523,2,0,L|167:137,1,70,8|8,1:0|1:0,0:0:0:0:
177,148,47767,2,0,L|266:135,1,70,8|2,1:0|0:0,0:0:0:0:
300,56,48091,1,2,0:0:0:0:
197,35,48253,6,0,L|112:23,1,70,8|8,1:0|1:0,0:0:0:0:
36,62,48578,2,0,L|-16:54,1,35,8|8,1:0|1:0,0:0:0:0:
82,149,48821,2,0,L|167:137,1,70,8|8,1:0|1:0,0:0:0:0:
177,148,49064,2,0,L|266:135,1,70,8|2,1:0|0:0,0:0:0:0:
300,56,49388,1,2,0:0:0:0:
347,142,49550,6,0,P|351:174|337:232,2,70,8|8|8,1:0|1:0|1:0,0:0:0:0:
444,112,50037,1,8,1:0:0:0:
369,175,50199,6,0,P|364:206|336:259,2,70,12|8|8,1:0|1:0|1:0,0:0:0:0:
444,112,50686,1,8,1:0:0:0:
382,210,50848,6,0,P|369:239|328:282,2,70,12|8|8,1:0|1:0|1:0,0:0:0:0:
444,112,51334,1,8,1:0:0:0:
386,244,51496,6,0,P|366:269|315:300,2,70,12|8|8,1:0|1:0|1:0,0:0:0:0:
444,112,51983,1,8,1:0:0:0:
256,192,52145,12,0,54740,0:0:0:0:
382,111,56037,5,8,1:0:0:0:
382,111,56118,1,8,1:0:0:0:
382,111,56199,1,8,1:0:0:0:
360,206,56361,5,8,1:0:0:0:
339,311,56686,5,8,1:0:0:0:
360,206,57010,5,2,0:0:0:0:
360,206,57334,6,0,L|274:193,1,70,12|0,1:0|0:0,0:0:0:0:
226,121,57659,1,2,0:0:0:0:
175,204,57821,2,0,P|134:156|138:77,1,140,0|0,0:0|0:0,0:0:0:0:
226,121,58307,1,2,0:0:0:0:
290,47,58469,2,0,L|427:72,1,140,0|0,0:0|0:0,0:0:0:0:
486,151,58956,1,2,0:0:0:0:
389,166,59118,2,0,P|363:204|360:234,1,70,0|8,0:0|1:0,0:0:0:0:
363,353,59442,2,0,P|335:337|295:330,1,70,0|2,0:0|0:0,0:0:0:0:
202,358,59767,1,0,0:0:0:0:
128,292,59929,6,0,P|104:329|101:363,2,70,8|0|2,1:0|0:0|0:0,0:0:0:0:
179,208,60415,2,0,P|177:138|125:84,1,140,0|0,0:0|0:0,0:0:0:0:
88,175,60902,1,2,0:0:0:0:
179,208,61064,2,0,L|332:179,2,140
140,311,61875,2,0,L|213:298,1,70,8|0,1:0|0:0,0:0:0:0:
344,357,62199,2,0,P|340:320|321:284,1,70,2|0,0:0|0:0,0:0:0:0:
323,275,62442,1,0,0:0:0:0:
332,262,62523,6,0,P|334:227|349:195,2,70,8|0|2,1:0|0:0|0:0,0:0:0:0:
429,251,63010,2,0,P|452:190|417:124,1,140
325,102,63496,1,2,0:0:0:0:
253,169,63659,2,0,P|186:185|129:140,1,140
53,87,64145,2,0,L|33:154,1,70,2|0,0:0|0:0,0:0:0:0:
2,247,64469,1,8,1:0:0:0:
107,305,64632,2,0,L|95:230,1,70,0|2,0:0|0:0,0:0:0:0:
131,145,64956,1,0,0:0:0:0:
254,213,65118,6,0,P|222:227|177:225,2,70,8|0|2,1:0|0:0|0:0,0:0:0:0:
325,145,65605,1,0,0:0:0:0:
363,351,65929,5,0,0:0:0:0:
117,283,66253,5,0,0:0:0:0:
325,145,66578,6,0,L|313:245,2,70,0|2|0,0:0|0:0|0:0,0:0:0:0:
341,48,67064,2,0,P|393:22|427:28,1,70,2|0,0:0|0:0,0:0:0:0:
418,29,67307,1,0,0:0:0:0:
430,39,67388,2,0,P|422:95|455:145,1,105,2|0,0:0|2:0,0:0:0:0:
467,142,67713,6,0,L|447:222,1,70,12|0,1:0|0:0,0:0:0:0:
375,273,68037,1,2,0:0:0:0:
280,246,68199,2,0,L|308:405,1,140
205,381,68686,1,2,0:0:0:0:
122,326,68848,2,0,L|147:189,1,140
215,117,69334,1,2,0:0:0:0:
123,98,69496,2,0,L|54:105,1,70,0|8,0:0|1:0,0:0:0:0:
215,117,69821,2,0,L|284:110,1,70,0|2,0:0|0:0,0:0:0:0:
377,140,70145,1,0,0:0:0:0:
313,271,70307,6,0,P|301:238|303:204,2,70,8|0|2,1:0|0:0|0:0,0:0:0:0:
399,320,70794,2,0,L|260:336,1,140
163,352,71280,1,2,0:0:0:0:
87,289,71442,2,0,B|104:223|104:223|70:139,1,140
16,78,71929,2,0,L|85:69,1,70,2|0,0:0|0:0,0:0:0:0:
221,9,72253,2,0,L|290:17,1,70,8|0,1:0|0:0,0:0:0:0:
412,102,72578,2,0,L|481:93,1,70,2|0,0:0|0:0,0:0:0:0:
493,104,72821,1,0,0:0:0:0:
503,117,72902,6,0,P|478:189|507:251,2,140,8|2|8,1:0|0:0|1:0,0:0:0:0:
383,320,73875,1,2,0:0:0:0:
210,154,74199,6,0,P|271:123|338:139,1,140,8|2,1:0|0:0,0:0:0:0:
434,115,74686,1,0,0:0:0:0:
409,209,74848,2,0,L|414:354,1,140,8|2,1:0|0:0,0:0:0:0:
256,192,75496,12,8,76794,1:0:0:0:
355,109,77118,5,2,0:0:0:0:
460,128,77442,5,2,0:0:0:0:
355,109,77767,5,2,0:0:0:0:
355,109,78091,6,0,P|351:147|363:194,1,70,12|2,1:0|2:0,0:0:0:0:
377,195,78334,1,0,0:0:0:0:
377,195,78415,2,0,P|317:228|232:206,1,140,2|8,0:0|1:0,0:0:0:0:
164,166,78902,1,2,2:0:0:0:
165,263,79064,2,0,L|177:347,1,70,2|2,0:0|2:0,0:0:0:0:
296,384,79388,6,0,L|305:314,1,70,8|0,1:0|0:0,0:0:0:0:
325,301,79632,1,0,0:0:0:0:
325,301,79713,2,0,P|390:277|476:311,1,140,0|8,0:0|1:0,0:0:0:0:
466,197,80199,1,0,0:0:0:0:
424,108,80361,2,0,L|434:66,3,35,2|0|2|0,0:0|0:0|2:0|0:0,0:0:0:0:
441,51,80686,6,0,L|310:69,1,105,8|0,1:0|0:0,0:0:0:0:
320,75,81010,2,0,L|250:67,1,70,2|0,0:0|0:0,0:0:0:0:
156,44,81334,2,0,L|69:54,1,70,8|2,1:0|2:0,0:0:0:0:
46,159,81659,2,0,L|115:151,1,70,2|2,0:0|2:0,0:0:0:0:
233,170,81983,6,0,P|196:208|186:248,1,70,8|2,1:0|2:0,0:0:0:0:
199,245,82226,1,0,0:0:0:0:
199,245,82307,2,0,L|224:390,1,140,2|0,0:0|0:0,0:0:0:0:
306,330,82794,1,0,0:0:0:0:
401,353,82956,1,2,0:0:0:0:
401,353,83280,6,0,L|493:338,1,70,8|0,1:0|0:0,0:0:0:0:
501,248,83605,1,2,0:0:0:0:
403,249,83767,1,2,0:0:0:0:
446,166,83929,2,0,L|436:119,3,35,8|8|8|8,1:0|1:0|1:0|1:0,0:0:0:0:
419,122,84253,2,0,L|411:87,3,35,2|8|2|8,0:0|1:0|0:0|1:0,0:0:0:0:
418,67,84578,6,0,P|388:36|319:26,1,105,12|0,1:0|0:0,0:0:0:0:
312,37,84902,2,0,P|281:43|227:36,1,70,8|8,1:0|1:0,0:0:0:0:
142,29,85226,2,0,L|92:44,3,35,8|8|8|8,1:0|1:0|1:0|1:0,0:0:0:0:
107,64,85550,2,0,L|73:94,3,35,2|8|2|8,0:0|1:0|0:0|1:0,0:0:0:0:
70,109,85875,6,0,P|74:146|89:191,1,70,12|12,1:0|1:0,0:0:0:0:
101,384,86523,6,0,P|83:354|70:321,1,70,12|12,1:0|1:0,0:0:0:0:
256,192,87172,12,12,88469,1:0:0:0:
184,46,93659,6,0,L|162:132,1,70,8|8,1:0|1:0,0:0:0:0:
71,136,93983,1,8,1:0:0:0:
71,136,94064,2,0,L|94:221,1,70,8|8,1:0|1:0,0:0:0:0:
34,284,94388,1,8,1:0:0:0:
34,284,94469,2,0,L|97:346,1,70,8|2,1:0|0:0,0:0:0:0:
328,46,94956,6,0,L|350:132,1,70,8|8,1:0|1:0,0:0:0:0:
441,136,95280,1,8,1:0:0:0:
441,136,95361,2,0,L|417:221,1,70,0|0,0:0|0:0,0:0:0:0:
478,284,95685,1,8,1:0:0:0:
478,284,95766,2,0,L|414:346,1,70,8|2,1:0|0:0,0:0:0:0:
333,304,96091,1,2,0:0:0:0:
247,255,96253,6,0,P|211:245|161:248,2,70,12|0|2,1:0|0:0|2:0,0:0:0:0:
333,304,96740,1,2,2:0:0:0:
229,231,96902,6,0,P|191:230|144:246,2,70,12|0|2,1:0|0:0|2:0,0:0:0:0:
333,304,97388,1,2,2:0:0:0:
256,192,97550,12,12,98848,1:0:0:0:
256,96,99496,6,0,L|256:32,2,35,12|0|8,1:0|0:0|1:0,0:0:0:0:
256,288,100145,6,0,L|256:352,8,35,12|8|8|8|12|8|8|8|12,1:0|1:0|1:0|1:0|1:0|1:0|1:0|1:0|1:0,0:0:0:0:
256,192,101118,5,2,0:0:0:0:
256,192,101442,6,0,L|341:184,1,70,12|0,1:0|0:0,0:0:0:0:
412,232,101767,1,2,0:0:0:0:
463,149,101929,2,0,P|504:197|500:276,1,140,0|0,0:0|0:0,0:0:0:0:
412,232,102415,1,2,0:0:0:0:
370,320,102577,2,0,L|223:304,1,140,0|0,0:0|0:0,0:0:0:0:
132,306,103064,1,2,0:0:0:0:
174,217,103226,2,0,P|166:183|144:156,1,70,0|8,0:0|1:0,0:0:0:0:
285,84,103550,2,0,P|263:111|255:144,1,70,0|2,0:0|0:0,0:0:0:0:
352,160,103875,1,2,2:0:0:0:
424,225,104037,6,0,P|445:197|453:164,2,70,8|0|2,1:0|0:0|0:0,0:0:0:0:
339,275,104523,2,0,L|192:259,1,140,0|0,0:0|0:0,0:0:0:0:
253,177,105010,1,2,0:0:0:0:
181,293,105172,2,0,L|320:308,2,140
89,325,105983,2,0,P|86:290|74:258,1,70,8|0,1:0|0:0,0:0:0:0:
0,130,106307,2,0,P|2:95|15:62,1,70,2|0,0:0|0:0,0:0:0:0:
30,57,106550,1,0,0:0:0:0:
46,55,106632,6,0,L|115:46,2,70,8|0|2,1:0|0:0|0:0,0:0:0:0:
94,140,107118,2,0,L|256:119,1,140
317,75,107604,1,2,0:0:0:0:
377,152,107767,2,0,P|444:136|506:167,1,140,0|0,0:0|0:0,0:0:0:0:
512,264,108253,2,0,L|492:331,1,70,2|0,0:0|0:0,0:0:0:0:
413,244,108577,1,8,1:0:0:0:
342,331,108740,2,0,L|321:264,1,70,0|2,0:0|0:0,0:0:0:0:
249,330,109064,1,0,0:0:0:0:
177,263,109226,6,0,P|171:229|185:186,2,70,8|0|2,1:0|0:0|0:0,0:0:0:0:
249,330,109713,2,0,L|86:313,2,140,0|0|0,0:0|0:0|0:0,0:0:0:0:
339,291,110523,6,0,P|371:247|376:186,1,105,8|0,1:0|0:0,0:0:0:0:
389,176,110848,2,0,L|371:98,1,70,2|0,0:0|0:0,0:0:0:0:
269,212,111172,2,0,P|237:168|232:107,1,105,2|0,0:0|0:0,0:0:0:0:
219,97,111496,1,2,0:0:0:0:
219,97,111821,6,0,L|146:91,1,70,12|0,1:0|0:0,0:0:0:0:
65,142,112145,1,2,0:0:0:0:
20,239,112307,2,0,L|163:221,1,140,0|0,0:0|0:0,0:0:0:0:
249,182,112794,1,2,0:0:0:0:
327,123,112956,2,0,P|344:179|302:260,1,140,0|0,0:0|0:0,0:0:0:0:
323,348,113442,1,2,0:0:0:0:
404,293,113604,2,0,L|473:286,1,70,0|8,0:0|1:0,0:0:0:0:
512,171,113929,2,0,L|443:178,1,70,0|2,0:0|0:0,0:0:0:0:
464,83,114253,1,2,2:0:0:0:
370,111,114415,6,0,P|351:138|344:195,2,70,8|0|2,1:0|0:0|0:0,0:0:0:0:
390,15,114902,2,0,L|233:34,1,140,0|0,0:0|0:0,0:0:0:0:
157,6,115388,1,2,0:0:0:0:
174,103,115550,2,0,B|191:169|191:169|157:253,1,140,0|0,0:0|0:0,0:0:0:0:
75,277,116037,2,0,L|5:285,1,70,2|0,0:0|0:0,0:0:0:0:
158,330,116361,2,0,L|257:342,1,70,8|0,1:0|0:0,0:0:0:0:
328,238,116686,2,0,L|258:246,1,70,2|2,0:0|2:0,0:0:0:0:
246,235,116929,1,0,0:0:0:0:
239,220,117010,6,0,L|250:145,2,70,8|8|2,1:0|1:0|0:0,0:0:0:0:
150,157,117496,1,8,1:0:0:0:
177,63,117659,2,0,L|236:57,7,35,8|8|8|8|2|8|2|8,1:0|1:0|1:0|1:0|0:0|1:0|0:0|1:0,0:0:0:0:
230,42,118307,6,0,L|310:48,1,70,8|0,1:0|0:0,0:0:0:0:
389,5,118632,1,2,0:0:0:0:
476,49,118794,1,8,1:0:0:0:
426,133,118956,2,0,L|438:193,7,35,8|8|8|8|2|8|2|8,1:0|1:0|1:0|1:0|0:0|1:0|0:0|1:0,0:0:0:0:
453,180,119605,6,0,L|435:260,1,70,12|8,1:0|1:0,0:0:0:0:
323,101,120253,6,0,L|305:181,1,70,12|8,1:0|1:0,0:0:0:0:
187,27,120902,6,0,L|178:72,8,35,12|8|8|8|12|8|8|8|2,1:0|1:0|1:0|1:0|1:0|1:0|1:0|1:0|0:0,0:0:0:0:
138,217,121875,5,2,0:0:0:0:
453,180,122199,5,12,1:0:0:0:
