osu file format v14

[General]
AudioFilename: Ryu - We're so Happy.mp3
AudioLeadIn: 0
PreviewTime: 56037
Countdown: 0
SampleSet: Normal
StackLeniency: 0.3
Mode: 0
LetterboxInBreaks: 0
WidescreenStoryboard: 1

[Editor]
Bookmarks: 13226,33983,44361,52145,88469
DistanceSpacing: 1
BeatDivisor: 4
GridSize: 8
TimelineZoom: 2.1

[Metadata]
Title:We're so Happy
TitleUnicode:We're so Happy
Artist:Ryu*
ArtistUnicode:Ryu☆
Creator:Yauxo
Version:Lyawi's Normal
Source:jubeat saucer
Tags:Lyawi Milan- appleeaterx captin1 Kyshiro Mayumi Morinaga jukebeat ミライダガッキ FutureTomTom
BeatmapID:1067049
BeatmapSetID:456072

[Difficulty]
HPDrainRate:3
CircleSize:3
OverallDifficulty:2
ApproachRate:3
SliderMultiplier:0.899999999999999
SliderTickRate:1

[Events]
//Background and Video events
0,0,"063 - sAUF0cD.jpg",0,0
//Break Periods
2,34183,42921
2,88669,92219
//Storyboard Layer 0 (Background)
//Storyboard Layer 1 (Fail)
//Storyboard Layer 2 (Pass)
//Storyboard Layer 3 (Foreground)
//Storyboard Sound Samples

[TimingPoints]
1551,324.324324324324,4,1,1,60,1,0
54659,-100,4,1,1,5,0,0
56037,-100,4,1,1,60,0,0
57334,-100,4,1,1,60,0,1
78091,-100,4,1,1,60,0,0
101442,-100,4,1,1,60,0,1
122199,-100,4,1,1,60,0,0

[Colours]
Combo1 : 159,234,226
Combo2 : 245,197,237
Combo3 : 168,207,255
Combo4 : 250,156,170

[HitObjects]
231,0,13226,6,0,P|212:62|108:96,1,180,4|2,0:0|0:0,0:0:0:0:
25,67,14199,1,0,0:0:0:0:
19,156,14523,2,0,L|8:247,1,89.9999999999999
69,312,15172,2,0,P|99:339|146:351,1,89.9999999999999,2|0,0:0|0:0,0:0:0:0:
142,259,15821,6,0,P|178:210|291:205,1,180,0|2,0:0|0:0,0:0:0:0:
354,267,16794,1,0,0:0:0:0:
414,333,17118,2,0,P|451:353|499:357,2,89.9999999999999,0|0|2,0:0|0:0|0:0,0:0:0:0:
363,257,18091,1,8,0:0:0:0:
357,168,18415,6,0,P|329:100|233:65,1,180,4|2,0:0|0:0,0:0:0:0:
147,90,19388,1,0,0:0:0:0:
118,175,19713,2,0,P|108:222|80:256,1,89.9999999999999
24,322,20361,2,0,P|67:343|109:341,1,89.9999999999999,2|0,0:0|0:0,0:0:0:0:
188,303,21010,6,2,B|308:244|340:364|459:299,1,270,2|0,2:0|0:0,2:0:0:0:
500,231,22307,1,4,2:0:0:0:
215,10,23605,6,0,P|188:51|236:164,1,180,4|2,0:0|0:0,0:0:0:0:
322,154,24578,1,0,0:0:0:0:
369,230,24902,2,0,P|375:273|364:318,2,89.9999999999999,0|0|2,0:0|0:0|0:0,0:0:0:0:
278,232,25875,1,0,0:0:0:0:
226,305,26199,6,0,L|45:290,1,180,0|2,0:0|0:0,0:0:0:0:
5,209,27172,1,0,0:0:0:0:
70,147,27496,2,0,P|94:112|103:64,1,89.9999999999999
184,26,28145,2,0,P|208:61|217:109,1,89.9999999999999,2|8,0:0|0:0,0:0:0:0:
213,197,28794,6,2,P|286:304|386:245,1,270,2|0,2:0|0:0,2:0:0:0:
370,156,30091,2,0,L|380:66,2,89.9999999999999,0|0|2,0:0|0:0|0:0,0:0:0:0:
301,215,31064,1,0,0:0:0:0:
213,197,31388,6,0,P|165:205|125:196,1,89.9999999999999
127,105,32037,2,0,P|175:97|215:106,1,89.9999999999999,2|8,0:0|0:0,0:0:0:0:
256,192,32686,12,2,33983,2:0:0:0:
423,285,44361,6,0,P|352:309|294:163,1,270,4|0,0:0|0:0,0:0:0:0:
361,221,45659,2,0,B|256:160|208:280|91:207,1,270,4|0,0:0|0:0,0:0:0:0:
42,144,46956,6,0,P|42:77|166:133,1,270,4|0,0:0|0:0,0:0:0:0:
110,201,48253,2,0,P|136:268|311:281,1,270
349,199,49550,6,0,B|359:35|359:35|312:73|259:58,1,270
173,31,50848,2,0,P|85:25|12:171,1,270
256,192,52145,12,0,54659,0:0:0:0:
127,304,56037,5,4,3:0:0:0:
212,275,56361,2,0,L|302:284,2,89.9999999999999,8|8|8,0:0|0:0|0:0,0:0:0:0:
144,215,57334,6,0,P|148:154|242:93,1,180,4|2,0:0|0:0,0:0:0:0:
330,88,58307,1,0,0:0:0:0:
330,178,58632,2,0,P|332:228|352:264,2,89.9999999999999,0|0|2,0:0|0:0|0:0,0:0:0:0:
411,138,59605,1,0,0:0:0:0:
457,215,59929,6,0,P|458:309|401:368,1,180,4|2,0:0|0:0,0:0:0:0:
313,347,60902,1,0,0:0:0:0:
231,309,61226,2,0,L|142:319,1,89.9999999999999
102,237,61875,2,0,L|13:227,1,89.9999999999999,2|8,0:0|0:0,0:0:0:0:
10,137,62523,6,0,P|66:104|175:120,1,180,4|2,0:0|0:0,0:0:0:0:
235,188,63496,1,0,0:0:0:0:
309,239,63821,2,0,P|356:252|394:242,2,89.9999999999999,0|0|2,0:0|0:0|0:0,0:0:0:0:
353,163,64794,1,0,0:0:0:0:
440,142,65118,6,2,P|494:198|417:352,1,270,2|0,2:0|0:0,2:0:0:0:
333,365,66415,1,8,0:0:0:0:
108,83,67713,6,0,P|60:127|49:237,1,180,4|2,0:0|0:0,0:0:0:0:
112,300,68686,1,0,0:0:0:0:
170,231,69010,2,0,P|191:191|194:146,1,89.9999999999999
196,56,69659,1,2,0:0:0:0:
277,18,69983,1,0,0:0:0:0:
329,90,70307,6,0,L|318:273,1,180,4|2,0:0|0:0,0:0:0:0:
354,352,71280,1,0,0:0:0:0:
438,320,71605,2,0,P|473:287|490:249,2,89.9999999999999,0|0|2,0:0|0:0|0:0,0:0:0:0:
354,352,72578,1,0,0:0:0:0:
318,269,72902,6,0,P|234:242|153:277,1,180,4|2,0:0|0:0,0:0:0:0:
107,354,73875,1,0,0:0:0:0:
52,282,74199,2,0,P|21:238|17:203,1,89.9999999999999
84,143,74848,2,0,P|115:99|119:64,1,89.9999999999999,2|0,0:0|0:0,0:0:0:0:
208,58,75496,6,0,L|347:72,2,135,8|8|8,0:0|0:0|0:0,0:0:0:0:
119,64,76794,5,4,3:0:0:0:
164,139,77118,2,0,P|177:187|170:226,2,89.9999999999999,8|8|8,0:0|0:0|0:0,0:0:0:0:
88,188,78091,6,0,P|86:259|170:316,1,180,4|2,0:0|0:0,0:0:0:0:
259,307,79064,1,0,0:0:0:0:
345,284,79388,2,0,L|478:306,2,135,0|2|0,0:0|0:0|0:0,0:0:0:0:
280,220,80686,6,0,B|279:166|279:166|315:118|315:118|313:51,1,180,4|2,0:0|0:0,0:0:0:0:
227,22,81659,1,0,0:0:0:0:
155,76,81983,2,0,P|100:104|28:95,2,135,0|2|0,0:0|0:0|0:0,0:0:0:0:
237,112,83280,6,0,P|299:162|211:292,1,270,4|8,0:0|0:0,0:0:0:0:
218,201,84578,2,0,B|344:264|368:136|497:213,1,270,4|8,0:0|0:0,0:0:0:0:
503,289,85875,2,0,P|419:328|342:300,1,180,4|8,0:0|0:0,0:0:0:0:
256,192,87172,12,4,88469,0:0:0:0:
85,41,93659,6,0,L|65:311,1,270,4|0,0:0|0:0,0:0:0:0:
141,357,94956,2,0,P|241:356|291:211,1,270,4|0,0:0|0:0,0:0:0:0:
318,127,96253,6,0,L|507:148,2,180,4|4|4,0:0|0:0|0:0,0:0:0:0:
230,148,97875,2,0,P|182:164|142:162,2,89.9999999999999
256,61,98848,6,0,L|263:242,1,180,8|8,0:0|0:0,0:0:0:0:
422,323,100145,2,0,P|465:282|359:156,1,270,8|2,0:0|0:0,0:0:0:0:
386,241,101442,6,0,P|311:265|220:231,1,180,4|2,0:0|0:0,0:0:0:0:
184,148,102415,1,0,0:0:0:0:
105,192,102740,2,0,P|62:200|15:192,2,89.9999999999999,0|0|2,0:0|0:0|0:0,0:0:0:0:
107,101,103713,1,0,0:0:0:0:
175,42,104037,6,0,P|239:57|290:153,1,180,4|2,0:0|0:0,0:0:0:0:
330,232,105010,1,0,0:0:0:0:
392,296,105334,2,0,P|414:323|466:343,2,89.9999999999999,0|0|2,0:0|0:0|0:0,0:0:0:0:
304,319,106307,1,0,0:0:0:0:
215,300,106632,6,0,B|165:293|165:293|118:310|118:310|40:299,1,180,4|2,0:0|0:0,0:0:0:0:
3,216,107605,1,0,0:0:0:0:
26,129,107929,2,0,P|71:101|110:98,1,89.9999999999999
192,126,108578,2,0,P|237:154|276:157,1,89.9999999999999,2|0,0:0|0:0,0:0:0:0:
362,146,109226,6,2,P|422:165|413:342,1,270,2|0,2:0|0:0,2:0:0:0:
330,363,110523,1,8,0:0:0:0:
382,6,111821,6,0,P|336:49|226:39,1,180,4|2,0:0|0:0,0:0:0:0:
136,53,112794,1,0,0:0:0:0:
188,127,113118,2,0,P|206:169|201:216,1,89.9999999999999
125,259,113767,2,0,P|107:301|112:348,1,89.9999999999999,2|0,0:0|0:0,0:0:0:0:
196,316,114415,6,0,P|271:324|346:260,1,180,4|2,0:0|0:0,0:0:0:0:
370,172,115388,1,0,0:0:0:0:
427,102,115713,2,0,L|516:89,2,89.9999999999999,0|0|2,0:0|0:0|0:0,0:0:0:0:
337,88,116686,1,0,0:0:0:0:
247,81,117010,6,0,B|160:104|160:40|66:69,1,180,4|2,0:0|0:0,0:0:0:0:
9,132,117983,1,0,0:0:0:0:
1,221,118307,2,0,P|47:282|146:286,1,180,0|2,0:0|0:0,0:0:0:0:
228,253,119280,1,0,0:0:0:0:
317,263,119605,6,0,L|453:283,2,135,8|8|8,0:0|0:0|0:0,0:0:0:0:
256,192,120902,12,4,122199,0:0:0:0:
