osu file format v14

[General]
AudioFilename: Ryu - We're so Happy.mp3
AudioLeadIn: 0
PreviewTime: 56037
Countdown: 0
SampleSet: Normal
StackLeniency: 0.3
Mode: 0
LetterboxInBreaks: 0
WidescreenStoryboard: 1

[Editor]
Bookmarks: 88469,92361,107442,107605,107767
DistanceSpacing: 0.6
BeatDivisor: 4
GridSize: 4
TimelineZoom: 1.3

[Metadata]
Title:We're so Happy
TitleUnicode:We're so Happy
Artist:Ryu*
ArtistUnicode:Ryu☆
Creator:Yauxo
Version:Kyshiro's Extra
Source:jubeat saucer
Tags:Lyawi Milan- appleeaterx captin1 Kyshiro Mayumi Morinaga jukebeat ミライダガッキ FutureTomTom
BeatmapID:1098488
BeatmapSetID:456072

[Difficulty]
HPDrainRate:6
CircleSize:4.3
OverallDifficulty:9
ApproachRate:9.3
SliderMultiplier:1.8
SliderTickRate:1

[Events]
//Background and Video events
0,0,"063 - sAUF0cD.jpg",0,0
//Break Periods
2,88669,91807
//Storyboard Layer 0 (Background)
//Storyboard Layer 1 (Fail)
//Storyboard Layer 2 (Pass)
//Storyboard Layer 3 (Foreground)
//Storyboard Sound Samples

[TimingPoints]
1551,324.324324324324,4,2,1,30,1,0
13145,-142.857142857143,4,2,1,5,0,0
13226,-100,4,1,1,50,0,0
13956,-100,4,1,1,5,0,0
14037,-100,4,1,1,50,0,0
15253,-100,4,1,1,5,0,0
15334,-100,4,1,1,50,0,0
19145,-100,4,1,1,5,0,0
19226,-100,4,1,1,50,0,0
20442,-100,4,1,1,5,0,0
20523,-100,4,1,1,50,0,0
23442,-100,4,2,1,55,0,0
23605,-100,4,1,1,50,0,0
24334,-100,4,1,1,5,0,0
24415,-100,4,1,1,50,0,0
25632,-100,4,1,1,5,0,0
25713,-100,4,1,1,50,0,0
26929,-100,4,1,1,5,0,0
27010,-100,4,1,1,50,0,0
31388,-117.647058823529,4,1,1,40,0,0
32686,-200,4,1,1,50,0,0
33902,-200,4,1,1,5,0,0
33983,-125,4,2,1,50,0,0
38523,-125,4,2,1,35,0,0
44361,-125,4,1,1,35,0,0
52145,-100,4,1,1,45,0,0
52226,-100,4,1,1,25,0,0
52469,-95.2380952380952,4,1,1,45,0,0
52550,-95.2380952380952,4,1,1,25,0,0
52794,-90.9090909090909,4,1,1,45,0,0
52875,-90.9090909090909,4,1,1,25,0,0
53118,-86.9565217391304,4,1,1,45,0,0
53199,-86.9565217391304,4,1,1,25,0,0
53442,-100,4,1,1,45,0,0
53605,-100,4,1,1,45,0,0
54091,-66.6666666666667,4,1,1,45,0,0
56037,-100,4,1,1,50,0,0
56361,-100,4,1,1,50,0,0
56402,-100,4,1,1,5,0,0
56686,-83.3333333333333,4,1,1,50,0,0
56726,-83.3333333333333,4,1,1,5,0,0
57010,-66.6666666666667,4,1,1,50,0,0
57334,-86.9565217391304,4,1,1,50,0,1
66496,-86.9565217391304,4,1,1,30,0,1
66740,-86.9565217391304,4,1,1,50,0,1
66821,-86.9565217391304,4,1,1,30,0,1
67064,-86.9565217391304,4,1,1,50,0,1
76834,-86.9565217391304,4,1,1,20,0,1
77118,-86.9565217391304,4,1,1,50,0,1
77361,-86.9565217391304,4,1,1,5,0,1
77442,-86.9565217391304,4,1,1,50,0,1
77686,-86.9565217391304,4,1,1,5,0,1
77767,-86.9565217391304,4,1,1,50,0,1
78010,-86.9565217391304,4,1,1,5,0,1
78091,-100,4,1,1,50,0,0
83199,-100,4,1,1,5,0,0
83280,-200,4,1,1,50,0,0
83605,-100,4,1,1,50,0,0
84578,-200,4,1,1,50,0,0
84902,-100,4,1,1,50,0,0
88145,-100,4,1,1,50,0,0
88469,-100,4,1,1,50,0,0
92361,-100,4,2,1,50,0,0
92402,-133.333333333333,4,2,1,10,0,0
92686,-100,4,2,1,20,0,0
93010,-100,4,2,1,30,0,0
93334,-100,4,2,1,40,0,0
93659,-108.695652173913,4,1,1,50,0,0
96253,-100,4,1,1,50,0,0
99010,-100,4,1,1,50,0,0
99172,-133.333333333333,4,1,1,50,0,0
99496,-100,4,1,1,50,0,0
99821,-133.333333333333,4,1,1,50,0,0
100145,-100,4,1,1,50,0,0
101442,-86.9565217391304,4,1,1,50,0,1
122199,-100,4,1,1,50,0,0

[Colours]
Combo1 : 159,234,226
Combo2 : 245,197,237
Combo3 : 168,207,255
Combo4 : 250,156,170

[HitObjects]
256,192,11929,12,0,13145,0:0:0:0:
56,61,13226,6,0,P|99:41|151:43,1,90,8|0,1:0|0:0,0:0:0:0:
228,152,13550,1,2,0:0:0:0:
143,300,13713,2,0,B|101:249|101:249|119:128,1,180,0|0,0:0|0:0,0:0:0:0:
254,248,14199,2,0,L|276:347,1,90,2|0,0:0|0:0,0:0:0:0:
284,366,14442,5,0,0:0:0:0:
284,366,14523,1,8,1:0:0:0:
356,228,14686,1,0,0:0:0:0:
146,269,14848,1,2,0:0:0:0:
389,336,15010,2,0,L|487:319,1,90,0|0,0:0|0:0,0:0:0:0:
379,155,15334,1,0,0:0:0:0:
276,296,15496,2,0,L|293:394,1,90,2|0,0:0|0:0,0:0:0:0:
153,221,15821,5,8,1:0:0:0:
272,165,15983,1,0,0:0:0:0:
272,165,16064,1,0,0:0:0:0:
272,165,16145,1,2,0:0:0:0:
172,334,16307,2,0,P|126:332|83:311,1,90,0|8,0:0|1:0,0:0:0:0:
35,215,16632,1,0,0:0:0:0:
140,131,16794,2,0,L|153:227,1,90,2|0,0:0|0:0,0:0:0:0:
278,137,17118,6,0,L|290:47,1,90,8|0,1:0|0:0,0:0:0:0:
300,17,17361,1,0,0:0:0:0:
300,17,17442,1,2,0:0:0:0:
404,111,17605,1,0,0:0:0:0:
310,246,17767,2,0,L|220:233,1,90,8|0,1:0|0:0,0:0:0:0:
404,111,18091,2,0,L|493:98,1,90,2|0,0:0|0:0,0:0:0:0:
129,289,18415,6,0,P|115:244|126:186,1,90,8|0,1:0|0:0,0:0:0:0:
216,103,18740,1,2,0:0:0:0:
383,227,18902,2,0,B|332:265|332:265|207:230,1,180,0|0,0:0|0:0,0:0:0:0:
313,161,19388,1,2,0:0:0:0:
418,321,19550,1,0,0:0:0:0:
418,321,19632,1,0,0:0:0:0:
418,321,19713,1,8,1:0:0:0:
239,324,19875,5,0,0:0:0:0:
411,205,20037,1,2,0:0:0:0:
325,376,20199,1,0,0:0:0:0:
233,223,20361,2,0,P|184:211|136:217,1,90
411,205,20686,2,0,P|446:168|465:123,1,90,2|0,0:0|0:0,0:0:0:0:
298,22,21010,6,0,L|314:126,1,90,8|0,1:0|0:0,0:0:0:0:
319,143,21253,1,0,0:0:0:0:
319,143,21334,1,2,0:0:0:0:
394,28,21496,2,0,L|191:16,1,180,0|0,0:0|0:0,0:0:0:0:
45,158,21983,1,2,0:0:0:0:
229,109,22145,1,0,0:0:0:0:
180,292,22307,1,2,2:0:0:0:
156,188,22632,5,2,2:0:0:0:
302,280,22956,5,2,2:0:0:0:
309,107,23280,5,2,2:0:0:0:
155,207,23605,6,0,L|152:306,1,90,12|0,1:0|0:0,0:0:0:0:
37,246,23929,1,2,0:0:0:0:
250,160,24091,2,0,B|187:188|187:188|64:150,1,180,0|0,0:0|0:0,0:0:0:0:
181,87,24578,1,2,0:0:0:0:
265,267,24740,1,0,0:0:0:0:
265,267,24821,1,0,0:0:0:0:
265,267,24902,1,8,1:0:0:0:
314,129,25064,5,0,0:0:0:0:
130,210,25226,2,0,P|76:201|31:182,1,90,2|0,0:0|0:0,0:0:0:0:
314,129,25550,2,0,P|356:113|400:107,1,90,0|0,0:0|0:0,0:0:0:0:
263,316,25875,2,0,L|250:214,1,90,2|0,0:0|0:0,0:0:0:0:
231,70,26199,5,8,1:0:0:0:
358,217,26361,1,0,0:0:0:0:
358,217,26442,1,0,0:0:0:0:
358,217,26523,1,2,0:0:0:0:
149,238,26686,2,0,L|55:227,1,90,0|0,0:0|0:0,0:0:0:0:
349,322,27010,2,0,L|443:311,1,90,0|2,0:0|0:0,0:0:0:0:
273,242,27334,1,0,0:0:0:0:
489,208,27496,6,0,P|413:212|333:147,1,180,8|2,1:0|0:0,0:0:0:0:
446,92,27983,1,0,0:0:0:0:
446,92,28064,1,0,0:0:0:0:
446,92,28145,1,8,1:0:0:0:
327,263,28307,1,0,0:0:0:0:
301,38,28469,2,0,L|329:140,1,90,2|0,0:0|0:0,0:0:0:0:
76,226,28794,6,0,B|193:179|193:179|265:199,1,180,8|2,1:0|0:0,0:0:0:0:
196,285,29280,1,0,0:0:0:0:
98,125,29442,2,0,B|80:83|80:83|90:37,1,90,8|0,1:0|0:0,0:0:0:0:
196,285,29767,2,0,B|205:328|205:328|187:370,1,90,2|0,0:0|0:0,0:0:0:0:
58,247,30091,5,8,1:0:0:0:
229,162,30253,2,0,P|242:114|236:67,1,90,0|2,0:0|0:0,0:0:0:0:
145,256,30578,2,0,P|97:243|50:249,1,90,0|8,0:0|1:0,0:0:0:0:
280,283,30902,2,0,P|267:331|273:378,1,90,0|2,0:0|0:0,0:0:0:0:
364,189,31227,2,0,P|412:202|459:196,1,90,0|0,0:0|0:0,0:0:0:0:
256,16,31550,6,0,L|243:91,1,76.5000014591217,0|0,0:0|0:0,0:0:0:0:
418,82,31875,1,0,0:0:0:0:
324,303,32037,1,0,0:0:0:0:
150,225,32199,1,0,0:0:0:0:
339,230,32361,1,0,0:0:0:0:
335,248,32442,1,0,0:0:0:0:
331,266,32523,1,0,0:0:0:0:
327,285,32605,1,0,0:0:0:0:
324,303,32686,1,2,2:0:0:0:
96,238,33983,6,0,L|86:163,1,72,4|0,1:0|0:0,0:0:0:0:
148,83,34307,1,0,0:0:0:0:
215,219,34469,2,0,L|202:366,1,144,2|2,0:0|0:0,0:0:0:0:
392,256,35118,5,2,0:0:0:0:
118,229,35442,2,0,P|108:175|114:143,1,72,2|0,0:0|0:0,0:0:0:0:
347,165,35767,2,0,B|304:196|304:196|206:178,1,144,2|2,0:0|0:0,0:0:0:0:
289,32,36253,2,0,L|281:110,1,72,2|0,0:0|0:0,0:0:0:0:
406,270,36578,5,2,0:0:0:0:
475,196,36740,1,0,0:0:0:0:
377,172,36902,1,2,0:0:0:0:
406,270,37064,2,0,L|399:352,1,72,2|0,0:0|0:0,0:0:0:0:
354,154,37388,2,0,L|347:82,1,72,2|0,0:0|0:0,0:0:0:0:
265,231,37713,2,0,P|211:243|112:216,1,144,2|2,0:0|0:0,0:0:0:0:
119,219,38361,1,2,0:0:0:0:
165,119,38523,5,2,2:0:0:0:
181,142,38605,1,2,2:0:0:0:
193,168,38686,1,2,2:0:0:0:
200,196,38767,1,2,2:0:0:0:
200,225,38848,1,2,2:0:0:0:
196,253,38929,1,0,0:0:0:0:
186,280,39010,1,0,0:0:0:0:
170,304,39091,1,0,0:0:0:0:
150,325,39172,6,0,L|89:322,3,36,2|0|0|0,2:0|0:0|0:0|0:0,0:0:0:0:
42,268,39496,1,0,0:0:0:0:
125,164,39659,2,0,L|133:252,1,72,2|0,0:0|0:0,0:0:0:0:
224,136,39983,2,0,L|230:64,1,72,2|0,0:0|0:0,0:0:0:0:
457,107,40307,2,0,P|400:135|317:115,1,144,2|2,0:0|0:0,0:0:0:0:
314,115,40956,6,0,L|301:204,1,72,2|0,0:0|0:0,0:0:0:0:
403,167,41280,1,2,0:0:0:0:
223,206,41442,2,0,L|236:295,1,72,2|0,0:0|0:0,0:0:0:0:
40,212,41767,5,2,0:0:0:0:
110,129,41929,1,0,0:0:0:0:
5,109,42091,1,2,0:0:0:0:
45,227,42253,2,0,P|51:271|48:302,1,72,2|0,0:0|0:0,0:0:0:0:
118,113,42578,2,0,P|115:77|121:41,1,72,2|0,0:0|0:0,0:0:0:0:
167,225,42902,1,2,0:0:0:0:
255,129,43064,5,2,2:0:0:0:
276,125,43145,1,0,0:0:0:0:
297,125,43226,1,0,0:0:0:0:
318,127,43307,1,0,0:0:0:0:
339,131,43388,1,2,2:0:0:0:
359,138,43469,1,0,0:0:0:0:
378,147,43550,1,0,0:0:0:0:
395,159,43632,1,0,0:0:0:0:
440,200,43713,5,2,2:0:0:0:
419,196,43794,1,0,0:0:0:0:
398,196,43875,1,2,2:0:0:0:
377,198,43956,1,0,0:0:0:0:
356,202,44037,1,2,2:0:0:0:
336,209,44118,1,2,2:0:0:0:
317,218,44199,1,2,2:0:0:0:
300,230,44281,1,0,0:0:0:0:
285,245,44361,5,12,1:0:0:0:
211,184,44523,1,8,1:0:0:0:
389,241,44686,1,8,1:0:0:0:
389,241,44767,1,8,1:0:0:0:
261,334,44929,1,8,1:0:0:0:
324,152,45091,1,8,1:0:0:0:
324,152,45172,1,8,1:0:0:0:
502,294,45334,1,2,0:0:0:0:
502,294,45659,5,12,1:0:0:0:
334,253,45821,1,8,1:0:0:0:
446,174,45983,1,8,1:0:0:0:
446,174,46064,1,8,1:0:0:0:
398,344,46226,1,8,1:0:0:0:
247,236,46388,1,8,1:0:0:0:
247,236,46469,1,8,1:0:0:0:
497,62,46632,1,6,0:0:0:0:
497,62,46956,5,12,1:0:0:0:
324,13,47118,1,8,1:0:0:0:
284,173,47280,1,8,1:0:0:0:
284,173,47361,1,8,1:0:0:0:
387,110,47523,1,8,1:0:0:0:
167,57,47686,1,8,1:0:0:0:
167,57,47767,1,8,1:0:0:0:
162,290,47929,2,0,L|163:341,1,36,6|0,0:0|0:0,0:0:0:0:
94,234,48091,2,0,L|43:235,1,36,6|0,0:0|0:0,0:0:0:0:
156,175,48253,5,12,1:0:0:0:
274,276,48415,1,8,1:0:0:0:
82,316,48578,1,8,1:0:0:0:
82,316,48659,1,8,1:0:0:0:
144,104,48821,1,8,1:0:0:0:
194,357,48983,1,8,1:0:0:0:
194,357,49064,1,8,1:0:0:0:
362,127,49226,2,0,P|375:100|378:80,1,36,6|0,0:0|0:0,0:0:0:0:
245,149,49388,2,0,P|215:151|196:158,1,36,6|0,0:0|0:0,0:0:0:0:
326,240,49550,5,12,1:0:0:0:
461,73,49713,1,8,1:0:0:0:
305,87,49875,1,8,1:0:0:0:
472,222,50038,1,8,1:0:0:0:
314,255,50199,5,12,1:0:0:0:
473,58,50362,1,8,1:0:0:0:
289,74,50524,1,8,1:0:0:0:
486,233,50687,1,8,1:0:0:0:
297,353,50848,5,12,1:0:0:0:
322,168,51011,1,8,1:0:0:0:
120,331,51173,1,8,1:0:0:0:
134,151,51334,1,0,0:0:0:0:
310,371,51497,5,12,1:0:0:0:
340,152,51659,1,8,1:0:0:0:
102,344,51822,1,8,1:0:0:0:
118,133,51983,1,0,0:0:0:0:
365,273,52145,5,12,1:0:0:0:
400,270,52226,1,0,0:0:0:0:
433,256,52307,1,8,1:0:0:0:
461,233,52388,1,0,0:0:0:0:
481,201,52469,2,0,L|493:142,3,47.2499985580445,8|0|8|0,1:0|0:0|1:0|0:0,0:0:0:0:
390,138,52794,5,12,1:0:0:0:
350,142,52875,1,0,0:0:0:0:
311,133,52956,1,8,1:0:0:0:
278,111,53037,1,0,0:0:0:0:
251,79,53118,2,0,L|240:24,3,51.7500009870529,8|0|8|0,1:0|0:0|1:0|0:0,0:0:0:0:
148,8,53442,5,8,1:0:0:0:
104,30,53523,1,0,0:0:0:0:
80,74,53605,1,8,1:0:0:0:
84,123,53686,1,0,0:0:0:0:
116,160,53767,1,8,1:0:0:0:
163,174,53848,1,0,0:0:0:0:
192,213,53929,1,8,1:0:0:0:
193,262,54010,1,0,0:0:0:0:
160,299,54091,6,0,L|84:290,1,67.5000025749208,8|0,1:0|0:0,0:0:0:0:
304,211,54253,2,0,L|380:202,1,67.5000025749208,8|0,1:0|0:0,0:0:0:0:
82,222,54415,6,0,L|6:213,1,67.5000025749208,8|8,1:0|1:0,0:0:0:0:
386,273,54577,2,0,L|462:264,1,67.5000025749208,12|0,1:0|0:0,0:0:0:0:
115,113,56037,6,0,L|88:103,4,22.5,8|8|8|8|8,1:0|1:0|1:0|1:0|1:0,0:0:0:0:
390,170,56361,6,0,P|410:222|373:312,1,135,8|0,1:0|2:0,0:0:0:0:
311,232,56686,6,0,B|245:280|245:280|152:259,1,161.999995056153,8|0,1:0|2:0,0:0:0:0:
222,172,57010,6,0,L|194:30,1,135.000005149842,2|0,0:0|2:0,0:0:0:0:
313,124,57334,5,12,1:0:0:0:
253,294,57496,1,0,0:0:0:0:
253,294,57578,1,0,0:0:0:0:
253,294,57659,1,2,0:0:0:0:
93,164,57821,2,0,P|170:166|216:186,1,103.500001974106,0|0,0:0|0:0,0:0:0:0:
459,230,58145,2,0,P|409:243|357:240,1,103.500001974106,0|2,0:0|0:0,0:0:0:0:
321,109,58469,1,0,0:0:0:0:
402,323,58632,5,8,1:0:0:0:
255,258,58794,1,0,0:0:0:0:
255,258,58875,1,0,0:0:0:0:
255,258,58956,1,2,0:0:0:0:
456,172,59118,1,0,0:0:0:0:
288,366,59280,2,0,P|221:365|174:339,1,103.500001974106,8|0,1:0|0:0,0:0:0:0:
284,129,59605,2,0,P|283:196|257:243,1,103.500001974106,2|0,0:0|0:0,0:0:0:0:
106,228,59929,5,8,1:0:0:0:
145,88,60091,1,0,0:0:0:0:
145,88,60172,1,0,0:0:0:0:
145,88,60253,1,2,0:0:0:0:
380,197,60415,2,0,L|491:176,1,103.500001974106,0|0,0:0|0:0,0:0:0:0:
246,107,60740,2,0,L|135:86,1,103.500001974106,0|2,0:0|0:0,0:0:0:0:
382,57,61064,1,0,0:0:0:0:
158,201,61226,6,0,P|251:201|330:285,1,207.000003948212,8|2,1:0|0:0,0:0:0:0:
204,324,61713,1,0,0:0:0:0:
426,352,61875,2,0,P|447:294|440:240,1,103.500001974106,8|0,1:0|0:0,0:0:0:0:
265,91,62199,2,0,P|263:142|283:189,1,103.500001974106,2|0,0:0|0:0,0:0:0:0:
411,114,62523,5,8,1:0:0:0:
186,27,62686,1,0,0:0:0:0:
186,27,62767,1,0,0:0:0:0:
186,27,62848,1,2,0:0:0:0:
223,228,63010,1,0,0:0:0:0:
315,26,63172,1,0,0:0:0:0:
141,142,63334,1,0,0:0:0:0:
343,234,63496,1,2,0:0:0:0:
243,73,63659,1,0,0:0:0:0:
146,283,63821,5,8,1:0:0:0:
264,199,63983,1,0,0:0:0:0:
264,199,64064,1,0,0:0:0:0:
264,199,64145,1,2,0:0:0:0:
141,142,64307,2,0,P|130:81|141:31,1,103.500001974106,0|8,0:0|1:0,0:0:0:0:
286,84,64632,1,0,0:0:0:0:
202,287,64794,2,0,L|79:279,1,103.500001974106,2|0,0:0|0:0,0:0:0:0:
264,199,65118,6,0,B|365:165|365:232|467:199,1,207.000003948212,8|2,1:0|0:0,0:0:0:0:
412,92,65605,1,0,0:0:0:0:
317,296,65767,1,0,0:0:0:0:
263,142,65929,1,0,0:0:0:0:
467,237,66091,1,2,0:0:0:0:
255,349,66253,1,0,0:0:0:0:
337,102,66415,5,8,1:0:0:0:
429,266,66740,5,2,0:0:0:0:
156,172,67064,5,2,0:0:0:0:
271,307,67388,5,2,0:0:0:0:
271,307,67713,6,0,P|270:248|251:199,1,103.500001974106,12|0,1:0|0:0,0:0:0:0:
130,279,68037,1,2,0:0:0:0:
356,354,68199,2,0,L|476:338,1,103.500001974106,0|0,0:0|0:0,0:0:0:0:
231,200,68523,2,0,L|111:184,1,103.500001974106,0|2,0:0|0:0,0:0:0:0:
340,130,68848,1,0,0:0:0:0:
275,313,69010,5,8,1:0:0:0:
249,98,69172,1,0,0:0:0:0:
432,163,69334,1,2,0:0:0:0:
215,191,69496,1,0,0:0:0:0:
280,8,69658,1,8,1:0:0:0:
336,233,69821,1,0,0:0:0:0:
99,208,69983,1,2,0:0:0:0:
221,81,70145,1,0,0:0:0:0:
221,81,70226,1,0,2:0:0:0:
221,81,70307,6,0,L|232:197,1,103.500001974106,8|0,1:0|0:0,0:0:0:0:
344,116,70632,1,2,0:0:0:0:
103,128,70794,2,0,P|33:120|2:109,1,103.500001974106,0|0,0:0|0:0,0:0:0:0:
344,116,71118,2,0,P|393:100|444:97,1,103.500001974106,0|2,0:0|0:0,0:0:0:0:
262,349,71442,6,0,B|233:287|233:287|259:223|259:223|229:160,1,207.000003948212,0|0,0:0|0:0,0:0:0:0:
138,222,71929,1,2,0:0:0:0:
337,282,72091,1,0,0:0:0:0:
169,119,72253,1,8,1:0:0:0:
109,317,72415,1,0,0:0:0:0:
259,196,72578,1,2,0:0:0:0:
31,185,72740,1,0,0:0:0:0:
31,185,72821,1,0,0:0:0:0:
31,185,72902,6,0,P|16:113|26:77,1,103.500001974106,8|0,1:0|0:0,0:0:0:0:
158,14,73226,1,2,0:0:0:0:
236,132,73388,2,0,L|126:126,1,103.500001974106,0|8,0:0|1:0,0:0:0:0:
315,46,73713,2,0,L|425:40,1,103.500001974106,0|2,0:0|0:0,0:0:0:0:
490,190,74037,1,0,0:0:0:0:
314,252,74199,5,8,1:0:0:0:
430,112,74361,1,0,0:0:0:0:
492,288,74523,1,2,0:0:0:0:
253,344,74686,1,0,0:0:0:0:
253,344,74767,1,0,0:0:0:0:
253,344,74848,2,0,L|141:333,1,103.500001974106,8|0,1:0|0:0,0:0:0:0:
40,323,75172,1,2,0:0:0:0:
126,35,75334,1,0,0:0:0:0:
126,35,75415,1,0,0:0:0:0:
126,35,75496,6,0,L|115:147,1,103.500001974106,8|0,1:0|0:0,0:0:0:0:
105,248,75820,1,2,0:0:0:0:
225,95,75983,1,0,0:0:0:0:
225,95,76064,1,0,0:0:0:0:
225,95,76145,1,8,1:0:0:0:
20,182,76307,1,0,0:0:0:0:
20,182,76388,1,0,0:0:0:0:
20,182,76469,1,2,0:0:0:0:
193,287,76632,1,0,0:0:0:0:
193,287,76713,1,0,0:0:0:0:
193,287,76794,2,0,L|225:282,4,25.8750004935265,8|0|8|0|8,1:0|0:0|1:0|0:0|1:0,0:0:0:0:
351,181,77118,6,0,B|303:209|303:209|197:182,1,155.250002961159,2|0,0:0|0:0,0:0:0:0:
253,56,77442,6,0,B|289:128|289:128|334:66,1,155.250002961159,2|0,0:0|0:0,0:0:0:0:
427,40,77767,6,0,P|413:127|455:178,1,155.250002961159,2|0,0:0|0:0,0:0:0:0:
498,238,78091,6,0,L|483:343,1,90,12|2,1:0|2:0,0:0:0:0:
465,348,78334,2,0,P|406:353|359:329,1,90,0|0,0:0|0:0,0:0:0:0:
277,228,78659,2,0,P|217:220|141:268,1,135,0|2,0:0|2:0,0:0:0:0:
236,341,79064,1,2,0:0:0:0:
341,173,79226,1,2,2:0:0:0:
138,168,79388,5,8,1:0:0:0:
340,295,79550,1,0,0:0:0:0:
340,295,79632,2,0,L|447:281,1,90,0|0,0:0|0:0,0:0:0:0:
346,97,79956,1,0,0:0:0:0:
202,259,80118,2,0,L|221:377,1,90,0|0,0:0|0:0,0:0:0:0:
184,377,80361,1,2,0:0:0:0:
134,375,80442,1,0,0:0:0:0:
89,352,80523,1,2,2:0:0:0:
66,307,80605,1,0,0:0:0:0:
69,257,80686,5,8,1:0:0:0:
188,138,80848,1,0,0:0:0:0:
188,138,80929,1,0,0:0:0:0:
26,109,81091,1,0,0:0:0:0:
202,259,81253,2,0,P|245:262|332:217,1,135,0|2,0:0|2:0,0:0:0:0:
251,12,81659,2,0,L|238:122,1,90,2|2,0:0|2:0,0:0:0:0:
366,112,81983,5,8,1:0:0:0:
143,45,82145,1,2,2:0:0:0:
143,45,82226,1,0,0:0:0:0:
225,176,82388,1,0,0:0:0:0:
276,18,82550,1,0,0:0:0:0:
93,169,82713,2,0,L|101:285,1,90,0|0,0:0|0:0,0:0:0:0:
104,290,82956,2,0,B|150:299|150:299|193:288|193:288|244:300,1,135,2|0,0:0|0:0,0:0:0:0:
265,308,83280,5,8,1:0:0:0:
361,180,83442,1,0,0:0:0:0:
361,180,83523,1,0,0:0:0:0:
361,180,83605,1,2,0:0:0:0:
425,319,83767,1,2,0:0:0:0:
223,187,83929,1,8,1:0:0:0:
213,166,84010,1,8,1:0:0:0:
207,144,84091,1,8,1:0:0:0:
203,121,84172,1,8,1:0:0:0:
203,98,84253,1,2,0:0:0:0:
208,76,84334,1,8,1:0:0:0:
215,54,84415,1,2,0:0:0:0:
227,35,84496,1,8,1:0:0:0:
243,19,84578,5,12,1:0:0:0:
350,123,84740,1,0,0:0:0:0:
350,123,84821,1,0,0:0:0:0:
350,123,84902,1,8,1:0:0:0:
234,210,85064,1,8,1:0:0:0:
64,75,85226,1,8,1:0:0:0:
83,63,85307,1,8,1:0:0:0:
104,58,85388,1,8,1:0:0:0:
126,59,85469,1,8,1:0:0:0:
147,66,85550,1,2,0:0:0:0:
166,77,85632,1,8,1:0:0:0:
187,83,85713,1,2,0:0:0:0:
209,82,85794,1,8,1:0:0:0:
229,73,85875,5,0,0:0:0:0:
112,143,86037,1,12,1:0:0:0:
311,56,86523,5,12,1:0:0:0:
34,149,86686,1,12,1:0:0:0:
395,46,87172,5,8,1:0:0:0:
400,67,87253,1,8,1:0:0:0:
404,88,87334,1,8,1:0:0:0:
409,109,87415,1,8,1:0:0:0:
379,142,87496,1,2,0:0:0:0:
374,163,87577,1,8,1:0:0:0:
370,184,87658,1,8,1:0:0:0:
365,205,87739,1,8,1:0:0:0:
394,240,87821,5,2,0:0:0:0:
150,127,88145,5,2,0:0:0:0:
205,353,88469,5,12,1:0:0:0:
256,192,92361,12,2,93496,2:0:0:0:
94,69,93659,5,8,1:0:0:0:
135,213,93821,1,8,1:0:0:0:
238,105,93983,1,8,1:0:0:0:
238,105,94064,1,8,1:0:0:0:
24,172,94226,1,8,1:0:0:0:
181,309,94388,1,8,1:0:0:0:
181,309,94469,1,8,1:0:0:0:
112,80,94632,1,2,0:0:0:0:
458,141,94956,5,8,1:0:0:0:
327,188,95118,1,8,1:0:0:0:
487,267,95280,1,8,1:0:0:0:
487,267,95361,1,0,0:0:0:0:
356,324,95523,1,0,0:0:0:0:
371,101,95686,1,8,1:0:0:0:
371,101,95767,1,8,1:0:0:0:
180,169,95929,2,0,L|174:235,1,41.3999986102295,2|0,0:0|0:0,0:0:0:0:
267,196,96091,2,0,L|333:202,1,41.3999986102295,2|0,0:0|0:0,0:0:0:0:
251,106,96253,5,12,1:0:0:0:
79,158,96415,1,0,0:0:0:0:
211,282,96578,1,2,2:0:0:0:
147,69,96740,1,2,2:0:0:0:
103,262,96902,6,0,L|93:311,1,45,12|0,1:0|0:0,0:0:0:0:
16,228,97064,1,0,0:0:0:0:
212,145,97226,1,2,2:0:0:0:
186,356,97388,1,2,2:0:0:0:
94,132,97550,6,0,L|102:74,1,45,12|0,1:0|0:0,0:0:0:0:
176,35,97713,1,2,2:0:0:0:
217,18,97794,1,0,0:0:0:0:
261,23,97875,1,12,1:0:0:0:
294,52,97956,1,0,0:0:0:0:
331,77,98037,1,2,2:0:0:0:
375,79,98118,1,0,0:0:0:0:
416,60,98199,5,12,1:0:0:0:
222,121,98523,5,2,0:0:0:0:
496,225,98848,5,12,1:0:0:0:
496,225,99010,1,8,1:0:0:0:
462,337,99172,5,2,2:0:0:0:
343,135,99496,1,12,1:0:0:0:
345,162,99578,1,0,0:0:0:0:
347,188,99659,5,8,1:0:0:0:
351,281,99821,1,2,2:0:0:0:
234,55,100145,5,12,1:0:0:0:
226,90,100226,1,8,1:0:0:0:
218,125,100307,1,8,1:0:0:0:
210,160,100388,1,8,1:0:0:0:
180,188,100469,1,12,1:0:0:0:
188,223,100550,1,8,1:0:0:0:
196,258,100631,1,8,1:0:0:0:
204,293,100712,1,8,1:0:0:0:
185,331,100794,5,12,1:0:0:0:
62,202,101118,5,2,0:0:0:0:
331,258,101442,6,0,P|396:252|443:234,1,103.500001974106,12|0,1:0|0:0,0:0:0:0:
271,118,101767,1,2,0:0:0:0:
171,240,101929,2,0,L|182:356,1,103.500001974106,0|0,0:0|0:0,0:0:0:0:
283,110,102253,2,0,L|292:6,1,103.500001974106,0|2,0:0|0:0,0:0:0:0:
134,96,102578,1,0,0:0:0:0:
305,235,102740,5,8,1:0:0:0:
393,84,102902,1,0,0:0:0:0:
393,84,102983,1,0,0:0:0:0:
393,84,103064,1,2,0:0:0:0:
224,193,103226,1,0,0:0:0:0:
375,281,103388,1,8,1:0:0:0:
267,116,103550,1,0,0:0:0:0:
179,267,103713,1,2,0:0:0:0:
343,160,103875,1,2,2:0:0:0:
192,72,104038,5,8,1:0:0:0:
171,349,104199,1,0,0:0:0:0:
171,349,104280,1,0,0:0:0:0:
171,349,104361,1,2,0:0:0:0:
357,237,104523,2,0,L|251:247,1,103.500001974106,0|0,0:0|0:0,0:0:0:0:
43,158,104848,2,0,L|149:168,1,103.500001974106,0|2,0:0|0:0,0:0:0:0:
365,98,105172,6,0,B|325:129|268:134|268:134|225:110|204:52,1,207.000003948212,0|0,0:0|0:0,0:0:0:0:
303,12,105659,1,2,0:0:0:0:
456,153,105821,1,0,0:0:0:0:
456,153,105902,1,0,0:0:0:0:
456,153,105983,1,8,1:0:0:0:
271,193,106145,1,0,0:0:0:0:
412,40,106307,1,2,0:0:0:0:
396,227,106469,1,0,0:0:0:0:
396,227,106550,1,0,0:0:0:0:
396,227,106632,6,0,L|387:348,1,103.500001974106,8|0,1:0|0:0,0:0:0:0:
215,246,106956,1,2,0:0:0:0:
270,71,107118,1,0,0:0:0:0:
299,277,107280,1,0,0:0:0:0:
124,222,107442,1,0,0:0:0:0:
328,189,107605,1,2,0:0:0:0:
273,364,107767,1,0,0:0:0:0:
213,143,107929,6,0,P|209:81|229:30,1,103.500001974106,8|0,1:0|0:0,0:0:0:0:
424,113,108253,2,0,P|362:117|311:97,1,103.500001974106,2|0,0:0|0:0,0:0:0:0:
77,172,108578,2,0,B|160:154|160:154|292:210,1,207.000003948212,8|2,1:0|0:0,0:0:0:0:
144,268,109064,1,0,0:0:0:0:
246,90,109226,5,8,1:0:0:0:
338,271,109388,1,0,0:0:0:0:
166,162,109550,1,2,0:0:0:0:
347,70,109712,1,0,0:0:0:0:
245,237,109875,1,8,1:0:0:0:
153,56,110037,1,0,0:0:0:0:
308,153,110199,1,2,0:0:0:0:
127,245,110361,1,0,0:0:0:0:
252,62,110523,5,8,1:0:0:0:
440,220,110848,5,2,0:0:0:0:
24,146,111172,5,2,0:0:0:0:
212,304,111497,5,2,0:0:0:0:
212,304,111821,6,0,P|218:241|199:189,1,103.500001974106,12|0,1:0|0:0,0:0:0:0:
97,258,112145,1,2,0:0:0:0:
313,173,112307,2,0,P|236:187|140:110,1,207.000003948212,0|0,0:0|0:0,0:0:0:0:
254,65,112794,1,2,0:0:0:0:
29,75,112956,1,0,0:0:0:0:
29,75,113037,1,0,0:0:0:0:
29,75,113118,6,0,L|43:195,1,103.500001974106,8|0,1:0|0:0,0:0:0:0:
158,272,113442,1,2,0:0:0:0:
358,164,113605,2,0,B|297:140|297:140|231:172|231:172|163:148,1,207.000003948212,0|0,0:0|0:0,0:0:0:0:
223,56,114091,1,2,0:0:0:0:
309,255,114253,1,2,2:0:0:0:
309,255,114334,1,0,0:0:0:0:
309,255,114415,6,0,L|292:363,1,103.500001974106,8|0,1:0|0:0,0:0:0:0:
176,274,114740,1,2,0:0:0:0:
404,305,114902,2,0,P|466:294|508:273,1,103.500001974106,0|0,0:0|0:0,0:0:0:0:
219,183,115226,2,0,P|157:172|115:151,1,103.500001974106,0|2,0:0|0:0,0:0:0:0:
333,16,115550,6,0,B|366:118|299:118|333:219,1,207.000003948212,0|0,0:0|0:0,0:0:0:0:
427,168,116037,1,2,0:0:0:0:
237,67,116199,1,0,0:0:0:0:
427,68,116361,1,8,1:0:0:0:
236,166,116523,1,0,0:0:0:0:
446,175,116686,2,0,P|462:244|458:292,1,103.500001974106,2|2,0:0|2:0,0:0:0:0:
269,326,117010,5,8,1:0:0:0:
190,102,117172,1,8,1:0:0:0:
358,245,117334,1,2,0:0:0:0:
135,323,117496,1,8,1:0:0:0:
194,74,117659,5,8,1:0:0:0:
229,53,117740,1,8,1:0:0:0:
270,50,117821,1,8,1:0:0:0:
308,63,117902,1,8,1:0:0:0:
334,94,117983,1,2,0:0:0:0:
367,117,118064,1,8,1:0:0:0:
407,126,118145,1,2,0:0:0:0:
448,120,118226,1,8,1:0:0:0:
480,93,118307,1,8,1:0:0:0:
411,23,118469,5,8,1:0:0:0:
254,149,118632,1,2,0:0:0:0:
440,219,118794,1,8,1:0:0:0:
282,31,118956,5,8,1:0:0:0:
241,22,119037,1,8,1:0:0:0:
200,30,119118,1,8,1:0:0:0:
167,55,119199,1,8,1:0:0:0:
143,89,119280,1,2,0:0:0:0:
125,126,119361,1,8,1:0:0:0:
94,153,119442,1,2,0:0:0:0:
55,166,119523,1,8,1:0:0:0:
13,160,119605,1,12,1:0:0:0:
48,56,119767,5,8,1:0:0:0:
48,56,120253,5,12,1:0:0:0:
261,160,120415,1,8,1:0:0:0:
194,32,120578,1,0,0:0:0:0:
90,245,120740,1,0,0:0:0:0:
259,315,120902,5,12,1:0:0:0:
289,310,120983,1,8,1:0:0:0:
319,306,121064,1,8,1:0:0:0:
349,302,121145,1,8,1:0:0:0:
384,324,121226,1,12,1:0:0:0:
414,319,121307,1,8,1:0:0:0:
444,315,121388,1,8,1:0:0:0:
474,311,121469,1,8,1:0:0:0:
502,282,121550,5,2,0:0:0:0:
162,209,121875,5,2,0:0:0:0:
379,75,122199,5,12,1:0:0:0:
