osu file format v14

[General]
AudioFilename: audio.mp3
AudioLeadIn: 0
PreviewTime: -1
Countdown: 1
SampleSet: Normal
StackLeniency: 0.7
Mode: 0
LetterboxInBreaks: 0
WidescreenStoryboard: 0

[Editor]
Bookmarks: 21194,22258
DistanceSpacing: 1
BeatDivisor: 6
GridSize: 4
TimelineZoom: 1

[Metadata]
Title:Tetris (Ryu* Remix)
TitleUnicode:Tetris (Ryu* Remix)
Artist:Ryu*
ArtistUnicode:Ryu*
Creator:nuvasek
Version:XYZ (OLD AND HARD)
Source:
Tags:
BeatmapID:1052206
BeatmapSetID:494147

[Difficulty]
HPDrainRate:6
CircleSize:4.5
OverallDifficulty:8
ApproachRate:9.3
SliderMultiplier:1.5
SliderTickRate:2

[Events]
//Background and Video events
0,0,"maxresdefault.jpg",0,0
//Break Periods
2,10866,14899
2,16907,20392
//Storyboard Layer 0 (Background)
//Storyboard Layer 1 (Fail)
//Storyboard Layer 2 (Pass)
//Storyboard Layer 3 (Foreground)
//Storyboard Sound Samples

[TimingPoints]
82.2299074126506,172.577444128052,4,1,0,100,1,0
82057.6506358382,335.195530726257,4,1,0,100,1,0
88150,172.577444128052,4,1,0,100,1,0

[HitObjects]
89,127,427,5,0,0:0:0:0:
176,88,772,1,0,0:0:0:0:
272,72,916,1,0,0:0:0:0:
354,125,1002,1,0,0:0:0:0:
379,219,1088,1,0,0:0:0:0:
347,326,1290,1,0,0:0:0:0:
286,329,1433,5,0,0:0:0:0:
121,325,1606,1,0,0:0:0:0:
286,217,1779,1,0,0:0:0:0:
114,210,1951,1,0,0:0:0:0:
120,148,2037,5,0,0:0:0:0:
197,51,2124,1,0,0:0:0:0:
282,151,2296,1,0,0:0:0:0:
366,151,2440,1,0,0:0:0:0:
110,128,2814,1,0,0:0:0:0:
431,56,3159,1,0,0:0:0:0:
185,187,3505,1,0,0:0:0:0:
118,230,3677,2,0,P|184:296|260:312,1,150
309,192,4166,5,0,0:0:0:0:
256,109,4540,1,0,0:0:0:0:
367,319,4713,1,0,0:0:0:0:
376,64,4885,1,0,0:0:0:0:
270,205,5029,1,0,0:0:0:0:
469,204,5230,1,0,0:0:0:0:
69,65,5403,1,0,0:0:0:0:
152,60,5576,1,0,0:0:0:0:
152,90,5633,1,0,0:0:0:0:
152,120,5691,1,0,0:0:0:0:
152,151,5748,1,0,0:0:0:0:
152,181,5806,1,0,0:0:0:0:
235,44,5921,6,0,L|360:44,1,125
246,156,6266,1,0,0:0:0:0:
272,182,6352,1,0,0:0:0:0:
294,156,6438,1,0,0:0:0:0:
273,132,6524,1,0,0:0:0:0:
389,134,6611,1,0,0:0:0:0:
177,201,6927,1,0,0:0:0:0:
261,82,7100,1,0,0:0:0:0:
366,139,7244,1,0,0:0:0:0:
278,226,7416,1,0,0:0:0:0:
338,254,7503,1,0,0:0:0:0:
397,281,7618,1,0,0:0:0:0:
151,32,7761,6,0,L|151:184,1,150
35,349,8107,1,0,0:0:0:0:
349,41,8279,1,0,0:0:0:0:
436,48,8452,2,0,B|405:156|274:122|274:122,1,175
40,40,8797,1,0,0:0:0:0:
472,344,8969,1,0,0:0:0:0:
40,344,9171,1,0,0:0:0:0:
472,40,9315,1,0,0:0:0:0:
40,192,9487,5,0,0:0:0:0:
472,192,9660,1,0,0:0:0:0:
255,32,9832,1,0,0:0:0:0:
255,353,10005,1,0,0:0:0:0:
256,190,10178,5,0,0:0:0:0:
255,32,10350,1,0,0:0:0:0:
204,339,10523,2,0,P|275:309|310:276,1,125
180,344,15499,5,0,0:0:0:0:
472,188,15672,1,0,0:0:0:0:
144,44,15845,1,0,0:0:0:0:
256,192,16017,5,0,0:0:0:0:
408,52,16190,1,0,0:0:0:0:
68,328,16362,1,0,0:0:0:0:
444,332,16535,1,0,0:0:0:0:
256,192,16707,1,0,0:0:0:0:
352,192,20992,5,0,0:0:0:0:
72,240,21165,1,0,0:0:0:0:
356,284,21338,1,0,0:0:0:0:
228,340,21510,1,0,0:0:0:0:
256,192,21683,1,0,0:0:0:0:
260,68,21855,1,0,0:0:0:0:
200,92,21942,1,0,0:0:0:0:
144,120,22028,1,0,0:0:0:0:
260,68,22200,1,0,0:0:0:0:
316,96,22287,1,0,0:0:0:0:
368,124,22373,1,0,0:0:0:0:
256,308,22718,5,0,0:0:0:0:
256,68,22891,1,0,0:0:0:0:
256,192,23063,1,0,0:0:0:0:
100,160,23236,1,0,0:0:0:0:
140,116,23322,1,0,0:0:0:0:
196,92,23408,1,0,0:0:0:0:
256,88,23495,1,0,0:0:0:0:
312,96,23581,1,0,0:0:0:0:
364,124,23667,1,0,0:0:0:0:
408,160,23754,1,0,0:0:0:0:
100,224,23925,5,0,0:0:0:0:
140,268,24012,1,0,0:0:0:0:
196,292,24097,1,0,0:0:0:0:
256,296,24184,1,0,0:0:0:0:
312,288,24270,1,0,0:0:0:0:
364,260,24356,1,0,0:0:0:0:
408,224,24443,1,0,0:0:0:0:
100,224,24760,5,0,0:0:0:0:
212,208,24933,1,0,0:0:0:0:
376,64,25105,1,0,0:0:0:0:
120,60,25278,2,0,P|196:68|208:136,1,150
304,144,25623,1,0,0:0:0:0:
128,292,25796,1,0,0:0:0:0:
428,72,25968,1,0,0:0:0:0:
88,72,26141,1,0,0:0:0:0:
268,272,26314,1,0,0:0:0:0:
200,88,26486,2,0,P|264:156|320:148,1,150
256,300,26831,5,0,0:0:0:0:
72,32,27004,1,0,0:0:0:0:
460,36,27176,1,0,0:0:0:0:
64,300,27349,1,0,0:0:0:0:
436,308,27522,1,0,0:0:0:0:
256,32,27694,2,0,P|232:76|260:36,1,150
56,192,28039,1,0,0:0:0:0:
256,192,28212,1,0,0:0:0:0:
452,192,28384,1,0,0:0:0:0:
60,36,28528,6,0,L|60:116,1,75
120,44,28701,2,0,L|120:124,1,75
180,56,28873,2,0,L|180:144,1,75
444,56,29046,5,0,0:0:0:0:
412,56,29132,1,0,0:0:0:0:
376,56,29218,1,0,0:0:0:0:
192,68,29364,1,0,0:0:0:0:
171,97,29450,1,0,0:0:0:0:
150,126,29536,1,0,0:0:0:0:
130,156,29622,1,0,0:0:0:0:
109,185,29708,2,0,P|193:190|226:135,1,150
416,160,30053,5,0,0:0:0:0:
108,184,30226,1,0,0:0:0:0:
256,320,30398,1,0,0:0:0:0:
228,88,30571,2,0,B|296:72|92:176|400:212|248:172|240:196,1,150
440,40,30916,1,0,0:0:0:0:
76,40,31089,1,0,0:0:0:0:
253,189,31261,2,0,B|185:173|389:277|81:313|233:273|241:297,1,150
64,336,31606,1,0,0:0:0:0:
448,336,31778,1,0,0:0:0:0:
258,191,31951,1,0,0:0:0:0:
258,191,32124,5,0,0:0:0:0:
258,191,32296,1,0,0:0:0:0:
336,104,32469,2,0,B|124:108|96:164|200:248,1,300
104,192,33332,5,0,0:0:0:0:
256,192,33504,1,0,0:0:0:0:
404,192,33677,1,0,0:0:0:0:
172,60,33849,1,0,0:0:0:0:
340,60,34022,1,0,0:0:0:0:
204,192,34195,2,0,P|288:176|316:240,1,150
256,192,34540,1,0,0:0:0:0:
72,40,34712,1,0,0:0:0:0:
428,40,34885,1,0,0:0:0:0:
256,300,35057,1,0,0:0:0:0:
256,192,35230,5,0,0:0:0:0:
136,192,35403,1,0,0:0:0:0:
368,192,35575,1,0,0:0:0:0:
256,188,35720,2,0,P|224:136|220:160,1,150
256,192,36093,2,0,P|288:140|292:164,1,150
290,146,36438,2,0,P|258:198|254:174,1,150
255,191,36783,2,0,P|287:139|291:163,1,150
92,192,37129,5,0,0:0:0:0:
92,192,37215,1,0,0:0:0:0:
92,192,37301,1,0,0:0:0:0:
428,192,37474,5,0,0:0:0:0:
428,192,37560,1,0,0:0:0:0:
428,192,37646,1,0,0:0:0:0:
260,312,37819,5,0,0:0:0:0:
260,312,37905,1,0,0:0:0:0:
260,76,38164,5,0,0:0:0:0:
260,76,38250,1,0,0:0:0:0:
260,76,38336,1,0,0:0:0:0:
160,192,38509,5,0,0:0:0:0:
224,192,38596,1,0,0:0:0:0:
288,192,38682,1,0,0:0:0:0:
352,192,38769,1,0,0:0:0:0:
256,288,38969,5,0,0:0:0:0:
256,108,39142,1,0,0:0:0:0:
84,192,39314,1,0,0:0:0:0:
428,192,39487,1,0,0:0:0:0:
256,192,39833,5,0,0:0:0:0:
256,56,40005,2,0,B|364:52|364:112|292:100,1,150
272,104,40350,1,0,0:0:0:0:
256,192,40523,1,0,0:0:0:0:
128,192,40695,1,0,0:0:0:0:
372,192,40868,1,0,0:0:0:0:
64,192,41040,5,0,0:0:0:0:
436,192,41213,1,0,0:0:0:0:
396,64,41385,1,0,0:0:0:0:
92,328,41558,1,0,0:0:0:0:
256,192,41730,1,0,0:0:0:0:
100,68,41903,1,0,0:0:0:0:
424,328,42076,1,0,0:0:0:0:
256,72,42248,5,0,0:0:0:0:
248,224,42421,2,0,P|244:164|280:212,1,150
112,304,42938,5,0,0:0:0:0:
412,304,43284,1,0,0:0:0:0:
256,72,43629,1,0,0:0:0:0:
256,192,43974,5,8,0:0:0:0:
96,40,44319,1,0,0:0:0:0:
396,40,44492,1,0,0:0:0:0:
256,304,44664,1,0,0:0:0:0:
452,76,44837,1,0,0:0:0:0:
156,32,45009,1,0,0:0:0:0:
200,328,45182,1,0,0:0:0:0:
136,192,45355,5,0,0:0:0:0:
196,192,45441,1,0,0:0:0:0:
256,192,45527,1,0,0:0:0:0:
316,192,45613,1,0,0:0:0:0:
376,192,45700,1,0,0:0:0:0:
416,40,45843,1,0,0:0:0:0:
116,40,46016,1,0,0:0:0:0:
256,304,46188,1,0,0:0:0:0:
60,76,46361,1,0,0:0:0:0:
356,32,46533,1,0,0:0:0:0:
312,328,46706,1,0,0:0:0:0:
136,192,46879,5,0,0:0:0:0:
196,192,46965,1,0,0:0:0:0:
256,192,47051,1,0,0:0:0:0:
316,192,47137,1,0,0:0:0:0:
376,192,47224,1,0,0:0:0:0:
256,60,47396,5,0,0:0:0:0:
256,316,47569,1,0,0:0:0:0:
32,192,47742,1,0,0:0:0:0:
276,120,47914,1,0,0:0:0:0:
316,192,48087,1,0,0:0:0:0:
68,248,48259,1,0,0:0:0:0:
304,144,48432,2,0,L|160:204,1,150
96,52,48777,1,0,0:0:0:0:
300,208,48950,1,0,0:0:0:0:
72,324,49122,1,0,0:0:0:0:
296,88,49295,5,0,0:0:0:0:
255,131,49381,1,0,0:0:0:0:
214,175,49467,1,0,0:0:0:0:
173,219,49553,1,0,0:0:0:0:
72,48,49784,5,0,0:0:0:0:
428,48,49956,1,0,0:0:0:0:
72,192,50129,1,0,0:0:0:0:
428,192,50302,1,0,0:0:0:0:
68,332,50474,1,0,0:0:0:0:
428,332,50647,1,0,0:0:0:0:
400,44,50819,5,0,0:0:0:0:
400,344,50991,1,0,0:0:0:0:
256,44,51164,1,0,0:0:0:0:
256,344,51337,1,0,0:0:0:0:
116,40,51510,1,0,0:0:0:0:
116,344,51682,1,0,0:0:0:0:
116,192,51855,1,0,0:0:0:0:
256,192,52028,1,0,0:0:0:0:
400,192,52200,1,0,0:0:0:0:
256,320,52373,5,0,0:0:0:0:
88,128,52545,1,0,0:0:0:0:
121,111,52602,1,0,0:0:0:0:
155,97,52660,1,0,0:0:0:0:
190,86,52717,1,0,0:0:0:0:
227,79,52775,1,0,0:0:0:0:
263,79,52832,1,0,0:0:0:0:
299,88,52890,1,0,0:0:0:0:
329,110,52947,1,0,0:0:0:0:
347,142,53005,1,0,0:0:0:0:
351,179,53062,1,0,0:0:0:0:
344,215,53120,1,0,0:0:0:0:
325,246,53177,1,0,0:0:0:0:
297,271,53235,1,0,0:0:0:0:
264,286,53292,1,0,0:0:0:0:
227,293,53350,5,0,0:0:0:0:
191,293,53407,1,0,0:0:0:0:
154,287,53465,1,0,0:0:0:0:
128,272,53523,1,0,0:0:0:0:
124,236,53580,1,0,0:0:0:0:
132,200,53638,1,0,0:0:0:0:
150,168,53695,1,0,0:0:0:0:
178,144,53753,1,0,0:0:0:0:
211,128,53810,1,0,0:0:0:0:
248,122,53868,1,0,0:0:0:0:
256,188,54242,5,0,0:0:0:0:
256,188,54587,1,0,0:0:0:0:
256,56,55278,5,0,0:0:0:0:
192,192,55450,1,0,0:0:0:0:
256,328,55623,1,0,0:0:0:0:
316,192,55795,1,0,0:0:0:0:
256,56,55968,2,0,P|216:120|292:164,1,175
168,128,56313,1,0,0:0:0:0:
144,192,56486,5,0,0:0:0:0:
200,192,56572,1,0,0:0:0:0:
256,192,56658,1,0,0:0:0:0:
312,192,56745,1,0,0:0:0:0:
368,192,56831,1,0,0:0:0:0:
256,312,56975,5,0,0:0:0:0:
72,192,57147,1,0,0:0:0:0:
428,192,57320,1,0,0:0:0:0:
224,48,57492,2,0,B|236:52|216:92|276:192|288:136,1,125
408,64,57837,5,0,0:0:0:0:
352,120,58011,5,0,0:0:0:0:
308,155,58097,1,0,0:0:0:0:
264,190,58183,1,0,0:0:0:0:
221,225,58270,1,0,0:0:0:0:
177,260,58356,1,0,0:0:0:0:
104,320,58529,1,0,0:0:0:0:
104,56,58701,1,0,0:0:0:0:
396,56,58874,1,0,0:0:0:0:
396,312,59046,1,0,0:0:0:0:
256,192,59219,1,0,0:0:0:0:
72,192,59391,5,0,0:0:0:0:
432,192,59736,1,0,0:0:0:0:
72,192,60052,1,0,0:0:0:0:
256,48,60225,5,0,0:0:0:0:
256,192,60398,1,0,0:0:0:0:
256,192,60570,2,0,L|256:44,1,125
124,192,60915,5,0,0:0:0:0:
404,328,61088,1,0,0:0:0:0:
172,48,61260,1,0,0:0:0:0:
128,312,61433,1,0,0:0:0:0:
64,52,61606,1,0,0:0:0:0:
420,192,61778,1,0,0:0:0:0:
128,188,61951,1,0,0:0:0:0:
428,40,62123,1,0,0:0:0:0:
256,288,62296,1,0,0:0:0:0:
240,40,62468,1,0,0:0:0:0:
256,192,62641,5,0,0:0:0:0:
164,192,62814,2,0,P|328:192|316:192,1,175
108,76,63159,1,0,0:0:0:0:
376,292,63331,1,0,0:0:0:0:
108,272,63504,1,0,0:0:0:0:
428,48,63677,1,0,0:0:0:0:
252,304,63849,1,0,0:0:0:0:
256,192,64022,1,0,0:0:0:0:
164,128,64194,1,0,0:0:0:0:
376,128,64539,1,0,0:0:0:0:
216,276,64885,5,0,0:0:0:0:
288,192,65230,1,0,0:0:0:0:
112,84,65575,1,0,0:0:0:0:
356,88,66265,1,0,0:0:0:0:
256,192,66409,5,0,0:0:0:0:
88,88,66581,1,0,0:0:0:0:
112,232,66754,1,0,0:0:0:0:
112,232,66840,1,0,0:0:0:0:
112,232,66926,1,0,0:0:0:0:
212,72,67100,1,0,0:0:0:0:
212,72,67186,1,0,0:0:0:0:
212,72,67272,1,0,0:0:0:0:
360,64,67445,1,0,0:0:0:0:
360,64,67531,1,0,0:0:0:0:
360,64,67617,1,0,0:0:0:0:
124,192,67790,5,0,0:0:0:0:
256,132,67962,2,0,P|336:196|200:256,1,300
112,64,68480,1,0,0:0:0:0:
356,52,68653,1,0,0:0:0:0:
256,300,68825,1,0,0:0:0:0:
140,288,68998,1,0,0:0:0:0:
452,160,69170,1,0,0:0:0:0:
120,88,69343,1,0,0:0:0:0:
380,76,69515,1,0,0:0:0:0:
164,196,69688,5,0,0:0:0:0:
392,288,70004,1,0,0:0:0:0:
328,88,70349,1,0,0:0:0:0:
108,76,70694,1,0,0:0:0:0:
328,236,71040,1,0,0:0:0:0:
140,224,71530,1,0,0:0:0:0:
196,248,71615,1,0,0:0:0:0:
256,252,71702,1,0,0:0:0:0:
312,244,71788,1,0,0:0:0:0:
368,224,71874,1,0,0:0:0:0:
152,124,72075,5,0,0:0:0:0:
348,124,72248,1,0,0:0:0:0:
252,168,72420,1,0,0:0:0:0:
372,272,72593,1,0,0:0:0:0:
316,248,72678,1,0,0:0:0:0:
256,244,72765,1,0,0:0:0:0:
200,252,72851,1,0,0:0:0:0:
144,272,72937,1,0,0:0:0:0:
252,168,73111,1,0,0:0:0:0:
344,108,73283,5,0,0:0:0:0:
152,108,73456,1,0,0:0:0:0:
256,40,73628,5,0,0:0:0:0:
256,320,73801,1,0,0:0:0:0:
116,192,73974,1,0,0:0:0:0:
388,192,74146,1,0,0:0:0:0:
288,236,74319,2,0,P|240:176|288:112,1,150
136,76,74664,1,0,0:0:0:0:
384,72,74837,1,0,0:0:0:0:
140,288,75009,1,0,0:0:0:0:
384,292,75182,1,0,0:0:0:0:
256,72,75527,5,0,0:0:0:0:
72,192,75843,1,0,0:0:0:0:
256,328,76188,1,0,0:0:0:0:
432,188,76534,1,0,0:0:0:0:
160,72,76879,1,0,0:0:0:0:
136,128,76964,1,0,0:0:0:0:
132,188,77051,1,0,0:0:0:0:
140,244,77137,1,0,0:0:0:0:
160,300,77223,1,0,0:0:0:0:
256,68,77396,5,0,0:0:0:0:
356,304,77570,1,0,0:0:0:0:
380,248,77655,1,0,0:0:0:0:
384,188,77742,1,0,0:0:0:0:
376,132,77828,1,0,0:0:0:0:
356,76,77914,1,0,0:0:0:0:
256,312,78087,5,0,0:0:0:0:
120,192,78259,1,0,0:0:0:0:
384,192,78432,1,0,0:0:0:0:
96,88,78604,2,0,P|212:68|400:100,1,300
390,96,79122,1,0,0:0:0:0:
124,192,79266,5,0,0:0:0:0:
372,192,79439,1,0,0:0:0:0:
256,72,79611,1,0,0:0:0:0:
256,300,79784,1,0,0:0:0:0:
128,72,79956,1,0,0:0:0:0:
368,72,80129,1,0,0:0:0:0:
128,304,80301,1,0,0:0:0:0:
376,304,80474,1,0,0:0:0:0:
368,192,80648,5,0,0:0:0:0:
312,192,80733,1,0,0:0:0:0:
252,192,80820,1,0,0:0:0:0:
196,192,80906,1,0,0:0:0:0:
140,192,80992,1,0,0:0:0:0:
252,76,81137,5,0,0:0:0:0:
252,132,81222,1,0,0:0:0:0:
252,192,81309,1,0,0:0:0:0:
252,248,81395,1,0,0:0:0:0:
252,304,81481,1,0,0:0:0:0:
380,72,81682,5,0,0:0:0:0:
136,72,82027,1,0,0:0:0:0:
256,192,82392,1,0,0:0:0:0:
396,76,82728,1,0,0:0:0:0:
152,60,83063,1,0,0:0:0:0:
256,88,83398,1,0,0:0:0:0:
144,284,83733,1,0,0:0:0:0:
388,288,84068,1,0,0:0:0:0:
256,192,84404,1,0,0:0:0:0:
160,96,84739,5,0,0:0:0:0:
308,96,85074,1,0,0:0:0:0:
196,196,85409,1,0,0:0:0:0:
324,272,85744,1,0,0:0:0:0:
176,256,86135,1,0,0:0:0:0:
268,140,86471,1,0,0:0:0:0:
148,52,86806,1,0,0:0:0:0:
176,200,87141,1,0,0:0:0:0:
316,252,87532,1,0,0:0:0:0:
164,120,88207,5,0,0:0:0:0:
280,120,88524,1,0,0:0:0:0:
412,124,88696,1,0,0:0:0:0:
200,272,88869,1,0,0:0:0:0:
336,272,89041,1,0,0:0:0:0:
156,192,89214,2,0,P|208:72|360:104,1,300
388,180,89731,1,0,0:0:0:0:
240,204,89904,1,0,0:0:0:0:
172,68,90077,5,0,0:0:0:0:
320,84,90249,1,0,0:0:0:0:
184,152,90422,1,0,0:0:0:0:
60,68,90594,1,0,0:0:0:0:
416,200,90767,1,0,0:0:0:0:
20,100,90940,1,0,0:0:0:0:
380,196,91112,1,0,0:0:0:0:
72,116,91285,1,0,0:0:0:0:
328,188,91457,1,0,0:0:0:0:
32,108,91630,5,0,0:0:0:0:
180,80,92291,5,0,0:0:0:0:
408,276,92637,1,0,0:0:0:0:
108,248,92981,1,0,0:0:0:0:
200,104,93154,1,0,0:0:0:0:
304,228,93327,1,0,0:0:0:0:
208,268,93499,2,0,P|208:176|376:60,1,300
340,164,94017,1,0,0:0:0:0:
148,144,94190,5,0,0:0:0:0:
144,296,94363,1,0,0:0:0:0:
276,264,94536,1,0,0:0:0:0:
384,68,94708,1,0,0:0:0:0:
120,68,94881,1,0,0:0:0:0:
88,224,95053,1,0,0:0:0:0:
180,196,95225,5,0,0:0:0:0:
316,288,95398,1,0,0:0:0:0:
396,184,95570,1,0,0:0:0:0:
216,272,95743,1,0,0:0:0:0:
252,132,95915,1,0,0:0:0:0:
112,184,96059,5,0,0:0:0:0:
256,216,96231,1,0,0:0:0:0:
108,248,96404,1,0,0:0:0:0:
260,260,96577,1,0,0:0:0:0:
188,128,96749,1,0,0:0:0:0:
336,148,96922,1,0,0:0:0:0:
208,228,97094,1,0,0:0:0:0:
288,100,97267,1,0,0:0:0:0:
92,248,97440,1,0,0:0:0:0:
204,156,97612,1,0,0:0:0:0:
288,196,97785,5,0,0:0:0:0:
80,60,98130,1,0,0:0:0:0:
424,336,98475,1,0,0:0:0:0:
