osu file format v14

[General]
AudioFilename: audio.mp3
AudioLeadIn: 0
PreviewTime: 23406
Countdown: 0
SampleSet: Soft
StackLeniency: 0.7
Mode: 3
LetterboxInBreaks: 0
SpecialStyle: 0
WidescreenStoryboard: 0

[Editor]
DistanceSpacing: 1.3
BeatDivisor: 4
GridSize: 4
TimelineZoom: 1.9

[Metadata]
Title:Taketori hishou ~ Lunatic Princess (Ryu* Remix)
TitleUnicode:竹取飛翔 ~ Lunatic Princess (Ryu☆Remix)
Artist:Ryu*
ArtistUnicode:Ryu☆
Creator:YaHao
Version:SPECIAL
Source:REFLEC BEAT groovin'!! Upper
Tags:jubeat prop SOUND VOLTEX III GRAVITY WARS BeatStream BEMANI×東方Project Ultimate MasterPieces ZUN Team Shanghai Alice
BeatmapID:1271446
BeatmapSetID:601914

[Difficulty]
HPDrainRate:9
CircleSize:4
OverallDifficulty:9
ApproachRate:5
SliderMultiplier:1.4
SliderTickRate:1

[Events]
//Background and Video events
0,0,"BG.png",0,0
//Break Periods
//Storyboard Layer 0 (Background)
//Storyboard Layer 1 (Fail)
//Storyboard Layer 2 (Pass)
//Storyboard Layer 3 (Foreground)
//Storyboard Sound Samples

[TimingPoints]
590,351.020885742702,4,2,0,40,1,0
23055,-66.6666666666667,4,2,0,40,0,0
23230,-200,4,2,0,40,0,0
23406,-100,4,2,0,40,0,1
37447,-100,4,2,0,40,0,0
59912,-66.6666666666667,4,2,0,40,0,0
60088,-200,4,2,0,40,0,0
60263,-100,4,2,0,40,0,0
82728,-40,4,2,0,40,0,0
82816,-200,4,2,0,40,0,0
83079,-40,4,2,0,40,0,0
83167,-200,4,2,0,40,0,0
83430,-40,4,2,0,40,0,0
83518,-200,4,2,0,40,0,0
83781,-100,4,2,0,40,0,0
84132,-100,4,2,0,40,0,1
93961,-100,4,2,0,40,0,0
95365,-100,4,2,0,40,0,1
99577,-40,4,2,0,40,0,1
99665,-200,4,2,0,40,0,1
99928,-40,4,2,0,40,0,1
100016,-200,4,2,0,40,0,1
100279,-100,4,2,0,40,0,1
106598,-100,4,2,0,40,0,0
108704,-66.6666666666667,4,2,0,40,0,0
108879,-200,4,2,0,40,0,0

[HitObjects]
64,192,590,128,0,941:0:0:0:0:
320,192,590,1,0,0:0:0:0:
448,192,941,128,0,1292:0:0:0:0:
192,192,941,1,0,0:0:0:0:
192,192,1292,1,0,0:0:0:0:
64,192,1292,1,0,0:0:0:0:
320,192,1292,1,0,0:0:0:0:
192,192,1467,1,0,0:0:0:0:
448,192,1643,1,0,0:0:0:0:
64,192,1643,1,0,0:0:0:0:
192,192,1643,1,0,0:0:0:0:
320,192,1818,1,0,0:0:0:0:
192,192,1906,1,0,0:0:0:0:
448,192,1994,1,0,0:0:0:0:
64,192,1994,1,0,0:0:0:0:
320,192,2081,1,0,0:0:0:0:
192,192,2169,1,0,0:0:0:0:
320,192,2257,1,0,0:0:0:0:
64,192,2345,1,0,0:0:0:0:
448,192,2345,1,0,0:0:0:0:
192,192,2345,1,0,0:0:0:0:
64,192,2520,1,0,0:0:0:0:
192,192,2608,1,0,0:0:0:0:
448,192,2696,1,0,0:0:0:0:
320,192,2696,1,0,0:0:0:0:
64,192,2871,1,0,0:0:0:0:
64,192,3047,1,0,0:0:0:0:
448,192,3047,1,0,0:0:0:0:
192,192,3047,1,0,0:0:0:0:
320,192,3222,1,0,0:0:0:0:
448,192,3222,1,0,0:0:0:0:
192,192,3310,1,0,0:0:0:0:
320,192,3398,1,0,0:0:0:0:
448,192,3398,1,0,0:0:0:0:
64,192,3485,1,0,0:0:0:0:
192,192,3573,1,0,0:0:0:0:
320,192,3661,1,0,0:0:0:0:
448,192,3749,1,0,0:0:0:0:
64,192,3749,1,0,0:0:0:0:
192,192,3749,1,0,0:0:0:0:
64,192,3924,1,0,0:0:0:0:
448,192,3924,1,0,0:0:0:0:
320,192,4012,1,0,0:0:0:0:
192,192,4100,1,0,0:0:0:0:
64,192,4100,1,0,0:0:0:0:
320,192,4275,1,0,0:0:0:0:
64,192,4451,1,0,0:0:0:0:
448,192,4451,1,0,0:0:0:0:
320,192,4451,1,0,0:0:0:0:
192,192,4626,1,0,0:0:0:0:
64,192,4626,1,0,0:0:0:0:
448,192,4714,1,0,0:0:0:0:
192,192,4802,1,0,0:0:0:0:
320,192,4802,1,0,0:0:0:0:
64,192,4890,1,0,0:0:0:0:
320,192,4977,1,0,0:0:0:0:
448,192,4977,1,0,0:0:0:0:
192,192,5065,1,0,0:0:0:0:
448,192,5153,1,0,0:0:0:0:
64,192,5153,1,0,0:0:0:0:
320,192,5153,1,0,0:0:0:0:
192,192,5328,1,0,0:0:0:0:
64,192,5328,1,0,0:0:0:0:
320,192,5504,128,0,5855:0:0:0:0:
192,192,5855,128,0,6206:0:0:0:0:
448,192,6206,128,0,6557:0:0:0:0:
64,192,6557,1,0,0:0:0:0:
192,192,6601,1,0,0:0:0:0:
320,192,6645,1,0,0:0:0:0:
448,192,6688,1,0,0:0:0:0:
64,192,6732,1,0,0:0:0:0:
192,192,6776,1,0,0:0:0:0:
320,192,6820,1,0,0:0:0:0:
448,192,6864,1,0,0:0:0:0:
192,192,6908,1,0,0:0:0:0:
64,192,6908,1,0,0:0:0:0:
192,192,7083,1,0,0:0:0:0:
64,192,7083,1,0,0:0:0:0:
320,192,7259,1,0,0:0:0:0:
64,192,7259,1,0,0:0:0:0:
448,192,7259,1,0,0:0:0:0:
448,192,7434,1,0,0:0:0:0:
320,192,7522,1,0,0:0:0:0:
192,192,7610,1,0,0:0:0:0:
64,192,7610,1,0,0:0:0:0:
320,192,7785,1,0,0:0:0:0:
448,192,7785,1,0,0:0:0:0:
448,192,7961,1,0,0:0:0:0:
192,192,7961,1,0,0:0:0:0:
64,192,7961,1,0,0:0:0:0:
64,192,8136,1,0,0:0:0:0:
192,192,8224,1,0,0:0:0:0:
448,192,8312,1,0,0:0:0:0:
320,192,8312,1,0,0:0:0:0:
192,192,8487,1,0,0:0:0:0:
64,192,8487,1,0,0:0:0:0:
320,192,8663,1,0,0:0:0:0:
448,192,8663,1,0,0:0:0:0:
64,192,8663,1,0,0:0:0:0:
192,192,8838,1,0,0:0:0:0:
320,192,8926,1,0,0:0:0:0:
448,192,9014,1,0,0:0:0:0:
64,192,9014,1,0,0:0:0:0:
192,192,9190,1,0,0:0:0:0:
320,192,9190,1,0,0:0:0:0:
448,192,9365,1,0,0:0:0:0:
192,192,9365,1,0,0:0:0:0:
64,192,9365,1,0,0:0:0:0:
320,192,9541,1,0,0:0:0:0:
192,192,9628,1,0,0:0:0:0:
64,192,9716,1,0,0:0:0:0:
448,192,9716,1,0,0:0:0:0:
320,192,9892,1,0,0:0:0:0:
192,192,9892,1,0,0:0:0:0:
320,192,10067,1,0,0:0:0:0:
448,192,10067,1,0,0:0:0:0:
64,192,10067,1,0,0:0:0:0:
192,192,10243,1,0,0:0:0:0:
64,192,10243,1,0,0:0:0:0:
448,192,10418,1,0,0:0:0:0:
320,192,10418,1,0,0:0:0:0:
192,192,10594,1,0,0:0:0:0:
64,192,10594,1,0,0:0:0:0:
320,192,10769,1,0,0:0:0:0:
448,192,10769,1,0,0:0:0:0:
64,192,10769,1,0,0:0:0:0:
448,192,10945,1,0,0:0:0:0:
320,192,11032,1,0,0:0:0:0:
192,192,11120,1,0,0:0:0:0:
64,192,11120,1,0,0:0:0:0:
448,192,11208,1,0,0:0:0:0:
192,192,11296,1,0,0:0:0:0:
448,192,11383,1,0,0:0:0:0:
64,192,11471,1,0,0:0:0:0:
320,192,11559,1,0,0:0:0:0:
64,192,11647,1,0,0:0:0:0:
320,192,11734,1,0,0:0:0:0:
64,192,11822,1,0,0:0:0:0:
192,192,11910,1,0,0:0:0:0:
320,192,11998,1,0,0:0:0:0:
448,192,12085,1,0,0:0:0:0:
192,192,12173,1,0,0:0:0:0:
64,192,12173,1,0,0:0:0:0:
448,192,12524,1,0,0:0:0:0:
64,192,12524,1,0,0:0:0:0:
192,192,12524,1,0,0:0:0:0:
448,192,12875,1,0,0:0:0:0:
64,192,12875,1,0,0:0:0:0:
64,192,13226,1,0,0:0:0:0:
192,192,13226,1,0,0:0:0:0:
64,192,13577,1,0,0:0:0:0:
192,192,13577,1,0,0:0:0:0:
192,192,13928,1,0,0:0:0:0:
320,192,13928,1,0,0:0:0:0:
192,192,14279,1,0,0:0:0:0:
320,192,14279,1,0,0:0:0:0:
448,192,14630,1,0,0:0:0:0:
320,192,14630,1,0,0:0:0:0:
448,192,14981,1,0,0:0:0:0:
320,192,14981,1,0,0:0:0:0:
448,192,15332,1,0,0:0:0:0:
64,192,15332,1,0,0:0:0:0:
64,192,15683,1,0,0:0:0:0:
448,192,15683,1,0,0:0:0:0:
192,192,16034,1,0,0:0:0:0:
320,192,16034,1,0,0:0:0:0:
192,192,16385,1,0,0:0:0:0:
320,192,16385,1,0,0:0:0:0:
448,192,16736,1,0,0:0:0:0:
64,192,16736,1,0,0:0:0:0:
448,192,17087,1,0,0:0:0:0:
64,192,17087,1,0,0:0:0:0:
320,192,17439,1,0,0:0:0:0:
448,192,17439,1,0,0:0:0:0:
64,192,17790,1,0,0:0:0:0:
192,192,17833,1,0,0:0:0:0:
320,192,17877,1,0,0:0:0:0:
448,192,17921,1,0,0:0:0:0:
64,192,17965,1,0,0:0:0:0:
192,192,18009,1,0,0:0:0:0:
320,192,18053,1,0,0:0:0:0:
448,192,18097,1,0,0:0:0:0:
192,192,18141,1,0,0:0:0:0:
64,192,18141,1,0,0:0:0:0:
64,192,18316,1,0,0:0:0:0:
448,192,18492,1,0,0:0:0:0:
320,192,18492,1,0,0:0:0:0:
64,192,18492,1,0,0:0:0:0:
448,192,18667,1,0,0:0:0:0:
320,192,18843,1,0,0:0:0:0:
192,192,18843,1,0,0:0:0:0:
64,192,19018,1,0,0:0:0:0:
192,192,19194,1,0,0:0:0:0:
64,192,19194,1,0,0:0:0:0:
448,192,19194,1,0,0:0:0:0:
448,192,19369,1,0,0:0:0:0:
320,192,19457,1,0,0:0:0:0:
192,192,19545,1,0,0:0:0:0:
64,192,19545,1,0,0:0:0:0:
192,192,19720,1,0,0:0:0:0:
192,192,19896,1,0,0:0:0:0:
448,192,19896,1,0,0:0:0:0:
64,192,19896,1,0,0:0:0:0:
448,192,20071,1,0,0:0:0:0:
320,192,20247,1,0,0:0:0:0:
64,192,20247,1,0,0:0:0:0:
192,192,20422,1,0,0:0:0:0:
448,192,20598,1,0,0:0:0:0:
64,192,20598,1,0,0:0:0:0:
320,192,20598,1,0,0:0:0:0:
64,192,20773,1,0,0:0:0:0:
192,192,20861,1,0,0:0:0:0:
320,192,20949,1,0,0:0:0:0:
448,192,20949,1,0,0:0:0:0:
64,192,21124,1,0,0:0:0:0:
192,192,21300,1,0,0:0:0:0:
64,192,21300,1,0,0:0:0:0:
448,192,21300,1,0,0:0:0:0:
448,192,21475,1,0,0:0:0:0:
192,192,21651,1,0,0:0:0:0:
64,192,21651,1,0,0:0:0:0:
192,192,21826,1,0,0:0:0:0:
448,192,22002,1,0,0:0:0:0:
64,192,22002,1,0,0:0:0:0:
192,192,22002,1,0,0:0:0:0:
320,192,22177,1,0,0:0:0:0:
448,192,22353,1,0,0:0:0:0:
64,192,22353,128,0,23055:0:0:0:0:
192,192,22353,128,0,23055:0:0:0:0:
448,192,23055,1,0,0:0:0:0:
320,192,23406,1,0,0:0:0:0:
448,192,23406,1,0,0:0:0:0:
192,192,23406,1,0,0:0:0:0:
64,192,23406,128,0,23581:0:0:0:0:
320,192,23581,128,0,23757:0:0:0:0:
448,192,23757,128,0,24283:0:0:0:0:
192,192,23757,1,0,0:0:0:0:
64,192,23757,1,0,0:0:0:0:
64,192,23932,1,0,0:0:0:0:
192,192,23932,1,0,0:0:0:0:
320,192,24108,1,0,0:0:0:0:
64,192,24108,1,0,0:0:0:0:
192,192,24283,1,0,0:0:0:0:
320,192,24283,1,0,0:0:0:0:
64,192,24459,1,0,0:0:0:0:
192,192,24459,128,0,24985:0:0:0:0:
448,192,24459,1,0,0:0:0:0:
320,192,24634,1,0,0:0:0:0:
448,192,24634,1,0,0:0:0:0:
64,192,24810,1,0,0:0:0:0:
320,192,24810,1,0,0:0:0:0:
448,192,24985,1,0,0:0:0:0:
64,192,24985,1,0,0:0:0:0:
448,192,25161,128,0,25687:0:0:0:0:
192,192,25161,1,0,0:0:0:0:
320,192,25161,1,0,0:0:0:0:
320,192,25336,1,0,0:0:0:0:
64,192,25336,1,0,0:0:0:0:
64,192,25512,1,0,0:0:0:0:
192,192,25512,1,0,0:0:0:0:
192,192,25687,1,0,0:0:0:0:
320,192,25687,1,0,0:0:0:0:
64,192,25863,128,0,26214:0:0:0:0:
320,192,25863,1,0,0:0:0:0:
448,192,26039,1,0,0:0:0:0:
192,192,26039,1,0,0:0:0:0:
320,192,26214,1,0,0:0:0:0:
448,192,26214,1,0,0:0:0:0:
192,192,26390,1,0,0:0:0:0:
64,192,26390,1,0,0:0:0:0:
192,192,26565,128,0,26916:0:0:0:0:
448,192,26565,1,0,0:0:0:0:
320,192,26741,1,0,0:0:0:0:
448,192,26741,1,0,0:0:0:0:
64,192,26916,1,0,0:0:0:0:
320,192,26916,1,0,0:0:0:0:
192,192,27092,1,0,0:0:0:0:
64,192,27092,1,0,0:0:0:0:
320,192,27267,1,0,0:0:0:0:
448,192,27267,1,0,0:0:0:0:
320,192,27443,1,0,0:0:0:0:
192,192,27443,1,0,0:0:0:0:
192,192,27618,1,0,0:0:0:0:
64,192,27618,1,0,0:0:0:0:
320,192,27794,1,0,0:0:0:0:
448,192,27794,1,0,0:0:0:0:
64,192,27969,1,0,0:0:0:0:
192,192,27969,1,0,0:0:0:0:
448,192,27969,128,0,28145:0:0:0:0:
64,192,28320,1,0,0:0:0:0:
192,192,28320,1,0,0:0:0:0:
448,192,28320,128,0,28496:0:0:0:0:
320,192,28671,1,0,0:0:0:0:
64,192,28671,1,0,0:0:0:0:
448,192,28671,1,0,0:0:0:0:
192,192,29022,1,0,0:0:0:0:
64,192,29022,1,0,0:0:0:0:
448,192,29198,1,0,0:0:0:0:
320,192,29198,1,0,0:0:0:0:
64,192,29373,1,0,0:0:0:0:
448,192,29373,1,0,0:0:0:0:
192,192,29373,128,0,29900:0:0:0:0:
64,192,29549,1,0,0:0:0:0:
320,192,29549,1,0,0:0:0:0:
320,192,29724,1,0,0:0:0:0:
448,192,29724,1,0,0:0:0:0:
64,192,29900,1,0,0:0:0:0:
448,192,29900,1,0,0:0:0:0:
64,192,30075,128,0,30602:0:0:0:0:
192,192,30075,1,0,0:0:0:0:
320,192,30075,1,0,0:0:0:0:
192,192,30251,1,0,0:0:0:0:
448,192,30251,1,0,0:0:0:0:
448,192,30426,1,0,0:0:0:0:
320,192,30426,1,0,0:0:0:0:
320,192,30602,1,0,0:0:0:0:
192,192,30602,1,0,0:0:0:0:
448,192,30777,128,0,31304:0:0:0:0:
64,192,30777,1,0,0:0:0:0:
192,192,30777,1,0,0:0:0:0:
64,192,30953,1,0,0:0:0:0:
320,192,30953,1,0,0:0:0:0:
192,192,31128,1,0,0:0:0:0:
320,192,31128,1,0,0:0:0:0:
192,192,31304,1,0,0:0:0:0:
64,192,31304,1,0,0:0:0:0:
448,192,31479,1,0,0:0:0:0:
320,192,31479,128,0,31830:0:0:0:0:
192,192,31655,1,0,0:0:0:0:
64,192,31655,1,0,0:0:0:0:
448,192,31830,1,0,0:0:0:0:
192,192,31830,1,0,0:0:0:0:
320,192,32006,1,0,0:0:0:0:
64,192,32006,1,0,0:0:0:0:
192,192,32181,128,0,32532:0:0:0:0:
448,192,32181,1,0,0:0:0:0:
320,192,32357,1,0,0:0:0:0:
64,192,32357,1,0,0:0:0:0:
64,192,32532,1,0,0:0:0:0:
448,192,32532,1,0,0:0:0:0:
320,192,32708,1,0,0:0:0:0:
448,192,32708,1,0,0:0:0:0:
192,192,32883,1,0,0:0:0:0:
64,192,32883,1,0,0:0:0:0:
320,192,33059,1,0,0:0:0:0:
448,192,33059,1,0,0:0:0:0:
192,192,33234,1,0,0:0:0:0:
64,192,33234,1,0,0:0:0:0:
192,192,33410,1,0,0:0:0:0:
320,192,33410,1,0,0:0:0:0:
320,192,33585,1,0,0:0:0:0:
64,192,33585,1,0,0:0:0:0:
448,192,33585,128,0,34288:0:0:0:0:
192,192,33761,1,0,0:0:0:0:
64,192,33761,128,0,33936:0:0:0:0:
320,192,33936,1,0,0:0:0:0:
192,192,34112,1,0,0:0:0:0:
64,192,34112,128,0,34288:0:0:0:0:
320,192,34288,1,0,0:0:0:0:
448,192,34463,1,0,0:0:0:0:
64,192,34463,1,0,0:0:0:0:
192,192,34551,1,0,0:0:0:0:
320,192,34551,1,0,0:0:0:0:
64,192,34639,1,0,0:0:0:0:
448,192,34639,1,0,0:0:0:0:
192,192,34814,1,0,0:0:0:0:
320,192,34814,1,0,0:0:0:0:
64,192,34990,1,0,0:0:0:0:
448,192,34990,128,0,37096:0:0:0:0:
192,192,34990,1,0,0:0:0:0:
320,192,35165,1,0,0:0:0:0:
64,192,35341,1,0,0:0:0:0:
192,192,35341,1,0,0:0:0:0:
64,192,35692,1,0,0:0:0:0:
192,192,35692,1,0,0:0:0:0:
320,192,35867,1,0,0:0:0:0:
64,192,36043,1,0,0:0:0:0:
192,192,36043,1,0,0:0:0:0:
192,192,36394,128,0,37096:0:0:0:0:
64,192,36394,128,0,37096:0:0:0:0:
320,192,37096,1,0,0:0:0:0:
320,192,37447,1,0,0:0:0:0:
448,192,37447,1,0,0:0:0:0:
192,192,37447,1,0,0:0:0:0:
64,192,37447,1,0,0:0:0:0:
320,192,37798,1,0,0:0:0:0:
192,192,37798,1,0,0:0:0:0:
448,192,37973,1,0,0:0:0:0:
320,192,38061,1,0,0:0:0:0:
192,192,38149,1,0,0:0:0:0:
64,192,38149,1,0,0:0:0:0:
64,192,38324,1,0,0:0:0:0:
192,192,38412,1,0,0:0:0:0:
320,192,38500,1,0,0:0:0:0:
448,192,38500,1,0,0:0:0:0:
64,192,38588,1,0,0:0:0:0:
192,192,38675,1,0,0:0:0:0:
320,192,38763,1,0,0:0:0:0:
448,192,38851,1,0,0:0:0:0:
64,192,38851,1,0,0:0:0:0:
192,192,39026,1,0,0:0:0:0:
320,192,39114,1,0,0:0:0:0:
64,192,39202,1,0,0:0:0:0:
448,192,39202,1,0,0:0:0:0:
192,192,39290,1,0,0:0:0:0:
320,192,39377,1,0,0:0:0:0:
192,192,39465,1,0,0:0:0:0:
448,192,39553,1,0,0:0:0:0:
64,192,39553,1,0,0:0:0:0:
320,192,39728,1,0,0:0:0:0:
192,192,39816,1,0,0:0:0:0:
64,192,39904,1,0,0:0:0:0:
448,192,39904,1,0,0:0:0:0:
320,192,39992,1,0,0:0:0:0:
192,192,40079,1,0,0:0:0:0:
64,192,40167,1,0,0:0:0:0:
448,192,40255,1,0,0:0:0:0:
320,192,40255,1,0,0:0:0:0:
64,192,40430,1,0,0:0:0:0:
192,192,40518,1,0,0:0:0:0:
320,192,40606,1,0,0:0:0:0:
448,192,40606,1,0,0:0:0:0:
64,192,40694,1,0,0:0:0:0:
448,192,40781,1,0,0:0:0:0:
320,192,40869,1,0,0:0:0:0:
192,192,40957,1,0,0:0:0:0:
64,192,40957,1,0,0:0:0:0:
448,192,41132,1,0,0:0:0:0:
320,192,41220,1,0,0:0:0:0:
64,192,41308,1,0,0:0:0:0:
192,192,41308,1,0,0:0:0:0:
448,192,41396,1,0,0:0:0:0:
64,192,41483,1,0,0:0:0:0:
192,192,41571,1,0,0:0:0:0:
320,192,41659,1,0,0:0:0:0:
448,192,41659,1,0,0:0:0:0:
192,192,41834,1,0,0:0:0:0:
320,192,41922,1,0,0:0:0:0:
64,192,42010,1,0,0:0:0:0:
448,192,42010,1,0,0:0:0:0:
192,192,42185,1,0,0:0:0:0:
64,192,42361,1,0,0:0:0:0:
448,192,42361,1,0,0:0:0:0:
320,192,42536,1,0,0:0:0:0:
192,192,42624,1,0,0:0:0:0:
448,192,42712,1,0,0:0:0:0:
64,192,42712,1,0,0:0:0:0:
320,192,42800,1,0,0:0:0:0:
192,192,42888,1,0,0:0:0:0:
64,192,42975,1,0,0:0:0:0:
320,192,43063,1,0,0:0:0:0:
448,192,43063,1,0,0:0:0:0:
64,192,43239,1,0,0:0:0:0:
192,192,43326,1,0,0:0:0:0:
448,192,43414,1,0,0:0:0:0:
320,192,43414,1,0,0:0:0:0:
192,192,43590,1,0,0:0:0:0:
64,192,43590,1,0,0:0:0:0:
448,192,43765,1,0,0:0:0:0:
320,192,43765,1,0,0:0:0:0:
448,192,43941,1,0,0:0:0:0:
64,192,43941,1,0,0:0:0:0:
320,192,44028,1,0,0:0:0:0:
192,192,44116,1,0,0:0:0:0:
64,192,44116,1,0,0:0:0:0:
448,192,44204,1,0,0:0:0:0:
64,192,44292,1,0,0:0:0:0:
320,192,44292,1,0,0:0:0:0:
192,192,44379,1,0,0:0:0:0:
448,192,44467,1,0,0:0:0:0:
320,192,44467,1,0,0:0:0:0:
448,192,44643,1,0,0:0:0:0:
64,192,44643,1,0,0:0:0:0:
320,192,44730,1,0,0:0:0:0:
64,192,44818,1,0,0:0:0:0:
192,192,44818,1,0,0:0:0:0:
320,192,44994,1,0,0:0:0:0:
448,192,44994,1,0,0:0:0:0:
64,192,45169,1,0,0:0:0:0:
192,192,45169,1,0,0:0:0:0:
448,192,45345,1,0,0:0:0:0:
64,192,45345,1,0,0:0:0:0:
192,192,45432,1,0,0:0:0:0:
320,192,45520,1,0,0:0:0:0:
448,192,45520,1,0,0:0:0:0:
64,192,45608,1,0,0:0:0:0:
320,192,45696,1,0,0:0:0:0:
192,192,45696,1,0,0:0:0:0:
448,192,45783,1,0,0:0:0:0:
64,192,45871,1,0,0:0:0:0:
192,192,45871,1,0,0:0:0:0:
448,192,46047,1,0,0:0:0:0:
320,192,46047,1,0,0:0:0:0:
192,192,46134,1,0,0:0:0:0:
448,192,46222,1,0,0:0:0:0:
64,192,46222,1,0,0:0:0:0:
320,192,46310,1,0,0:0:0:0:
192,192,46398,1,0,0:0:0:0:
64,192,46398,1,0,0:0:0:0:
448,192,46485,1,0,0:0:0:0:
192,192,46573,1,0,0:0:0:0:
64,192,46573,1,0,0:0:0:0:
448,192,46661,1,0,0:0:0:0:
192,192,46749,1,0,0:0:0:0:
64,192,46749,1,0,0:0:0:0:
320,192,46837,1,0,0:0:0:0:
448,192,46924,1,0,0:0:0:0:
64,192,46924,1,0,0:0:0:0:
192,192,47012,1,0,0:0:0:0:
448,192,47100,1,0,0:0:0:0:
320,192,47100,1,0,0:0:0:0:
64,192,47188,1,0,0:0:0:0:
448,192,47275,1,0,0:0:0:0:
320,192,47275,1,0,0:0:0:0:
64,192,47363,1,0,0:0:0:0:
320,192,47451,1,0,0:0:0:0:
448,192,47451,1,0,0:0:0:0:
192,192,47539,1,0,0:0:0:0:
448,192,47626,1,0,0:0:0:0:
64,192,47626,1,0,0:0:0:0:
320,192,47714,1,0,0:0:0:0:
64,192,47802,1,0,0:0:0:0:
192,192,47802,1,0,0:0:0:0:
448,192,47890,5,0,0:0:0:0:
192,192,47977,1,0,0:0:0:0:
320,192,47977,1,0,0:0:0:0:
64,192,48065,1,0,0:0:0:0:
320,192,48153,1,0,0:0:0:0:
448,192,48153,1,0,0:0:0:0:
192,192,48241,1,0,0:0:0:0:
64,192,48328,1,0,0:0:0:0:
448,192,48328,1,0,0:0:0:0:
320,192,48416,1,0,0:0:0:0:
64,192,48504,1,0,0:0:0:0:
192,192,48504,1,0,0:0:0:0:
320,192,48592,1,0,0:0:0:0:
192,192,48679,1,0,0:0:0:0:
64,192,48679,1,0,0:0:0:0:
448,192,48679,1,0,0:0:0:0:
64,192,49030,128,0,49381:0:0:0:0:
320,192,49381,128,0,49732:0:0:0:0:
64,192,49732,128,0,50083:0:0:0:0:
320,192,50083,128,0,50434:0:0:0:0:
64,192,50434,1,0,0:0:0:0:
192,192,50610,1,0,0:0:0:0:
320,192,50785,1,0,0:0:0:0:
448,192,50961,1,0,0:0:0:0:
192,192,51137,1,0,0:0:0:0:
320,192,51312,1,0,0:0:0:0:
64,192,51488,1,0,0:0:0:0:
448,192,51839,128,0,52190:0:0:0:0:
192,192,52190,128,0,52541:0:0:0:0:
448,192,52541,128,0,52892:0:0:0:0:
64,192,52892,1,0,0:0:0:0:
320,192,53067,1,0,0:0:0:0:
192,192,53243,1,0,0:0:0:0:
448,192,53418,1,0,0:0:0:0:
64,192,53594,1,0,0:0:0:0:
448,192,53769,1,0,0:0:0:0:
320,192,53857,1,0,0:0:0:0:
64,192,53945,1,0,0:0:0:0:
192,192,54032,1,0,0:0:0:0:
448,192,54120,1,0,0:0:0:0:
320,192,54208,1,0,0:0:0:0:
64,192,54296,1,0,0:0:0:0:
192,192,54383,1,0,0:0:0:0:
320,192,54471,1,0,0:0:0:0:
192,192,54647,1,0,0:0:0:0:
64,192,54647,1,0,0:0:0:0:
448,192,54647,1,0,0:0:0:0:
448,192,54822,1,0,0:0:0:0:
320,192,54822,1,0,0:0:0:0:
192,192,54998,1,0,0:0:0:0:
64,192,54998,1,0,0:0:0:0:
448,192,54998,1,0,0:0:0:0:
192,192,55173,1,0,0:0:0:0:
64,192,55173,1,0,0:0:0:0:
448,192,55349,1,0,0:0:0:0:
64,192,55349,1,0,0:0:0:0:
320,192,55349,1,0,0:0:0:0:
320,192,55524,1,0,0:0:0:0:
192,192,55524,1,0,0:0:0:0:
192,192,55700,1,0,0:0:0:0:
64,192,55700,1,0,0:0:0:0:
448,192,55700,1,0,0:0:0:0:
64,192,55875,1,0,0:0:0:0:
320,192,55875,1,0,0:0:0:0:
192,192,55963,1,0,0:0:0:0:
64,192,56051,1,0,0:0:0:0:
448,192,56051,1,0,0:0:0:0:
320,192,56051,1,0,0:0:0:0:
320,192,56226,1,0,0:0:0:0:
192,192,56226,1,0,0:0:0:0:
64,192,56402,1,0,0:0:0:0:
448,192,56402,1,0,0:0:0:0:
192,192,56402,1,0,0:0:0:0:
320,192,56577,1,0,0:0:0:0:
448,192,56577,1,0,0:0:0:0:
64,192,56753,1,0,0:0:0:0:
192,192,56753,1,0,0:0:0:0:
448,192,56753,1,0,0:0:0:0:
320,192,56928,1,0,0:0:0:0:
192,192,56928,1,0,0:0:0:0:
64,192,57104,1,0,0:0:0:0:
448,192,57104,1,0,0:0:0:0:
320,192,57104,1,0,0:0:0:0:
448,192,57279,1,0,0:0:0:0:
192,192,57279,1,0,0:0:0:0:
320,192,57367,1,0,0:0:0:0:
448,192,57455,1,0,0:0:0:0:
64,192,57455,1,0,0:0:0:0:
192,192,57455,1,0,0:0:0:0:
192,192,57630,1,0,0:0:0:0:
320,192,57630,1,0,0:0:0:0:
64,192,57806,1,0,0:0:0:0:
320,192,57806,1,0,0:0:0:0:
448,192,57806,1,0,0:0:0:0:
64,192,57981,1,0,0:0:0:0:
192,192,57981,1,0,0:0:0:0:
448,192,58157,1,0,0:0:0:0:
320,192,58157,1,0,0:0:0:0:
64,192,58157,1,0,0:0:0:0:
320,192,58332,1,0,0:0:0:0:
192,192,58332,1,0,0:0:0:0:
320,192,58508,1,0,0:0:0:0:
448,192,58508,1,0,0:0:0:0:
64,192,58508,1,0,0:0:0:0:
448,192,58683,1,0,0:0:0:0:
192,192,58683,1,0,0:0:0:0:
320,192,58771,1,0,0:0:0:0:
448,192,58859,1,0,0:0:0:0:
192,192,58859,1,0,0:0:0:0:
64,192,58859,1,0,0:0:0:0:
320,192,58947,1,0,0:0:0:0:
192,192,59034,1,0,0:0:0:0:
64,192,59034,1,0,0:0:0:0:
448,192,59122,1,0,0:0:0:0:
320,192,59210,1,0,0:0:0:0:
64,192,59210,1,0,0:0:0:0:
192,192,59298,1,0,0:0:0:0:
320,192,59385,1,0,0:0:0:0:
448,192,59385,1,0,0:0:0:0:
64,192,59473,1,0,0:0:0:0:
192,192,59561,1,0,0:0:0:0:
448,192,59561,1,0,0:0:0:0:
320,192,59649,1,0,0:0:0:0:
192,192,59737,1,0,0:0:0:0:
64,192,59737,1,0,0:0:0:0:
320,192,59824,1,0,0:0:0:0:
448,192,59912,1,0,0:0:0:0:
64,192,59912,1,0,0:0:0:0:
192,192,59912,1,0,0:0:0:0:
64,192,60263,128,0,60614:0:0:0:0:
192,192,60263,128,0,60614:0:0:0:0:
320,192,60263,1,0,0:0:0:0:
448,192,60263,1,0,0:0:0:0:
448,192,60439,1,0,0:0:0:0:
320,192,60614,128,0,60965:0:0:0:0:
448,192,60614,128,0,60965:0:0:0:0:
64,192,60790,1,0,0:0:0:0:
64,192,60965,128,0,61316:0:0:0:0:
192,192,60965,128,0,61316:0:0:0:0:
448,192,61141,1,0,0:0:0:0:
320,192,61316,128,0,61667:0:0:0:0:
448,192,61316,128,0,61667:0:0:0:0:
64,192,61492,1,0,0:0:0:0:
192,192,61667,1,0,0:0:0:0:
64,192,61667,1,0,0:0:0:0:
448,192,61843,1,0,0:0:0:0:
320,192,61843,1,0,0:0:0:0:
192,192,62018,1,0,0:0:0:0:
64,192,62018,1,0,0:0:0:0:
448,192,62018,1,0,0:0:0:0:
192,192,62194,1,0,0:0:0:0:
320,192,62194,1,0,0:0:0:0:
448,192,62369,1,0,0:0:0:0:
64,192,62369,1,0,0:0:0:0:
192,192,62369,1,0,0:0:0:0:
320,192,62545,1,0,0:0:0:0:
448,192,62545,1,0,0:0:0:0:
448,192,62720,1,0,0:0:0:0:
64,192,62720,1,0,0:0:0:0:
192,192,62720,128,0,63071:0:0:0:0:
64,192,63071,1,0,0:0:0:0:
448,192,63071,1,0,0:0:0:0:
320,192,63159,1,0,0:0:0:0:
192,192,63247,1,0,0:0:0:0:
448,192,63334,1,0,0:0:0:0:
192,192,63422,1,0,0:0:0:0:
64,192,63422,1,0,0:0:0:0:
448,192,63510,1,0,0:0:0:0:
64,192,63598,1,0,0:0:0:0:
192,192,63686,1,0,0:0:0:0:
320,192,63773,1,0,0:0:0:0:
448,192,63773,1,0,0:0:0:0:
64,192,63861,1,0,0:0:0:0:
448,192,63949,1,0,0:0:0:0:
320,192,64037,1,0,0:0:0:0:
192,192,64124,1,0,0:0:0:0:
64,192,64124,1,0,0:0:0:0:
448,192,64212,1,0,0:0:0:0:
320,192,64300,1,0,0:0:0:0:
192,192,64388,1,0,0:0:0:0:
64,192,64475,1,0,0:0:0:0:
448,192,64475,128,0,65177:0:0:0:0:
320,192,64651,1,0,0:0:0:0:
192,192,64651,1,0,0:0:0:0:
64,192,64826,1,0,0:0:0:0:
192,192,65002,1,0,0:0:0:0:
320,192,65002,1,0,0:0:0:0:
64,192,65177,128,0,65879:0:0:0:0:
192,192,65177,1,0,0:0:0:0:
448,192,65353,1,0,0:0:0:0:
320,192,65353,1,0,0:0:0:0:
448,192,65528,1,0,0:0:0:0:
320,192,65528,1,0,0:0:0:0:
448,192,65704,1,0,0:0:0:0:
320,192,65704,1,0,0:0:0:0:
448,192,65879,128,0,66230:0:0:0:0:
192,192,65879,1,0,0:0:0:0:
320,192,65879,128,0,66230:0:0:0:0:
192,192,66055,1,0,0:0:0:0:
192,192,66230,128,0,66581:0:0:0:0:
64,192,66230,128,0,66581:0:0:0:0:
320,192,66406,1,0,0:0:0:0:
448,192,66581,128,0,66932:0:0:0:0:
320,192,66581,128,0,66932:0:0:0:0:
192,192,66757,1,0,0:0:0:0:
64,192,66932,128,0,67283:0:0:0:0:
192,192,66932,128,0,67283:0:0:0:0:
320,192,67108,1,0,0:0:0:0:
320,192,67283,1,0,0:0:0:0:
448,192,67283,1,0,0:0:0:0:
192,192,67547,1,0,0:0:0:0:
64,192,67547,1,0,0:0:0:0:
320,192,67810,1,0,0:0:0:0:
448,192,67810,1,0,0:0:0:0:
64,192,67986,1,0,0:0:0:0:
448,192,67986,1,0,0:0:0:0:
192,192,67986,1,0,0:0:0:0:
192,192,68161,1,0,0:0:0:0:
320,192,68161,1,0,0:0:0:0:
64,192,68337,1,0,0:0:0:0:
448,192,68337,1,0,0:0:0:0:
320,192,68337,1,0,0:0:0:0:
320,192,68688,1,0,0:0:0:0:
448,192,68688,1,0,0:0:0:0:
192,192,68688,128,0,69039:0:0:0:0:
64,192,68688,128,0,69039:0:0:0:0:
448,192,68863,1,0,0:0:0:0:
320,192,69039,128,0,69390:0:0:0:0:
448,192,69039,128,0,69390:0:0:0:0:
64,192,69214,1,0,0:0:0:0:
64,192,69390,128,0,69741:0:0:0:0:
192,192,69390,128,0,69741:0:0:0:0:
448,192,69565,1,0,0:0:0:0:
320,192,69741,1,0,0:0:0:0:
448,192,69741,1,0,0:0:0:0:
192,192,69916,1,0,0:0:0:0:
320,192,69916,1,0,0:0:0:0:
64,192,70092,1,0,0:0:0:0:
448,192,70092,1,0,0:0:0:0:
192,192,70179,1,0,0:0:0:0:
320,192,70267,1,0,0:0:0:0:
448,192,70355,1,0,0:0:0:0:
64,192,70443,1,0,0:0:0:0:
192,192,70443,1,0,0:0:0:0:
448,192,70530,1,0,0:0:0:0:
320,192,70618,1,0,0:0:0:0:
192,192,70706,1,0,0:0:0:0:
448,192,70794,1,0,0:0:0:0:
64,192,70794,1,0,0:0:0:0:
320,192,70881,1,0,0:0:0:0:
192,192,70969,1,0,0:0:0:0:
320,192,71057,1,0,0:0:0:0:
64,192,71145,1,0,0:0:0:0:
448,192,71145,1,0,0:0:0:0:
192,192,71145,1,0,0:0:0:0:
64,192,71496,1,0,0:0:0:0:
448,192,71496,1,0,0:0:0:0:
320,192,71496,1,0,0:0:0:0:
320,192,71847,1,0,0:0:0:0:
448,192,71847,1,0,0:0:0:0:
320,192,72198,1,0,0:0:0:0:
192,192,72198,1,0,0:0:0:0:
192,192,72549,1,0,0:0:0:0:
320,192,72549,1,0,0:0:0:0:
192,192,72900,1,0,0:0:0:0:
64,192,72900,1,0,0:0:0:0:
64,192,73251,1,0,0:0:0:0:
192,192,73251,1,0,0:0:0:0:
64,192,73602,1,0,0:0:0:0:
448,192,73602,1,0,0:0:0:0:
448,192,73953,1,0,0:0:0:0:
64,192,73953,1,0,0:0:0:0:
64,192,74304,1,0,0:0:0:0:
192,192,74304,1,0,0:0:0:0:
448,192,74304,1,0,0:0:0:0:
64,192,74655,1,0,0:0:0:0:
192,192,74655,1,0,0:0:0:0:
448,192,74655,1,0,0:0:0:0:
64,192,75006,1,0,0:0:0:0:
320,192,75006,1,0,0:0:0:0:
448,192,75006,1,0,0:0:0:0:
64,192,75357,1,0,0:0:0:0:
320,192,75357,1,0,0:0:0:0:
448,192,75357,1,0,0:0:0:0:
192,192,75708,1,0,0:0:0:0:
64,192,75708,1,0,0:0:0:0:
448,192,75708,1,0,0:0:0:0:
448,192,76059,1,0,0:0:0:0:
192,192,76059,1,0,0:0:0:0:
64,192,76059,1,0,0:0:0:0:
64,192,76410,1,0,0:0:0:0:
320,192,76410,1,0,0:0:0:0:
448,192,76410,1,0,0:0:0:0:
448,192,76761,1,0,0:0:0:0:
320,192,76805,1,0,0:0:0:0:
192,192,76849,1,0,0:0:0:0:
64,192,76893,1,0,0:0:0:0:
448,192,76937,1,0,0:0:0:0:
320,192,76980,1,0,0:0:0:0:
192,192,77024,1,0,0:0:0:0:
64,192,77068,1,0,0:0:0:0:
320,192,77112,1,0,0:0:0:0:
448,192,77112,1,0,0:0:0:0:
448,192,77288,1,0,0:0:0:0:
64,192,77463,1,0,0:0:0:0:
192,192,77463,1,0,0:0:0:0:
448,192,77463,1,0,0:0:0:0:
64,192,77639,1,0,0:0:0:0:
320,192,77814,1,0,0:0:0:0:
192,192,77814,1,0,0:0:0:0:
448,192,77990,1,0,0:0:0:0:
320,192,78077,1,0,0:0:0:0:
192,192,78165,1,0,0:0:0:0:
64,192,78165,1,0,0:0:0:0:
448,192,78165,1,0,0:0:0:0:
64,192,78341,1,0,0:0:0:0:
192,192,78428,1,0,0:0:0:0:
320,192,78516,1,0,0:0:0:0:
448,192,78516,1,0,0:0:0:0:
320,192,78692,1,0,0:0:0:0:
448,192,78867,1,0,0:0:0:0:
320,192,78867,1,0,0:0:0:0:
64,192,78867,1,0,0:0:0:0:
64,192,79043,1,0,0:0:0:0:
192,192,79218,1,0,0:0:0:0:
320,192,79218,1,0,0:0:0:0:
448,192,79394,1,0,0:0:0:0:
320,192,79481,1,0,0:0:0:0:
64,192,79569,1,0,0:0:0:0:
192,192,79569,1,0,0:0:0:0:
448,192,79569,1,0,0:0:0:0:
64,192,79745,1,0,0:0:0:0:
192,192,79832,1,0,0:0:0:0:
320,192,79920,1,0,0:0:0:0:
448,192,79920,1,0,0:0:0:0:
192,192,80096,1,0,0:0:0:0:
64,192,80096,1,0,0:0:0:0:
448,192,80271,5,0,0:0:0:0:
320,192,80315,1,0,0:0:0:0:
192,192,80359,1,0,0:0:0:0:
64,192,80403,1,0,0:0:0:0:
448,192,80447,1,0,0:0:0:0:
320,192,80491,1,0,0:0:0:0:
192,192,80535,1,0,0:0:0:0:
64,192,80578,1,0,0:0:0:0:
320,192,80622,1,0,0:0:0:0:
448,192,80622,1,0,0:0:0:0:
192,192,80798,1,0,0:0:0:0:
64,192,80798,1,0,0:0:0:0:
448,192,80973,1,0,0:0:0:0:
320,192,81017,1,0,0:0:0:0:
192,192,81061,1,0,0:0:0:0:
64,192,81105,1,0,0:0:0:0:
448,192,81149,1,0,0:0:0:0:
320,192,81193,1,0,0:0:0:0:
192,192,81237,1,0,0:0:0:0:
64,192,81280,1,0,0:0:0:0:
320,192,81324,1,0,0:0:0:0:
448,192,81324,1,0,0:0:0:0:
448,192,81500,5,0,0:0:0:0:
64,192,81500,1,0,0:0:0:0:
320,192,81675,1,0,0:0:0:0:
192,192,81675,1,0,0:0:0:0:
64,192,81851,1,0,0:0:0:0:
448,192,81851,1,0,0:0:0:0:
192,192,82026,1,0,0:0:0:0:
64,192,82026,1,0,0:0:0:0:
64,192,82728,5,0,0:0:0:0:
64,192,83079,1,0,0:0:0:0:
192,192,83079,1,0,0:0:0:0:
64,192,83430,1,0,0:0:0:0:
192,192,83430,1,0,0:0:0:0:
320,192,83430,1,0,0:0:0:0:
64,192,83781,1,0,0:0:0:0:
192,192,83781,1,0,0:0:0:0:
320,192,83781,1,0,0:0:0:0:
448,192,83781,1,0,0:0:0:0:
192,192,83957,1,0,0:0:0:0:
320,192,83957,1,0,0:0:0:0:
448,192,84132,1,0,0:0:0:0:
64,192,84132,1,0,0:0:0:0:
192,192,84132,1,0,0:0:0:0:
320,192,84308,1,0,0:0:0:0:
448,192,84308,1,0,0:0:0:0:
320,192,84483,1,0,0:0:0:0:
64,192,84483,1,0,0:0:0:0:
448,192,84571,1,0,0:0:0:0:
64,192,84659,1,0,0:0:0:0:
192,192,84659,1,0,0:0:0:0:
320,192,84747,1,0,0:0:0:0:
64,192,84835,1,0,0:0:0:0:
192,192,84835,1,0,0:0:0:0:
448,192,84922,1,0,0:0:0:0:
64,192,85010,1,0,0:0:0:0:
320,192,85010,1,0,0:0:0:0:
192,192,85098,1,0,0:0:0:0:
448,192,85186,1,0,0:0:0:0:
320,192,85186,1,0,0:0:0:0:
192,192,85361,1,0,0:0:0:0:
320,192,85361,1,0,0:0:0:0:
64,192,85537,1,0,0:0:0:0:
192,192,85537,1,0,0:0:0:0:
448,192,85537,1,0,0:0:0:0:
192,192,85712,1,0,0:0:0:0:
64,192,85712,1,0,0:0:0:0:
448,192,85888,1,0,0:0:0:0:
64,192,85888,1,0,0:0:0:0:
192,192,85975,1,0,0:0:0:0:
448,192,86063,1,0,0:0:0:0:
320,192,86063,1,0,0:0:0:0:
64,192,86151,1,0,0:0:0:0:
192,192,86239,1,0,0:0:0:0:
320,192,86239,1,0,0:0:0:0:
448,192,86326,1,0,0:0:0:0:
64,192,86414,1,0,0:0:0:0:
192,192,86414,1,0,0:0:0:0:
320,192,86502,1,0,0:0:0:0:
448,192,86590,1,0,0:0:0:0:
64,192,86590,1,0,0:0:0:0:
192,192,86590,1,0,0:0:0:0:
320,192,86765,1,0,0:0:0:0:
448,192,86765,1,0,0:0:0:0:
64,192,86941,1,0,0:0:0:0:
448,192,86941,1,0,0:0:0:0:
192,192,86941,1,0,0:0:0:0:
192,192,87116,1,0,0:0:0:0:
320,192,87116,1,0,0:0:0:0:
448,192,87292,1,0,0:0:0:0:
64,192,87292,1,0,0:0:0:0:
320,192,87292,1,0,0:0:0:0:
192,192,87379,1,0,0:0:0:0:
448,192,87467,1,0,0:0:0:0:
320,192,87467,1,0,0:0:0:0:
64,192,87555,1,0,0:0:0:0:
192,192,87643,1,0,0:0:0:0:
448,192,87643,1,0,0:0:0:0:
320,192,87730,1,0,0:0:0:0:
192,192,87818,1,0,0:0:0:0:
64,192,87818,1,0,0:0:0:0:
64,192,87994,1,0,0:0:0:0:
448,192,87994,1,0,0:0:0:0:
320,192,87994,1,0,0:0:0:0:
192,192,88169,1,0,0:0:0:0:
320,192,88169,1,0,0:0:0:0:
64,192,88345,1,0,0:0:0:0:
448,192,88345,1,0,0:0:0:0:
320,192,88345,1,0,0:0:0:0:
192,192,88520,1,0,0:0:0:0:
64,192,88520,1,0,0:0:0:0:
64,192,88696,1,0,0:0:0:0:
448,192,88696,1,0,0:0:0:0:
320,192,88696,1,0,0:0:0:0:
320,192,88871,1,0,0:0:0:0:
192,192,88871,1,0,0:0:0:0:
448,192,89047,1,0,0:0:0:0:
192,192,89047,1,0,0:0:0:0:
64,192,89047,1,0,0:0:0:0:
64,192,89222,1,0,0:0:0:0:
448,192,89222,1,0,0:0:0:0:
320,192,89222,1,0,0:0:0:0:
192,192,89310,1,0,0:0:0:0:
64,192,89398,1,0,0:0:0:0:
448,192,89398,1,0,0:0:0:0:
320,192,89398,1,0,0:0:0:0:
192,192,89573,1,0,0:0:0:0:
320,192,89573,1,0,0:0:0:0:
448,192,89749,1,0,0:0:0:0:
64,192,89749,1,0,0:0:0:0:
192,192,89749,1,0,0:0:0:0:
320,192,89749,1,0,0:0:0:0:
192,192,89924,1,0,0:0:0:0:
64,192,89924,1,0,0:0:0:0:
448,192,90100,1,0,0:0:0:0:
320,192,90100,1,0,0:0:0:0:
192,192,90188,1,0,0:0:0:0:
64,192,90275,1,0,0:0:0:0:
448,192,90275,1,0,0:0:0:0:
320,192,90363,1,0,0:0:0:0:
64,192,90451,1,0,0:0:0:0:
192,192,90451,1,0,0:0:0:0:
448,192,90539,1,0,0:0:0:0:
64,192,90626,1,0,0:0:0:0:
320,192,90626,1,0,0:0:0:0:
192,192,90714,1,0,0:0:0:0:
448,192,90802,1,0,0:0:0:0:
320,192,90802,1,0,0:0:0:0:
192,192,90977,1,0,0:0:0:0:
64,192,90977,1,0,0:0:0:0:
64,192,91153,1,0,0:0:0:0:
320,192,91153,1,0,0:0:0:0:
448,192,91153,1,0,0:0:0:0:
192,192,91241,1,0,0:0:0:0:
320,192,91328,1,0,0:0:0:0:
448,192,91328,1,0,0:0:0:0:
64,192,91416,1,0,0:0:0:0:
448,192,91504,1,0,0:0:0:0:
192,192,91504,1,0,0:0:0:0:
320,192,91592,1,0,0:0:0:0:
192,192,91679,1,0,0:0:0:0:
64,192,91679,1,0,0:0:0:0:
448,192,91767,1,0,0:0:0:0:
192,192,91855,1,0,0:0:0:0:
320,192,91855,1,0,0:0:0:0:
64,192,91943,1,0,0:0:0:0:
320,192,92030,1,0,0:0:0:0:
448,192,92030,1,0,0:0:0:0:
192,192,92118,1,0,0:0:0:0:
448,192,92206,1,0,0:0:0:0:
64,192,92206,1,0,0:0:0:0:
320,192,92206,1,0,0:0:0:0:
192,192,92381,1,0,0:0:0:0:
64,192,92381,1,0,0:0:0:0:
64,192,92557,1,0,0:0:0:0:
448,192,92557,1,0,0:0:0:0:
320,192,92557,1,0,0:0:0:0:
192,192,92732,1,0,0:0:0:0:
320,192,92732,1,0,0:0:0:0:
448,192,92908,1,0,0:0:0:0:
64,192,92908,1,0,0:0:0:0:
320,192,92908,1,0,0:0:0:0:
192,192,92996,1,0,0:0:0:0:
448,192,93084,1,0,0:0:0:0:
320,192,93084,1,0,0:0:0:0:
64,192,93171,1,0,0:0:0:0:
192,192,93259,1,0,0:0:0:0:
448,192,93259,1,0,0:0:0:0:
320,192,93347,1,0,0:0:0:0:
192,192,93435,1,0,0:0:0:0:
64,192,93435,1,0,0:0:0:0:
192,192,93610,1,0,0:0:0:0:
320,192,93610,1,0,0:0:0:0:
320,192,93786,1,0,0:0:0:0:
448,192,93786,1,0,0:0:0:0:
192,192,93961,1,0,0:0:0:0:
448,192,93961,1,0,0:0:0:0:
64,192,93961,1,0,0:0:0:0:
64,192,94137,1,0,0:0:0:0:
320,192,94137,1,0,0:0:0:0:
448,192,94137,1,0,0:0:0:0:
192,192,94312,1,0,0:0:0:0:
64,192,94312,1,0,0:0:0:0:
64,192,94488,1,0,0:0:0:0:
448,192,94488,1,0,0:0:0:0:
320,192,94488,1,0,0:0:0:0:
320,192,94663,1,0,0:0:0:0:
192,192,94663,1,0,0:0:0:0:
448,192,94839,1,0,0:0:0:0:
64,192,94839,1,0,0:0:0:0:
192,192,94839,1,0,0:0:0:0:
320,192,94926,1,0,0:0:0:0:
64,192,95014,1,0,0:0:0:0:
448,192,95014,1,0,0:0:0:0:
192,192,95014,1,0,0:0:0:0:
320,192,95190,1,0,0:0:0:0:
64,192,95190,1,0,0:0:0:0:
448,192,95190,1,0,0:0:0:0:
320,192,95365,1,0,0:0:0:0:
192,192,95365,1,0,0:0:0:0:
64,192,95365,1,0,0:0:0:0:
448,192,95365,1,0,0:0:0:0:
192,192,95541,1,0,0:0:0:0:
320,192,95541,1,0,0:0:0:0:
64,192,95716,1,0,0:0:0:0:
192,192,95716,1,0,0:0:0:0:
320,192,95804,1,0,0:0:0:0:
448,192,95892,1,0,0:0:0:0:
64,192,95892,1,0,0:0:0:0:
192,192,95979,1,0,0:0:0:0:
320,192,96067,1,0,0:0:0:0:
448,192,96067,1,0,0:0:0:0:
64,192,96155,1,0,0:0:0:0:
320,192,96243,1,0,0:0:0:0:
192,192,96243,1,0,0:0:0:0:
448,192,96330,1,0,0:0:0:0:
64,192,96418,1,0,0:0:0:0:
192,192,96418,1,0,0:0:0:0:
320,192,96594,1,0,0:0:0:0:
448,192,96594,1,0,0:0:0:0:
448,192,96769,1,0,0:0:0:0:
192,192,96769,1,0,0:0:0:0:
64,192,96769,1,0,0:0:0:0:
320,192,96857,1,0,0:0:0:0:
64,192,96945,1,0,0:0:0:0:
192,192,96945,1,0,0:0:0:0:
448,192,97032,1,0,0:0:0:0:
192,192,97120,1,0,0:0:0:0:
320,192,97120,1,0,0:0:0:0:
64,192,97208,1,0,0:0:0:0:
320,192,97296,1,0,0:0:0:0:
448,192,97296,1,0,0:0:0:0:
192,192,97384,1,0,0:0:0:0:
448,192,97471,1,0,0:0:0:0:
64,192,97471,1,0,0:0:0:0:
320,192,97559,1,0,0:0:0:0:
192,192,97647,1,0,0:0:0:0:
64,192,97647,1,0,0:0:0:0:
320,192,97735,1,0,0:0:0:0:
192,192,97822,1,0,0:0:0:0:
64,192,97822,1,0,0:0:0:0:
448,192,97822,1,0,0:0:0:0:
192,192,97998,1,0,0:0:0:0:
320,192,97998,1,0,0:0:0:0:
320,192,98173,1,0,0:0:0:0:
448,192,98173,1,0,0:0:0:0:
64,192,98173,1,0,0:0:0:0:
64,192,98349,1,0,0:0:0:0:
192,192,98349,1,0,0:0:0:0:
320,192,98524,5,0,0:0:0:0:
64,192,98524,1,0,0:0:0:0:
448,192,98524,1,0,0:0:0:0:
192,192,98612,1,0,0:0:0:0:
320,192,98700,1,0,0:0:0:0:
448,192,98700,1,0,0:0:0:0:
64,192,98788,1,0,0:0:0:0:
320,192,98875,1,0,0:0:0:0:
192,192,98875,1,0,0:0:0:0:
448,192,98963,1,0,0:0:0:0:
64,192,99051,1,0,0:0:0:0:
192,192,99051,1,0,0:0:0:0:
320,192,99226,1,0,0:0:0:0:
448,192,99226,1,0,0:0:0:0:
64,192,99226,1,0,0:0:0:0:
320,192,99402,1,0,0:0:0:0:
192,192,99402,1,0,0:0:0:0:
64,192,99577,1,0,0:0:0:0:
320,192,99577,1,0,0:0:0:0:
448,192,99577,1,0,0:0:0:0:
64,192,99928,1,0,0:0:0:0:
320,192,99928,1,0,0:0:0:0:
448,192,99928,1,0,0:0:0:0:
64,192,100279,1,0,0:0:0:0:
192,192,100279,1,0,0:0:0:0:
320,192,100279,1,0,0:0:0:0:
448,192,100279,1,0,0:0:0:0:
192,192,100630,1,0,0:0:0:0:
64,192,100630,1,0,0:0:0:0:
320,192,100806,1,0,0:0:0:0:
448,192,100806,1,0,0:0:0:0:
448,192,100981,1,0,0:0:0:0:
64,192,100981,1,0,0:0:0:0:
320,192,100981,1,0,0:0:0:0:
64,192,101157,1,0,0:0:0:0:
192,192,101157,1,0,0:0:0:0:
448,192,101332,1,0,0:0:0:0:
320,192,101332,1,0,0:0:0:0:
192,192,101420,1,0,0:0:0:0:
320,192,101508,1,0,0:0:0:0:
448,192,101508,1,0,0:0:0:0:
64,192,101596,1,0,0:0:0:0:
320,192,101684,1,0,0:0:0:0:
192,192,101684,1,0,0:0:0:0:
448,192,101771,1,0,0:0:0:0:
64,192,101859,1,0,0:0:0:0:
192,192,101859,1,0,0:0:0:0:
320,192,101947,1,0,0:0:0:0:
448,192,102035,1,0,0:0:0:0:
64,192,102035,1,0,0:0:0:0:
192,192,102210,1,0,0:0:0:0:
320,192,102210,1,0,0:0:0:0:
64,192,102386,1,0,0:0:0:0:
192,192,102386,1,0,0:0:0:0:
448,192,102386,1,0,0:0:0:0:
320,192,102473,1,0,0:0:0:0:
64,192,102561,1,0,0:0:0:0:
192,192,102561,1,0,0:0:0:0:
448,192,102649,1,0,0:0:0:0:
320,192,102737,1,0,0:0:0:0:
192,192,102737,1,0,0:0:0:0:
64,192,102824,1,0,0:0:0:0:
320,192,102912,1,0,0:0:0:0:
448,192,102912,1,0,0:0:0:0:
192,192,103000,1,0,0:0:0:0:
64,192,103088,1,0,0:0:0:0:
448,192,103088,1,0,0:0:0:0:
320,192,103175,1,0,0:0:0:0:
64,192,103263,1,0,0:0:0:0:
192,192,103263,1,0,0:0:0:0:
320,192,103351,1,0,0:0:0:0:
64,192,103439,1,0,0:0:0:0:
448,192,103439,1,0,0:0:0:0:
192,192,103439,1,0,0:0:0:0:
192,192,103614,1,0,0:0:0:0:
320,192,103614,1,0,0:0:0:0:
64,192,103790,1,0,0:0:0:0:
448,192,103790,1,0,0:0:0:0:
320,192,103790,1,0,0:0:0:0:
192,192,103965,1,0,0:0:0:0:
64,192,103965,1,0,0:0:0:0:
64,192,104141,1,0,0:0:0:0:
448,192,104141,1,0,0:0:0:0:
320,192,104141,1,0,0:0:0:0:
192,192,104228,1,0,0:0:0:0:
320,192,104316,1,0,0:0:0:0:
448,192,104316,1,0,0:0:0:0:
64,192,104404,1,0,0:0:0:0:
192,192,104492,1,0,0:0:0:0:
448,192,104492,1,0,0:0:0:0:
320,192,104579,1,0,0:0:0:0:
192,192,104667,1,0,0:0:0:0:
64,192,104667,1,0,0:0:0:0:
64,192,104843,1,0,0:0:0:0:
448,192,104843,1,0,0:0:0:0:
320,192,104843,1,0,0:0:0:0:
192,192,105018,1,0,0:0:0:0:
320,192,105018,1,0,0:0:0:0:
64,192,105194,1,0,0:0:0:0:
448,192,105194,1,0,0:0:0:0:
192,192,105194,1,0,0:0:0:0:
64,192,105369,1,0,0:0:0:0:
320,192,105369,1,0,0:0:0:0:
448,192,105369,1,0,0:0:0:0:
192,192,105545,1,0,0:0:0:0:
320,192,105545,1,0,0:0:0:0:
448,192,105720,1,0,0:0:0:0:
192,192,105720,1,0,0:0:0:0:
64,192,105720,1,0,0:0:0:0:
448,192,105896,1,0,0:0:0:0:
320,192,105896,1,0,0:0:0:0:
64,192,105896,1,0,0:0:0:0:
448,192,106071,1,0,0:0:0:0:
64,192,106071,1,0,0:0:0:0:
192,192,106071,1,0,0:0:0:0:
320,192,106159,1,0,0:0:0:0:
448,192,106247,1,0,0:0:0:0:
64,192,106247,1,0,0:0:0:0:
192,192,106247,1,0,0:0:0:0:
192,192,106422,1,0,0:0:0:0:
320,192,106422,1,0,0:0:0:0:
448,192,106598,1,0,0:0:0:0:
64,192,106598,128,0,108704:0:0:0:0:
320,192,106598,1,0,0:0:0:0:
192,192,106773,1,0,0:0:0:0:
448,192,106949,1,0,0:0:0:0:
320,192,106949,1,0,0:0:0:0:
448,192,107300,1,0,0:0:0:0:
320,192,107300,1,0,0:0:0:0:
192,192,107475,1,0,0:0:0:0:
448,192,107651,1,0,0:0:0:0:
320,192,107651,1,0,0:0:0:0:
320,192,108002,128,0,108704:0:0:0:0:
448,192,108002,128,0,108704:0:0:0:0:
192,192,108704,1,0,0:0:0:0:
64,192,109055,1,0,0:0:0:0:
192,192,109055,1,0,0:0:0:0:
320,192,109055,1,0,0:0:0:0:
448,192,109055,1,0,0:0:0:0:
