osu file format v14

[General]
AudioFilename: Ryu - sakura storm (HQ).mp3
AudioLeadIn: 0
PreviewTime: 26382
Countdown: 0
SampleSet: None
StackLeniency: 0.7
Mode: 3
LetterboxInBreaks: 0
SpecialStyle: 0
WidescreenStoryboard: 1

[Editor]
DistanceSpacing: 1.6
BeatDivisor: 4
GridSize: 4
TimelineZoom: 3.499999

[Metadata]
Title:Sakura Storm
TitleUnicode:Sakura Storm
Artist:Ryu*
ArtistUnicode:Ryu*
Creator:_Gaster
Version:CHALLENGE
Source:DanceDanceRevolution UNIVERSE3
Tags:beatmania iidx 18 resort anthem x2 reflec beat colette -all seasons- plus music pack 61 熱闘!bemaniスタジアム nettou! bemani stadium
BeatmapID:1531473
BeatmapSetID:725320

[Difficulty]
HPDrainRate:8.5
CircleSize:4
OverallDifficulty:8.2
ApproachRate:5
SliderMultiplier:2.89999990463257
SliderTickRate:2

[Events]
//Background and Video events
0,0,"833679.jpg",0,0
//Break Periods
//Storyboard Layer 0 (Background)
//Storyboard Layer 1 (Fail)
//Storyboard Layer 2 (Pass)
//Storyboard Layer 3 (Foreground)
//Storyboard Sound Samples

[TimingPoints]
296,326.086956521739,4,2,0,40,1,0
2578,-111.111111111111,4,2,0,40,0,0
2904,-100,4,2,0,40,0,0
15622,-111.111111111111,4,2,0,40,0,0
15948,-100,4,2,0,40,0,0
26056,-111.111111111111,4,2,0,40,0,0
26382,-100,4,2,0,40,0,0
49535,-111.111111111111,4,2,0,40,0,0
49861,-100,4,2,0,40,0,0
62252,600000000,4,2,0,40,1,0
62497,326.086956521739,4,2,0,40,1,0
62578,600000000,4,2,0,40,1,0
62823,326.086956521739,4,2,0,40,1,0
62904,326.086956521739,4,2,0,40,1,1
73176,600000000,4,2,0,40,1,1
73339,326.086956521739,4,2,0,40,1,1
83774,-100,4,2,0,40,0,0

[HitObjects]
64,192,296,5,0,0:0:0:0:
192,192,296,1,0,0:0:0:0:
448,192,296,1,0,0:0:0:0:
320,192,377,1,0,0:0:0:0:
192,192,459,1,0,0:0:0:0:
64,192,540,1,0,0:0:0:0:
192,192,622,1,0,0:0:0:0:
448,192,622,1,0,0:0:0:0:
320,192,703,1,0,0:0:0:0:
64,192,785,1,0,0:0:0:0:
192,192,785,1,0,0:0:0:0:
448,192,785,1,0,0:0:0:0:
320,192,866,1,0,0:0:0:0:
192,192,948,1,0,0:0:0:0:
64,192,1029,1,0,0:0:0:0:
192,192,1111,1,0,0:0:0:0:
448,192,1111,1,0,0:0:0:0:
320,192,1111,1,0,0:0:0:0:
64,192,1192,1,0,0:0:0:0:
192,192,1274,1,0,0:0:0:0:
320,192,1274,1,0,0:0:0:0:
448,192,1355,1,0,0:0:0:0:
64,192,1437,1,0,0:0:0:0:
192,192,1437,1,0,0:0:0:0:
320,192,1437,1,0,0:0:0:0:
448,192,1518,1,0,0:0:0:0:
320,192,1600,1,0,0:0:0:0:
192,192,1681,1,0,0:0:0:0:
64,192,1763,1,0,0:0:0:0:
320,192,1763,1,0,0:0:0:0:
448,192,1763,1,0,0:0:0:0:
192,192,1844,1,0,0:0:0:0:
64,192,1926,1,0,0:0:0:0:
448,192,1926,1,0,0:0:0:0:
320,192,2007,1,0,0:0:0:0:
192,192,2089,1,0,0:0:0:0:
64,192,2089,1,0,0:0:0:0:
320,192,2170,1,0,0:0:0:0:
448,192,2252,1,0,0:0:0:0:
192,192,2252,1,0,0:0:0:0:
64,192,2252,1,0,0:0:0:0:
320,192,2334,1,0,0:0:0:0:
192,192,2415,1,0,0:0:0:0:
64,192,2497,1,0,0:0:0:0:
192,192,2578,1,0,0:0:0:0:
320,192,2578,1,0,0:0:0:0:
448,192,2578,1,0,0:0:0:0:
64,192,2660,1,0,0:0:0:0:
192,192,2741,1,0,0:0:0:0:
320,192,2823,1,0,0:0:0:0:
64,192,2904,128,0,3230:0:0:0:0:
192,192,2904,1,0,0:0:0:0:
448,192,2904,1,0,0:0:0:0:
320,192,2986,1,0,0:0:0:0:
448,192,3067,1,0,0:0:0:0:
192,192,3149,1,0,0:0:0:0:
320,192,3230,128,0,3393:0:0:0:0:
448,192,3230,1,0,0:0:0:0:
192,192,3312,1,0,0:0:0:0:
64,192,3393,1,0,0:0:0:0:
448,192,3475,1,0,0:0:0:0:
192,192,3556,128,0,3719:0:0:0:0:
320,192,3556,1,0,0:0:0:0:
64,192,3556,1,0,0:0:0:0:
448,192,3638,1,0,0:0:0:0:
320,192,3719,128,0,4045:0:0:0:0:
64,192,3719,1,0,0:0:0:0:
448,192,3801,1,0,0:0:0:0:
64,192,3882,1,0,0:0:0:0:
192,192,3882,1,0,0:0:0:0:
448,192,3964,1,0,0:0:0:0:
64,192,4045,128,0,4209:0:0:0:0:
192,192,4045,1,0,0:0:0:0:
320,192,4127,1,0,0:0:0:0:
448,192,4209,1,0,0:0:0:0:
192,192,4209,1,0,0:0:0:0:
320,192,4290,1,0,0:0:0:0:
448,192,4372,128,0,4535:0:0:0:0:
192,192,4372,1,0,0:0:0:0:
64,192,4453,1,0,0:0:0:0:
192,192,4535,1,0,0:0:0:0:
320,192,4535,1,0,0:0:0:0:
64,192,4616,1,0,0:0:0:0:
448,192,4698,128,0,4861:0:0:0:0:
192,192,4698,1,0,0:0:0:0:
64,192,4779,1,0,0:0:0:0:
320,192,4861,128,0,5024:0:0:0:0:
192,192,4861,1,0,0:0:0:0:
64,192,4942,1,0,0:0:0:0:
448,192,5024,128,0,5350:0:0:0:0:
192,192,5024,1,0,0:0:0:0:
64,192,5105,1,0,0:0:0:0:
192,192,5187,1,0,0:0:0:0:
320,192,5187,1,0,0:0:0:0:
64,192,5268,1,0,0:0:0:0:
320,192,5350,128,0,5513:0:0:0:0:
192,192,5350,1,0,0:0:0:0:
448,192,5431,1,0,0:0:0:0:
64,192,5513,128,0,5676:0:0:0:0:
192,192,5513,1,0,0:0:0:0:
448,192,5594,1,0,0:0:0:0:
192,192,5676,1,0,0:0:0:0:
320,192,5757,1,0,0:0:0:0:
192,192,5839,128,0,6002:0:0:0:0:
64,192,5839,1,0,0:0:0:0:
448,192,5839,1,0,0:0:0:0:
320,192,5920,1,0,0:0:0:0:
448,192,6002,1,0,0:0:0:0:
320,192,6084,1,0,0:0:0:0:
64,192,6165,128,0,6328:0:0:0:0:
192,192,6165,1,0,0:0:0:0:
448,192,6165,1,0,0:0:0:0:
320,192,6247,1,0,0:0:0:0:
192,192,6328,128,0,6654:0:0:0:0:
448,192,6328,1,0,0:0:0:0:
320,192,6410,1,0,0:0:0:0:
448,192,6491,1,0,0:0:0:0:
64,192,6491,1,0,0:0:0:0:
320,192,6573,1,0,0:0:0:0:
448,192,6654,128,0,6817:0:0:0:0:
64,192,6654,1,0,0:0:0:0:
320,192,6736,1,0,0:0:0:0:
192,192,6817,1,0,0:0:0:0:
64,192,6899,1,0,0:0:0:0:
320,192,6980,128,0,7306:0:0:0:0:
192,192,6980,1,0,0:0:0:0:
448,192,6980,1,0,0:0:0:0:
64,192,7062,1,0,0:0:0:0:
448,192,7143,1,0,0:0:0:0:
192,192,7143,1,0,0:0:0:0:
64,192,7225,1,0,0:0:0:0:
192,192,7306,128,0,7469:0:0:0:0:
448,192,7306,1,0,0:0:0:0:
64,192,7388,1,0,0:0:0:0:
320,192,7469,1,0,0:0:0:0:
448,192,7551,1,0,0:0:0:0:
64,192,7632,128,0,7959:0:0:0:0:
320,192,7632,1,0,0:0:0:0:
192,192,7632,1,0,0:0:0:0:
448,192,7714,1,0,0:0:0:0:
320,192,7795,1,0,0:0:0:0:
192,192,7795,1,0,0:0:0:0:
448,192,7877,1,0,0:0:0:0:
320,192,7959,1,0,0:0:0:0:
192,192,8040,1,0,0:0:0:0:
448,192,8122,128,0,8448:0:0:0:0:
64,192,8122,1,0,0:0:0:0:
320,192,8122,1,0,0:0:0:0:
192,192,8203,1,0,0:0:0:0:
64,192,8285,1,0,0:0:0:0:
320,192,8366,1,0,0:0:0:0:
192,192,8448,128,0,8611:0:0:0:0:
64,192,8448,1,0,0:0:0:0:
320,192,8529,1,0,0:0:0:0:
448,192,8611,1,0,0:0:0:0:
64,192,8692,1,0,0:0:0:0:
320,192,8774,128,0,8937:0:0:0:0:
448,192,8774,1,0,0:0:0:0:
192,192,8774,1,0,0:0:0:0:
64,192,8855,1,0,0:0:0:0:
192,192,8937,128,0,9263:0:0:0:0:
448,192,8937,1,0,0:0:0:0:
64,192,9018,1,0,0:0:0:0:
448,192,9100,1,0,0:0:0:0:
320,192,9100,1,0,0:0:0:0:
64,192,9181,1,0,0:0:0:0:
448,192,9263,128,0,9426:0:0:0:0:
320,192,9263,1,0,0:0:0:0:
64,192,9344,1,0,0:0:0:0:
192,192,9426,1,0,0:0:0:0:
320,192,9426,1,0,0:0:0:0:
64,192,9507,1,0,0:0:0:0:
192,192,9589,128,0,9752:0:0:0:0:
320,192,9589,1,0,0:0:0:0:
448,192,9670,1,0,0:0:0:0:
320,192,9752,1,0,0:0:0:0:
64,192,9752,1,0,0:0:0:0:
448,192,9834,1,0,0:0:0:0:
192,192,9915,128,0,10078:0:0:0:0:
320,192,9915,1,0,0:0:0:0:
448,192,9997,1,0,0:0:0:0:
320,192,10078,128,0,10241:0:0:0:0:
64,192,10078,1,0,0:0:0:0:
448,192,10160,1,0,0:0:0:0:
64,192,10241,128,0,10567:0:0:0:0:
192,192,10241,1,0,0:0:0:0:
448,192,10323,1,0,0:0:0:0:
320,192,10404,1,0,0:0:0:0:
192,192,10404,1,0,0:0:0:0:
448,192,10486,1,0,0:0:0:0:
192,192,10567,128,0,10730:0:0:0:0:
320,192,10567,1,0,0:0:0:0:
448,192,10649,1,0,0:0:0:0:
320,192,10730,128,0,10893:0:0:0:0:
64,192,10730,1,0,0:0:0:0:
448,192,10812,1,0,0:0:0:0:
192,192,10893,1,0,0:0:0:0:
64,192,10975,1,0,0:0:0:0:
448,192,11056,128,0,11219:0:0:0:0:
192,192,11056,1,0,0:0:0:0:
320,192,11056,1,0,0:0:0:0:
64,192,11138,1,0,0:0:0:0:
192,192,11219,1,0,0:0:0:0:
64,192,11301,1,0,0:0:0:0:
320,192,11382,128,0,11545:0:0:0:0:
192,192,11382,1,0,0:0:0:0:
448,192,11382,1,0,0:0:0:0:
64,192,11464,1,0,0:0:0:0:
448,192,11545,128,0,11709:0:0:0:0:
192,192,11545,1,0,0:0:0:0:
64,192,11627,1,0,0:0:0:0:
192,192,11709,1,0,0:0:0:0:
320,192,11709,1,0,0:0:0:0:
64,192,11790,1,0,0:0:0:0:
320,192,11872,128,0,12035:0:0:0:0:
192,192,11872,1,0,0:0:0:0:
448,192,11872,1,0,0:0:0:0:
64,192,11953,1,0,0:0:0:0:
192,192,12035,1,0,0:0:0:0:
64,192,12116,1,0,0:0:0:0:
448,192,12198,128,0,12361:0:0:0:0:
192,192,12198,1,0,0:0:0:0:
320,192,12198,1,0,0:0:0:0:
64,192,12279,1,0,0:0:0:0:
192,192,12361,1,0,0:0:0:0:
64,192,12442,1,0,0:0:0:0:
448,192,12524,128,0,12687:0:0:0:0:
192,192,12524,1,0,0:0:0:0:
320,192,12524,1,0,0:0:0:0:
64,192,12605,1,0,0:0:0:0:
320,192,12687,128,0,12850:0:0:0:0:
192,192,12687,1,0,0:0:0:0:
64,192,12768,1,0,0:0:0:0:
192,192,12850,1,0,0:0:0:0:
64,192,12931,1,0,0:0:0:0:
448,192,13013,128,0,13176:0:0:0:0:
192,192,13013,1,0,0:0:0:0:
320,192,13013,1,0,0:0:0:0:
64,192,13094,1,0,0:0:0:0:
192,192,13176,1,0,0:0:0:0:
320,192,13257,1,0,0:0:0:0:
192,192,13339,1,0,0:0:0:0:
64,192,13339,1,0,0:0:0:0:
448,192,13339,1,0,0:0:0:0:
320,192,13420,1,0,0:0:0:0:
448,192,13502,1,0,0:0:0:0:
64,192,13584,1,0,0:0:0:0:
192,192,13665,1,0,0:0:0:0:
448,192,13665,1,0,0:0:0:0:
320,192,13747,1,0,0:0:0:0:
192,192,13828,1,0,0:0:0:0:
64,192,13828,1,0,0:0:0:0:
448,192,13828,1,0,0:0:0:0:
320,192,13910,1,0,0:0:0:0:
192,192,13991,1,0,0:0:0:0:
64,192,14073,1,0,0:0:0:0:
192,192,14154,1,0,0:0:0:0:
320,192,14154,1,0,0:0:0:0:
448,192,14154,1,0,0:0:0:0:
64,192,14236,1,0,0:0:0:0:
192,192,14317,1,0,0:0:0:0:
320,192,14317,1,0,0:0:0:0:
448,192,14399,1,0,0:0:0:0:
320,192,14480,1,0,0:0:0:0:
192,192,14480,1,0,0:0:0:0:
64,192,14480,1,0,0:0:0:0:
448,192,14562,1,0,0:0:0:0:
320,192,14643,1,0,0:0:0:0:
192,192,14725,1,0,0:0:0:0:
64,192,14806,1,0,0:0:0:0:
320,192,14806,1,0,0:0:0:0:
448,192,14806,1,0,0:0:0:0:
192,192,14888,1,0,0:0:0:0:
64,192,14969,1,0,0:0:0:0:
320,192,14969,1,0,0:0:0:0:
448,192,15051,1,0,0:0:0:0:
320,192,15132,1,0,0:0:0:0:
192,192,15132,1,0,0:0:0:0:
64,192,15214,1,0,0:0:0:0:
192,192,15295,1,0,0:0:0:0:
320,192,15295,1,0,0:0:0:0:
448,192,15295,1,0,0:0:0:0:
64,192,15377,1,0,0:0:0:0:
192,192,15459,1,0,0:0:0:0:
320,192,15540,1,0,0:0:0:0:
192,192,15622,1,0,0:0:0:0:
64,192,15622,1,0,0:0:0:0:
448,192,15622,1,0,0:0:0:0:
320,192,15703,1,0,0:0:0:0:
192,192,15785,1,0,0:0:0:0:
64,192,15866,1,0,0:0:0:0:
192,192,15948,1,0,0:0:0:0:
320,192,15948,1,0,0:0:0:0:
448,192,15948,128,0,16111:0:0:0:0:
64,192,16029,1,0,0:0:0:0:
320,192,16111,128,0,16274:0:0:0:0:
192,192,16111,1,0,0:0:0:0:
64,192,16192,1,0,0:0:0:0:
192,192,16274,128,0,16437:0:0:0:0:
448,192,16274,1,0,0:0:0:0:
64,192,16355,1,0,0:0:0:0:
320,192,16437,128,0,16600:0:0:0:0:
448,192,16437,1,0,0:0:0:0:
64,192,16518,1,0,0:0:0:0:
448,192,16600,128,0,17089:0:0:0:0:
192,192,16600,1,0,0:0:0:0:
64,192,16681,1,0,0:0:0:0:
192,192,16763,1,0,0:0:0:0:
320,192,16844,1,0,0:0:0:0:
192,192,16926,1,0,0:0:0:0:
64,192,17007,1,0,0:0:0:0:
192,192,17089,1,0,0:0:0:0:
320,192,17170,1,0,0:0:0:0:
448,192,17252,1,0,0:0:0:0:
320,192,17334,1,0,0:0:0:0:
192,192,17415,1,0,0:0:0:0:
64,192,17497,1,0,0:0:0:0:
320,192,17578,128,0,17741:0:0:0:0:
192,192,17578,1,0,0:0:0:0:
448,192,17660,1,0,0:0:0:0:
192,192,17741,128,0,17904:0:0:0:0:
64,192,17741,1,0,0:0:0:0:
448,192,17823,1,0,0:0:0:0:
64,192,17904,128,0,18067:0:0:0:0:
320,192,17904,1,0,0:0:0:0:
448,192,17986,1,0,0:0:0:0:
192,192,18067,128,0,18230:0:0:0:0:
320,192,18067,1,0,0:0:0:0:
448,192,18149,1,0,0:0:0:0:
320,192,18230,128,0,18393:0:0:0:0:
64,192,18230,1,0,0:0:0:0:
192,192,18312,1,0,0:0:0:0:
448,192,18393,128,0,18556:0:0:0:0:
64,192,18393,1,0,0:0:0:0:
192,192,18475,1,0,0:0:0:0:
64,192,18556,128,0,18719:0:0:0:0:
320,192,18556,1,0,0:0:0:0:
448,192,18638,1,0,0:0:0:0:
192,192,18719,128,0,18882:0:0:0:0:
320,192,18719,1,0,0:0:0:0:
448,192,18801,1,0,0:0:0:0:
320,192,18882,128,0,19045:0:0:0:0:
64,192,18882,1,0,0:0:0:0:
448,192,18964,1,0,0:0:0:0:
192,192,19045,128,0,19209:0:0:0:0:
64,192,19045,1,0,0:0:0:0:
320,192,19127,1,0,0:0:0:0:
448,192,19209,128,0,19698:0:0:0:0:
64,192,19209,1,0,0:0:0:0:
320,192,19290,1,0,0:0:0:0:
192,192,19372,1,0,0:0:0:0:
64,192,19453,1,0,0:0:0:0:
192,192,19535,1,0,0:0:0:0:
320,192,19616,1,0,0:0:0:0:
64,192,19698,1,0,0:0:0:0:
192,192,19779,1,0,0:0:0:0:
320,192,19861,1,0,0:0:0:0:
448,192,19942,1,0,0:0:0:0:
320,192,20024,1,0,0:0:0:0:
64,192,20105,1,0,0:0:0:0:
448,192,20187,128,0,20350:0:0:0:0:
192,192,20187,1,0,0:0:0:0:
64,192,20268,1,0,0:0:0:0:
320,192,20350,128,0,20513:0:0:0:0:
192,192,20350,1,0,0:0:0:0:
64,192,20431,1,0,0:0:0:0:
192,192,20513,128,0,20676:0:0:0:0:
448,192,20513,1,0,0:0:0:0:
64,192,20594,1,0,0:0:0:0:
320,192,20676,128,0,20839:0:0:0:0:
448,192,20676,1,0,0:0:0:0:
64,192,20757,1,0,0:0:0:0:
192,192,20839,128,0,21002:0:0:0:0:
448,192,20839,1,0,0:0:0:0:
320,192,20920,1,0,0:0:0:0:
64,192,21002,128,0,21165:0:0:0:0:
448,192,21002,1,0,0:0:0:0:
320,192,21084,1,0,0:0:0:0:
448,192,21165,128,0,21328:0:0:0:0:
192,192,21165,1,0,0:0:0:0:
64,192,21247,1,0,0:0:0:0:
320,192,21328,128,0,21491:0:0:0:0:
192,192,21328,1,0,0:0:0:0:
64,192,21410,1,0,0:0:0:0:
192,192,21491,128,0,21654:0:0:0:0:
448,192,21491,1,0,0:0:0:0:
64,192,21573,1,0,0:0:0:0:
320,192,21654,128,0,21817:0:0:0:0:
448,192,21654,1,0,0:0:0:0:
64,192,21736,1,0,0:0:0:0:
448,192,21817,128,0,22306:0:0:0:0:
192,192,21817,1,0,0:0:0:0:
64,192,21899,1,0,0:0:0:0:
192,192,21980,1,0,0:0:0:0:
320,192,22062,1,0,0:0:0:0:
64,192,22143,1,0,0:0:0:0:
192,192,22143,1,0,0:0:0:0:
320,192,22225,1,0,0:0:0:0:
192,192,22306,1,0,0:0:0:0:
64,192,22388,1,0,0:0:0:0:
320,192,22469,1,0,0:0:0:0:
448,192,22469,1,0,0:0:0:0:
192,192,22469,1,0,0:0:0:0:
64,192,22551,1,0,0:0:0:0:
192,192,22632,1,0,0:0:0:0:
448,192,22714,1,0,0:0:0:0:
320,192,22795,128,0,22959:0:0:0:0:
192,192,22795,1,0,0:0:0:0:
64,192,22795,1,0,0:0:0:0:
448,192,22877,1,0,0:0:0:0:
192,192,22959,128,0,23122:0:0:0:0:
64,192,22959,1,0,0:0:0:0:
448,192,23040,1,0,0:0:0:0:
64,192,23122,128,0,23285:0:0:0:0:
320,192,23122,1,0,0:0:0:0:
448,192,23203,1,0,0:0:0:0:
192,192,23285,128,0,23448:0:0:0:0:
320,192,23285,1,0,0:0:0:0:
448,192,23366,1,0,0:0:0:0:
320,192,23448,128,0,23611:0:0:0:0:
64,192,23448,1,0,0:0:0:0:
192,192,23529,1,0,0:0:0:0:
448,192,23611,128,0,23774:0:0:0:0:
64,192,23611,1,0,0:0:0:0:
192,192,23692,1,0,0:0:0:0:
64,192,23774,128,0,23937:0:0:0:0:
320,192,23774,1,0,0:0:0:0:
192,192,23855,1,0,0:0:0:0:
448,192,23937,128,0,24100:0:0:0:0:
320,192,23937,1,0,0:0:0:0:
192,192,24018,1,0,0:0:0:0:
64,192,24100,128,0,24263:0:0:0:0:
320,192,24100,1,0,0:0:0:0:
448,192,24181,1,0,0:0:0:0:
192,192,24263,128,0,24915:0:0:0:0:
320,192,24263,1,0,0:0:0:0:
448,192,24344,1,0,0:0:0:0:
320,192,24426,1,0,0:0:0:0:
64,192,24426,1,0,0:0:0:0:
448,192,24507,1,0,0:0:0:0:
320,192,24589,1,0,0:0:0:0:
64,192,24589,1,0,0:0:0:0:
448,192,24670,1,0,0:0:0:0:
320,192,24752,1,0,0:0:0:0:
64,192,24752,1,0,0:0:0:0:
448,192,24834,1,0,0:0:0:0:
320,192,24915,1,0,0:0:0:0:
64,192,24915,1,0,0:0:0:0:
448,192,24997,1,0,0:0:0:0:
320,192,25078,1,0,0:0:0:0:
64,192,25160,1,0,0:0:0:0:
192,192,25241,128,0,25404:0:0:0:0:
320,192,25241,1,0,0:0:0:0:
448,192,25241,1,0,0:0:0:0:
64,192,25323,1,0,0:0:0:0:
320,192,25404,128,0,25567:0:0:0:0:
448,192,25404,1,0,0:0:0:0:
64,192,25486,1,0,0:0:0:0:
192,192,25567,1,0,0:0:0:0:
448,192,25649,1,0,0:0:0:0:
192,192,25730,128,0,25893:0:0:0:0:
320,192,25730,1,0,0:0:0:0:
64,192,25730,1,0,0:0:0:0:
448,192,25812,1,0,0:0:0:0:
320,192,25893,1,0,0:0:0:0:
448,192,25975,1,0,0:0:0:0:
320,192,26056,1,0,0:0:0:0:
192,192,26056,1,0,0:0:0:0:
64,192,26056,1,0,0:0:0:0:
448,192,26138,1,0,0:0:0:0:
320,192,26219,1,0,0:0:0:0:
192,192,26301,1,0,0:0:0:0:
448,192,26382,128,0,26709:0:0:0:0:
64,192,26382,1,0,0:0:0:0:
320,192,26382,1,0,0:0:0:0:
192,192,26464,1,0,0:0:0:0:
64,192,26545,1,0,0:0:0:0:
320,192,26627,1,0,0:0:0:0:
192,192,26709,128,0,26872:0:0:0:0:
64,192,26709,1,0,0:0:0:0:
320,192,26790,1,0,0:0:0:0:
448,192,26872,1,0,0:0:0:0:
64,192,26953,1,0,0:0:0:0:
320,192,27035,128,0,27198:0:0:0:0:
192,192,27035,1,0,0:0:0:0:
448,192,27035,1,0,0:0:0:0:
64,192,27116,1,0,0:0:0:0:
192,192,27198,128,0,27524:0:0:0:0:
448,192,27198,1,0,0:0:0:0:
64,192,27279,1,0,0:0:0:0:
320,192,27361,1,0,0:0:0:0:
448,192,27361,1,0,0:0:0:0:
64,192,27442,1,0,0:0:0:0:
448,192,27524,128,0,27687:0:0:0:0:
320,192,27524,1,0,0:0:0:0:
64,192,27605,1,0,0:0:0:0:
320,192,27687,1,0,0:0:0:0:
192,192,27687,1,0,0:0:0:0:
64,192,27768,1,0,0:0:0:0:
192,192,27850,128,0,28013:0:0:0:0:
448,192,27850,1,0,0:0:0:0:
64,192,27931,1,0,0:0:0:0:
320,192,28013,1,0,0:0:0:0:
448,192,28013,1,0,0:0:0:0:
64,192,28094,1,0,0:0:0:0:
192,192,28176,128,0,28339:0:0:0:0:
320,192,28176,1,0,0:0:0:0:
448,192,28257,1,0,0:0:0:0:
320,192,28339,128,0,28502:0:0:0:0:
64,192,28339,1,0,0:0:0:0:
448,192,28420,1,0,0:0:0:0:
192,192,28502,128,0,28828:0:0:0:0:
64,192,28502,1,0,0:0:0:0:
448,192,28584,1,0,0:0:0:0:
320,192,28665,1,0,0:0:0:0:
64,192,28665,1,0,0:0:0:0:
448,192,28747,1,0,0:0:0:0:
320,192,28828,128,0,28991:0:0:0:0:
64,192,28828,1,0,0:0:0:0:
448,192,28910,1,0,0:0:0:0:
64,192,28991,128,0,29154:0:0:0:0:
192,192,28991,1,0,0:0:0:0:
448,192,29073,1,0,0:0:0:0:
320,192,29154,1,0,0:0:0:0:
448,192,29236,1,0,0:0:0:0:
192,192,29317,128,0,29480:0:0:0:0:
320,192,29317,1,0,0:0:0:0:
64,192,29317,1,0,0:0:0:0:
448,192,29399,1,0,0:0:0:0:
320,192,29480,1,0,0:0:0:0:
448,192,29562,1,0,0:0:0:0:
64,192,29643,128,0,29806:0:0:0:0:
320,192,29643,1,0,0:0:0:0:
192,192,29643,1,0,0:0:0:0:
448,192,29725,1,0,0:0:0:0:
192,192,29806,128,0,30132:0:0:0:0:
320,192,29806,1,0,0:0:0:0:
448,192,29888,1,0,0:0:0:0:
64,192,29969,1,0,0:0:0:0:
320,192,30051,1,0,0:0:0:0:
448,192,30132,128,0,30295:0:0:0:0:
64,192,30132,1,0,0:0:0:0:
320,192,30214,1,0,0:0:0:0:
192,192,30295,1,0,0:0:0:0:
64,192,30377,1,0,0:0:0:0:
320,192,30459,128,0,30622:0:0:0:0:
192,192,30459,1,0,0:0:0:0:
448,192,30459,1,0,0:0:0:0:
64,192,30540,1,0,0:0:0:0:
192,192,30622,1,0,0:0:0:0:
448,192,30703,1,0,0:0:0:0:
192,192,30785,128,0,30948:0:0:0:0:
320,192,30785,1,0,0:0:0:0:
64,192,30785,1,0,0:0:0:0:
448,192,30866,1,0,0:0:0:0:
320,192,30948,1,0,0:0:0:0:
448,192,31029,1,0,0:0:0:0:
64,192,31111,128,0,31600:0:0:0:0:
320,192,31111,1,0,0:0:0:0:
192,192,31111,1,0,0:0:0:0:
448,192,31192,1,0,0:0:0:0:
320,192,31274,1,0,0:0:0:0:
192,192,31274,1,0,0:0:0:0:
448,192,31355,1,0,0:0:0:0:
192,192,31437,1,0,0:0:0:0:
320,192,31518,1,0,0:0:0:0:
192,192,31600,1,0,0:0:0:0:
448,192,31600,128,0,31926:0:0:0:0:
320,192,31681,1,0,0:0:0:0:
192,192,31763,1,0,0:0:0:0:
64,192,31844,1,0,0:0:0:0:
192,192,31926,128,0,32089:0:0:0:0:
320,192,31926,1,0,0:0:0:0:
64,192,32007,1,0,0:0:0:0:
320,192,32089,1,0,0:0:0:0:
448,192,32170,1,0,0:0:0:0:
320,192,32252,128,0,32415:0:0:0:0:
192,192,32252,1,0,0:0:0:0:
64,192,32252,1,0,0:0:0:0:
448,192,32334,1,0,0:0:0:0:
192,192,32415,128,0,32741:0:0:0:0:
64,192,32415,1,0,0:0:0:0:
448,192,32497,1,0,0:0:0:0:
64,192,32578,1,0,0:0:0:0:
320,192,32660,1,0,0:0:0:0:
448,192,32741,128,0,32904:0:0:0:0:
64,192,32741,1,0,0:0:0:0:
320,192,32823,1,0,0:0:0:0:
192,192,32904,1,0,0:0:0:0:
64,192,32904,1,0,0:0:0:0:
320,192,32986,1,0,0:0:0:0:
192,192,33067,128,0,33230:0:0:0:0:
448,192,33067,1,0,0:0:0:0:
64,192,33149,1,0,0:0:0:0:
320,192,33230,1,0,0:0:0:0:
448,192,33230,1,0,0:0:0:0:
64,192,33312,1,0,0:0:0:0:
192,192,33393,128,0,33556:0:0:0:0:
320,192,33393,1,0,0:0:0:0:
448,192,33475,1,0,0:0:0:0:
320,192,33556,128,0,33719:0:0:0:0:
64,192,33556,1,0,0:0:0:0:
448,192,33638,1,0,0:0:0:0:
64,192,33719,128,0,34045:0:0:0:0:
192,192,33719,1,0,0:0:0:0:
448,192,33801,1,0,0:0:0:0:
320,192,33882,1,0,0:0:0:0:
192,192,33882,1,0,0:0:0:0:
448,192,33964,1,0,0:0:0:0:
320,192,34045,1,0,0:0:0:0:
192,192,34045,128,0,34209:0:0:0:0:
448,192,34127,1,0,0:0:0:0:
320,192,34209,128,0,34372:0:0:0:0:
64,192,34209,1,0,0:0:0:0:
448,192,34290,1,0,0:0:0:0:
192,192,34372,1,0,0:0:0:0:
64,192,34453,1,0,0:0:0:0:
448,192,34535,128,0,34698:0:0:0:0:
192,192,34535,1,0,0:0:0:0:
320,192,34535,1,0,0:0:0:0:
64,192,34616,1,0,0:0:0:0:
192,192,34698,1,0,0:0:0:0:
64,192,34779,1,0,0:0:0:0:
320,192,34861,128,0,35024:0:0:0:0:
192,192,34861,1,0,0:0:0:0:
448,192,34861,1,0,0:0:0:0:
64,192,34942,1,0,0:0:0:0:
448,192,35024,128,0,35350:0:0:0:0:
192,192,35024,1,0,0:0:0:0:
64,192,35105,1,0,0:0:0:0:
192,192,35187,1,0,0:0:0:0:
64,192,35268,1,0,0:0:0:0:
320,192,35350,128,0,35513:0:0:0:0:
192,192,35350,1,0,0:0:0:0:
64,192,35431,1,0,0:0:0:0:
192,192,35513,1,0,0:0:0:0:
64,192,35594,1,0,0:0:0:0:
448,192,35676,128,0,35839:0:0:0:0:
192,192,35676,1,0,0:0:0:0:
320,192,35676,1,0,0:0:0:0:
64,192,35757,1,0,0:0:0:0:
192,192,35839,1,0,0:0:0:0:
64,192,35920,1,0,0:0:0:0:
448,192,36002,128,0,36328:0:0:0:0:
192,192,36002,1,0,0:0:0:0:
320,192,36002,1,0,0:0:0:0:
64,192,36084,1,0,0:0:0:0:
192,192,36165,1,0,0:0:0:0:
64,192,36247,1,0,0:0:0:0:
320,192,36328,128,0,36491:0:0:0:0:
192,192,36328,1,0,0:0:0:0:
64,192,36410,1,0,0:0:0:0:
192,192,36491,128,0,36654:0:0:0:0:
448,192,36491,1,0,0:0:0:0:
320,192,36573,1,0,0:0:0:0:
64,192,36654,128,0,36817:0:0:0:0:
448,192,36654,1,0,0:0:0:0:
320,192,36736,1,0,0:0:0:0:
448,192,36817,128,0,36980:0:0:0:0:
192,192,36817,1,0,0:0:0:0:
320,192,36899,1,0,0:0:0:0:
192,192,36980,1,0,0:0:0:0:
64,192,37062,1,0,0:0:0:0:
192,192,37143,128,0,37306:0:0:0:0:
448,192,37143,1,0,0:0:0:0:
320,192,37143,1,0,0:0:0:0:
64,192,37225,1,0,0:0:0:0:
320,192,37306,1,0,0:0:0:0:
64,192,37388,1,0,0:0:0:0:
320,192,37469,128,0,37632:0:0:0:0:
192,192,37469,1,0,0:0:0:0:
448,192,37469,1,0,0:0:0:0:
64,192,37551,1,0,0:0:0:0:
192,192,37632,128,0,37959:0:0:0:0:
448,192,37632,1,0,0:0:0:0:
64,192,37714,1,0,0:0:0:0:
320,192,37795,1,0,0:0:0:0:
448,192,37795,1,0,0:0:0:0:
64,192,37877,1,0,0:0:0:0:
448,192,37959,128,0,38122:0:0:0:0:
320,192,37959,1,0,0:0:0:0:
64,192,38040,1,0,0:0:0:0:
320,192,38122,1,0,0:0:0:0:
192,192,38122,1,0,0:0:0:0:
64,192,38203,1,0,0:0:0:0:
192,192,38285,128,0,38448:0:0:0:0:
320,192,38285,1,0,0:0:0:0:
448,192,38366,1,0,0:0:0:0:
320,192,38448,1,0,0:0:0:0:
64,192,38448,1,0,0:0:0:0:
448,192,38529,1,0,0:0:0:0:
192,192,38611,128,0,38774:0:0:0:0:
320,192,38611,1,0,0:0:0:0:
448,192,38692,1,0,0:0:0:0:
320,192,38774,128,0,38937:0:0:0:0:
64,192,38774,1,0,0:0:0:0:
448,192,38855,1,0,0:0:0:0:
192,192,38937,128,0,39263:0:0:0:0:
64,192,38937,1,0,0:0:0:0:
448,192,39018,1,0,0:0:0:0:
320,192,39100,1,0,0:0:0:0:
64,192,39100,1,0,0:0:0:0:
448,192,39181,1,0,0:0:0:0:
320,192,39263,128,0,39426:0:0:0:0:
64,192,39263,1,0,0:0:0:0:
448,192,39344,1,0,0:0:0:0:
64,192,39426,128,0,39589:0:0:0:0:
192,192,39426,1,0,0:0:0:0:
448,192,39507,1,0,0:0:0:0:
320,192,39589,1,0,0:0:0:0:
448,192,39670,1,0,0:0:0:0:
192,192,39752,128,0,39915:0:0:0:0:
320,192,39752,1,0,0:0:0:0:
64,192,39752,1,0,0:0:0:0:
448,192,39834,1,0,0:0:0:0:
320,192,39915,1,0,0:0:0:0:
448,192,39997,1,0,0:0:0:0:
64,192,40078,128,0,40241:0:0:0:0:
320,192,40078,1,0,0:0:0:0:
192,192,40078,1,0,0:0:0:0:
448,192,40160,1,0,0:0:0:0:
192,192,40241,128,0,40567:0:0:0:0:
320,192,40241,1,0,0:0:0:0:
448,192,40323,1,0,0:0:0:0:
64,192,40404,1,0,0:0:0:0:
320,192,40486,1,0,0:0:0:0:
448,192,40567,128,0,40730:0:0:0:0:
64,192,40567,1,0,0:0:0:0:
320,192,40649,1,0,0:0:0:0:
192,192,40730,1,0,0:0:0:0:
64,192,40812,1,0,0:0:0:0:
320,192,40893,128,0,41056:0:0:0:0:
192,192,40893,1,0,0:0:0:0:
448,192,40893,1,0,0:0:0:0:
64,192,40975,1,0,0:0:0:0:
192,192,41056,1,0,0:0:0:0:
448,192,41138,1,0,0:0:0:0:
192,192,41219,128,0,41382:0:0:0:0:
64,192,41219,1,0,0:0:0:0:
320,192,41219,1,0,0:0:0:0:
448,192,41301,1,0,0:0:0:0:
320,192,41382,1,0,0:0:0:0:
448,192,41464,1,0,0:0:0:0:
64,192,41545,128,0,42035:0:0:0:0:
320,192,41545,1,0,0:0:0:0:
192,192,41545,1,0,0:0:0:0:
448,192,41627,1,0,0:0:0:0:
320,192,41709,1,0,0:0:0:0:
192,192,41709,1,0,0:0:0:0:
448,192,41790,1,0,0:0:0:0:
192,192,41872,1,0,0:0:0:0:
320,192,41953,1,0,0:0:0:0:
448,192,42035,128,0,42198:0:0:0:0:
192,192,42035,1,0,0:0:0:0:
320,192,42116,1,0,0:0:0:0:
192,192,42198,1,0,0:0:0:0:
64,192,42279,1,0,0:0:0:0:
192,192,42361,128,0,42524:0:0:0:0:
320,192,42361,1,0,0:0:0:0:
448,192,42361,1,0,0:0:0:0:
64,192,42442,1,0,0:0:0:0:
320,192,42524,1,0,0:0:0:0:
64,192,42605,1,0,0:0:0:0:
320,192,42687,128,0,42850:0:0:0:0:
192,192,42687,1,0,0:0:0:0:
448,192,42687,1,0,0:0:0:0:
64,192,42768,1,0,0:0:0:0:
192,192,42850,128,0,43176:0:0:0:0:
448,192,42850,1,0,0:0:0:0:
64,192,42931,1,0,0:0:0:0:
448,192,43013,1,0,0:0:0:0:
320,192,43013,1,0,0:0:0:0:
64,192,43094,1,0,0:0:0:0:
448,192,43176,128,0,43339:0:0:0:0:
320,192,43176,1,0,0:0:0:0:
64,192,43257,1,0,0:0:0:0:
192,192,43339,1,0,0:0:0:0:
320,192,43339,1,0,0:0:0:0:
64,192,43420,1,0,0:0:0:0:
192,192,43502,128,0,43665:0:0:0:0:
448,192,43502,1,0,0:0:0:0:
64,192,43584,1,0,0:0:0:0:
320,192,43665,1,0,0:0:0:0:
448,192,43665,1,0,0:0:0:0:
64,192,43747,1,0,0:0:0:0:
192,192,43828,128,0,43991:0:0:0:0:
320,192,43828,1,0,0:0:0:0:
448,192,43910,1,0,0:0:0:0:
320,192,43991,128,0,44154:0:0:0:0:
64,192,43991,1,0,0:0:0:0:
448,192,44073,1,0,0:0:0:0:
64,192,44154,128,0,44480:0:0:0:0:
192,192,44154,1,0,0:0:0:0:
448,192,44236,1,0,0:0:0:0:
320,192,44317,1,0,0:0:0:0:
192,192,44317,1,0,0:0:0:0:
448,192,44399,1,0,0:0:0:0:
192,192,44480,128,0,44643:0:0:0:0:
320,192,44480,1,0,0:0:0:0:
448,192,44562,1,0,0:0:0:0:
320,192,44643,128,0,44806:0:0:0:0:
64,192,44643,1,0,0:0:0:0:
448,192,44725,1,0,0:0:0:0:
192,192,44806,1,0,0:0:0:0:
64,192,44888,1,0,0:0:0:0:
448,192,44969,128,0,45132:0:0:0:0:
192,192,44969,1,0,0:0:0:0:
320,192,44969,1,0,0:0:0:0:
64,192,45051,1,0,0:0:0:0:
192,192,45132,1,0,0:0:0:0:
64,192,45214,1,0,0:0:0:0:
320,192,45295,128,0,45459:0:0:0:0:
192,192,45295,1,0,0:0:0:0:
448,192,45295,1,0,0:0:0:0:
64,192,45377,1,0,0:0:0:0:
448,192,45459,128,0,45785:0:0:0:0:
192,192,45459,1,0,0:0:0:0:
64,192,45540,1,0,0:0:0:0:
192,192,45622,1,0,0:0:0:0:
64,192,45703,1,0,0:0:0:0:
320,192,45785,128,0,45948:0:0:0:0:
192,192,45785,1,0,0:0:0:0:
64,192,45866,1,0,0:0:0:0:
192,192,45948,1,0,0:0:0:0:
64,192,46029,1,0,0:0:0:0:
448,192,46111,128,0,46274:0:0:0:0:
192,192,46111,1,0,0:0:0:0:
320,192,46111,1,0,0:0:0:0:
64,192,46192,1,0,0:0:0:0:
192,192,46274,1,0,0:0:0:0:
64,192,46355,1,0,0:0:0:0:
448,192,46437,128,0,46600:0:0:0:0:
192,192,46437,1,0,0:0:0:0:
320,192,46437,1,0,0:0:0:0:
64,192,46518,1,0,0:0:0:0:
320,192,46600,128,0,46763:0:0:0:0:
192,192,46600,1,0,0:0:0:0:
448,192,46681,1,0,0:0:0:0:
64,192,46763,128,0,46926:0:0:0:0:
192,192,46763,1,0,0:0:0:0:
320,192,46844,1,0,0:0:0:0:
448,192,46926,128,0,47089:0:0:0:0:
192,192,46926,1,0,0:0:0:0:
320,192,47007,1,0,0:0:0:0:
192,192,47089,1,0,0:0:0:0:
64,192,47170,1,0,0:0:0:0:
192,192,47252,1,0,0:0:0:0:
320,192,47252,1,0,0:0:0:0:
448,192,47252,1,0,0:0:0:0:
64,192,47334,1,0,0:0:0:0:
192,192,47415,1,0,0:0:0:0:
320,192,47497,1,0,0:0:0:0:
448,192,47578,1,0,0:0:0:0:
192,192,47578,1,0,0:0:0:0:
64,192,47660,1,0,0:0:0:0:
192,192,47741,1,0,0:0:0:0:
448,192,47741,1,0,0:0:0:0:
320,192,47741,1,0,0:0:0:0:
64,192,47823,1,0,0:0:0:0:
192,192,47904,1,0,0:0:0:0:
320,192,47986,1,0,0:0:0:0:
192,192,48067,1,0,0:0:0:0:
64,192,48067,1,0,0:0:0:0:
448,192,48067,1,0,0:0:0:0:
320,192,48149,1,0,0:0:0:0:
64,192,48230,1,0,0:0:0:0:
448,192,48230,1,0,0:0:0:0:
192,192,48312,1,0,0:0:0:0:
320,192,48393,1,0,0:0:0:0:
448,192,48393,1,0,0:0:0:0:
64,192,48393,1,0,0:0:0:0:
192,192,48475,1,0,0:0:0:0:
320,192,48556,1,0,0:0:0:0:
448,192,48638,1,0,0:0:0:0:
320,192,48719,1,0,0:0:0:0:
192,192,48719,1,0,0:0:0:0:
64,192,48719,1,0,0:0:0:0:
448,192,48801,1,0,0:0:0:0:
320,192,48882,1,0,0:0:0:0:
64,192,48882,1,0,0:0:0:0:
192,192,48964,1,0,0:0:0:0:
320,192,49045,1,0,0:0:0:0:
448,192,49045,1,0,0:0:0:0:
64,192,49127,1,0,0:0:0:0:
448,192,49209,1,0,0:0:0:0:
320,192,49209,1,0,0:0:0:0:
192,192,49209,1,0,0:0:0:0:
64,192,49290,1,0,0:0:0:0:
192,192,49372,1,0,0:0:0:0:
320,192,49453,1,0,0:0:0:0:
192,192,49535,1,0,0:0:0:0:
64,192,49535,1,0,0:0:0:0:
448,192,49535,1,0,0:0:0:0:
320,192,49616,1,0,0:0:0:0:
192,192,49698,1,0,0:0:0:0:
64,192,49779,1,0,0:0:0:0:
448,192,49861,128,0,50024:0:0:0:0:
320,192,49861,1,0,0:0:0:0:
192,192,49861,1,0,0:0:0:0:
64,192,49942,1,0,0:0:0:0:
320,192,50024,128,0,50187:0:0:0:0:
192,192,50024,1,0,0:0:0:0:
64,192,50105,1,0,0:0:0:0:
192,192,50187,128,0,50350:0:0:0:0:
448,192,50187,1,0,0:0:0:0:
64,192,50268,1,0,0:0:0:0:
320,192,50350,128,0,50513:0:0:0:0:
448,192,50350,1,0,0:0:0:0:
64,192,50431,1,0,0:0:0:0:
448,192,50513,128,0,51002:0:0:0:0:
192,192,50513,1,0,0:0:0:0:
64,192,50594,1,0,0:0:0:0:
192,192,50676,1,0,0:0:0:0:
320,192,50757,1,0,0:0:0:0:
192,192,50839,1,0,0:0:0:0:
64,192,50920,1,0,0:0:0:0:
320,192,51002,1,0,0:0:0:0:
192,192,51084,1,0,0:0:0:0:
64,192,51165,1,0,0:0:0:0:
192,192,51247,1,0,0:0:0:0:
320,192,51328,1,0,0:0:0:0:
448,192,51410,1,0,0:0:0:0:
320,192,51491,128,0,51654:0:0:0:0:
64,192,51491,1,0,0:0:0:0:
448,192,51573,1,0,0:0:0:0:
192,192,51654,128,0,51817:0:0:0:0:
64,192,51654,1,0,0:0:0:0:
448,192,51736,1,0,0:0:0:0:
64,192,51817,128,0,51980:0:0:0:0:
320,192,51817,1,0,0:0:0:0:
448,192,51899,1,0,0:0:0:0:
192,192,51980,128,0,52143:0:0:0:0:
320,192,51980,1,0,0:0:0:0:
448,192,52062,1,0,0:0:0:0:
320,192,52143,128,0,52306:0:0:0:0:
64,192,52143,1,0,0:0:0:0:
192,192,52225,1,0,0:0:0:0:
448,192,52306,128,0,52469:0:0:0:0:
64,192,52306,1,0,0:0:0:0:
192,192,52388,1,0,0:0:0:0:
64,192,52469,128,0,52632:0:0:0:0:
320,192,52469,1,0,0:0:0:0:
448,192,52551,1,0,0:0:0:0:
192,192,52632,128,0,52795:0:0:0:0:
320,192,52632,1,0,0:0:0:0:
448,192,52714,1,0,0:0:0:0:
320,192,52795,128,0,52959:0:0:0:0:
64,192,52795,1,0,0:0:0:0:
448,192,52877,1,0,0:0:0:0:
64,192,52959,1,0,0:0:0:0:
192,192,52959,128,0,53122:0:0:0:0:
320,192,53040,1,0,0:0:0:0:
448,192,53122,128,0,53611:0:0:0:0:
64,192,53122,1,0,0:0:0:0:
320,192,53203,1,0,0:0:0:0:
192,192,53285,1,0,0:0:0:0:
64,192,53366,1,0,0:0:0:0:
192,192,53448,1,0,0:0:0:0:
320,192,53529,1,0,0:0:0:0:
64,192,53611,1,0,0:0:0:0:
192,192,53692,1,0,0:0:0:0:
320,192,53774,1,0,0:0:0:0:
448,192,53855,1,0,0:0:0:0:
320,192,53937,1,0,0:0:0:0:
64,192,54018,1,0,0:0:0:0:
448,192,54100,128,0,54263:0:0:0:0:
192,192,54100,1,0,0:0:0:0:
64,192,54181,1,0,0:0:0:0:
320,192,54263,128,0,54426:0:0:0:0:
192,192,54263,1,0,0:0:0:0:
64,192,54344,1,0,0:0:0:0:
192,192,54426,128,0,54589:0:0:0:0:
448,192,54426,1,0,0:0:0:0:
64,192,54507,1,0,0:0:0:0:
320,192,54589,128,0,54752:0:0:0:0:
448,192,54589,1,0,0:0:0:0:
64,192,54670,1,0,0:0:0:0:
192,192,54752,128,0,54915:0:0:0:0:
448,192,54752,1,0,0:0:0:0:
320,192,54834,1,0,0:0:0:0:
64,192,54915,128,0,55078:0:0:0:0:
448,192,54915,1,0,0:0:0:0:
320,192,54997,1,0,0:0:0:0:
448,192,55078,128,0,55241:0:0:0:0:
192,192,55078,1,0,0:0:0:0:
64,192,55160,1,0,0:0:0:0:
320,192,55241,128,0,55404:0:0:0:0:
192,192,55241,1,0,0:0:0:0:
64,192,55323,1,0,0:0:0:0:
192,192,55404,128,0,55567:0:0:0:0:
448,192,55404,1,0,0:0:0:0:
64,192,55486,1,0,0:0:0:0:
320,192,55567,128,0,55730:0:0:0:0:
448,192,55567,1,0,0:0:0:0:
64,192,55649,1,0,0:0:0:0:
448,192,55730,128,0,56219:0:0:0:0:
192,192,55730,1,0,0:0:0:0:
64,192,55812,1,0,0:0:0:0:
192,192,55893,1,0,0:0:0:0:
320,192,55975,1,0,0:0:0:0:
192,192,56056,1,0,0:0:0:0:
64,192,56138,1,0,0:0:0:0:
192,192,56219,1,0,0:0:0:0:
320,192,56301,1,0,0:0:0:0:
448,192,56382,1,0,0:0:0:0:
64,192,56382,1,0,0:0:0:0:
192,192,56382,1,0,0:0:0:0:
320,192,56464,1,0,0:0:0:0:
192,192,56545,1,0,0:0:0:0:
64,192,56627,1,0,0:0:0:0:
320,192,56709,128,0,56872:0:0:0:0:
192,192,56709,1,0,0:0:0:0:
448,192,56790,1,0,0:0:0:0:
192,192,56872,128,0,57035:0:0:0:0:
64,192,56872,1,0,0:0:0:0:
448,192,56953,1,0,0:0:0:0:
64,192,57035,128,0,57198:0:0:0:0:
320,192,57035,1,0,0:0:0:0:
448,192,57116,1,0,0:0:0:0:
192,192,57198,128,0,57361:0:0:0:0:
320,192,57198,1,0,0:0:0:0:
448,192,57279,1,0,0:0:0:0:
320,192,57361,128,0,57524:0:0:0:0:
64,192,57361,1,0,0:0:0:0:
192,192,57442,1,0,0:0:0:0:
448,192,57524,128,0,57687:0:0:0:0:
64,192,57524,1,0,0:0:0:0:
192,192,57605,1,0,0:0:0:0:
64,192,57687,128,0,57850:0:0:0:0:
320,192,57687,1,0,0:0:0:0:
192,192,57768,1,0,0:0:0:0:
448,192,57850,128,0,58013:0:0:0:0:
320,192,57850,1,0,0:0:0:0:
192,192,57931,1,0,0:0:0:0:
64,192,58013,128,0,58176:0:0:0:0:
320,192,58013,1,0,0:0:0:0:
448,192,58094,1,0,0:0:0:0:
192,192,58176,128,0,58828:0:0:0:0:
320,192,58176,1,0,0:0:0:0:
448,192,58257,1,0,0:0:0:0:
320,192,58339,1,0,0:0:0:0:
64,192,58339,1,0,0:0:0:0:
448,192,58420,1,0,0:0:0:0:
320,192,58502,1,0,0:0:0:0:
64,192,58502,1,0,0:0:0:0:
448,192,58584,1,0,0:0:0:0:
320,192,58665,1,0,0:0:0:0:
64,192,58665,1,0,0:0:0:0:
448,192,58747,1,0,0:0:0:0:
320,192,58828,1,0,0:0:0:0:
64,192,58828,1,0,0:0:0:0:
448,192,58910,1,0,0:0:0:0:
320,192,58991,1,0,0:0:0:0:
64,192,59073,1,0,0:0:0:0:
192,192,59154,128,0,59317:0:0:0:0:
320,192,59154,1,0,0:0:0:0:
448,192,59154,1,0,0:0:0:0:
64,192,59236,1,0,0:0:0:0:
320,192,59317,128,0,59480:0:0:0:0:
448,192,59317,1,0,0:0:0:0:
64,192,59399,1,0,0:0:0:0:
192,192,59480,1,0,0:0:0:0:
448,192,59562,1,0,0:0:0:0:
192,192,59643,128,0,59806:0:0:0:0:
320,192,59643,1,0,0:0:0:0:
64,192,59643,1,0,0:0:0:0:
448,192,59725,1,0,0:0:0:0:
320,192,59806,1,0,0:0:0:0:
64,192,59888,1,0,0:0:0:0:
192,192,59969,1,0,0:0:0:0:
448,192,59969,1,0,0:0:0:0:
320,192,59969,1,0,0:0:0:0:
64,192,60051,1,0,0:0:0:0:
192,192,60132,1,0,0:0:0:0:
320,192,60214,1,0,0:0:0:0:
192,192,60295,1,0,0:0:0:0:
64,192,60295,1,0,0:0:0:0:
448,192,60295,1,0,0:0:0:0:
320,192,60377,1,0,0:0:0:0:
448,192,60459,1,0,0:0:0:0:
192,192,60459,1,0,0:0:0:0:
64,192,60540,1,0,0:0:0:0:
192,192,60622,1,0,0:0:0:0:
320,192,60622,1,0,0:0:0:0:
448,192,60622,1,0,0:0:0:0:
64,192,60703,1,0,0:0:0:0:
320,192,60785,1,0,0:0:0:0:
192,192,60785,1,0,0:0:0:0:
448,192,60866,1,0,0:0:0:0:
320,192,60948,1,0,0:0:0:0:
192,192,60948,1,0,0:0:0:0:
64,192,60948,1,0,0:0:0:0:
448,192,61029,1,0,0:0:0:0:
64,192,61111,1,0,0:0:0:0:
320,192,61111,1,0,0:0:0:0:
192,192,61192,1,0,0:0:0:0:
448,192,61274,1,0,0:0:0:0:
320,192,61274,1,0,0:0:0:0:
64,192,61355,1,0,0:0:0:0:
448,192,61437,1,0,0:0:0:0:
320,192,61437,1,0,0:0:0:0:
192,192,61437,1,0,0:0:0:0:
64,192,61518,1,0,0:0:0:0:
192,192,61600,1,0,0:0:0:0:
320,192,61681,1,0,0:0:0:0:
192,192,61763,1,0,0:0:0:0:
448,192,61763,1,0,0:0:0:0:
64,192,61844,1,0,0:0:0:0:
192,192,61926,1,0,0:0:0:0:
320,192,61926,1,0,0:0:0:0:
448,192,61926,1,0,0:0:0:0:
64,192,62007,1,0,0:0:0:0:
192,192,62089,1,0,0:0:0:0:
320,192,62170,1,0,0:0:0:0:
192,192,62252,1,0,0:0:0:0:
64,192,62252,1,0,0:0:0:0:
448,192,62252,1,0,0:0:0:0:
320,192,62578,1,0,0:0:0:0:
192,192,62904,1,0,0:0:0:0:
64,192,62904,1,0,0:0:0:0:
448,192,62904,128,0,63230:0:0:0:0:
320,192,62986,1,0,0:0:0:0:
192,192,63067,1,0,0:0:0:0:
64,192,63149,1,0,0:0:0:0:
192,192,63230,128,0,63393:0:0:0:0:
320,192,63230,1,0,0:0:0:0:
64,192,63312,1,0,0:0:0:0:
448,192,63393,1,0,0:0:0:0:
64,192,63475,1,0,0:0:0:0:
320,192,63556,128,0,63719:0:0:0:0:
192,192,63556,1,0,0:0:0:0:
448,192,63556,1,0,0:0:0:0:
64,192,63638,1,0,0:0:0:0:
192,192,63719,128,0,64045:0:0:0:0:
448,192,63719,1,0,0:0:0:0:
64,192,63801,1,0,0:0:0:0:
320,192,63882,1,0,0:0:0:0:
448,192,63882,1,0,0:0:0:0:
64,192,63964,1,0,0:0:0:0:
448,192,64045,128,0,64209:0:0:0:0:
320,192,64045,1,0,0:0:0:0:
64,192,64127,1,0,0:0:0:0:
192,192,64209,1,0,0:0:0:0:
320,192,64209,1,0,0:0:0:0:
64,192,64290,1,0,0:0:0:0:
192,192,64372,128,0,64535:0:0:0:0:
320,192,64372,1,0,0:0:0:0:
448,192,64453,1,0,0:0:0:0:
320,192,64535,1,0,0:0:0:0:
64,192,64535,1,0,0:0:0:0:
448,192,64616,1,0,0:0:0:0:
192,192,64698,128,0,64861:0:0:0:0:
320,192,64698,1,0,0:0:0:0:
448,192,64779,1,0,0:0:0:0:
320,192,64861,128,0,65024:0:0:0:0:
64,192,64861,1,0,0:0:0:0:
448,192,64942,1,0,0:0:0:0:
192,192,65024,128,0,65350:0:0:0:0:
64,192,65024,1,0,0:0:0:0:
448,192,65105,1,0,0:0:0:0:
64,192,65187,1,0,0:0:0:0:
320,192,65187,1,0,0:0:0:0:
448,192,65268,1,0,0:0:0:0:
320,192,65350,128,0,65513:0:0:0:0:
64,192,65350,1,0,0:0:0:0:
448,192,65431,1,0,0:0:0:0:
64,192,65513,128,0,65676:0:0:0:0:
192,192,65513,1,0,0:0:0:0:
448,192,65594,1,0,0:0:0:0:
320,192,65676,1,0,0:0:0:0:
448,192,65757,1,0,0:0:0:0:
192,192,65839,128,0,66002:0:0:0:0:
320,192,65839,1,0,0:0:0:0:
64,192,65839,1,0,0:0:0:0:
448,192,65920,1,0,0:0:0:0:
320,192,66002,1,0,0:0:0:0:
448,192,66084,1,0,0:0:0:0:
64,192,66165,128,0,66328:0:0:0:0:
320,192,66165,1,0,0:0:0:0:
192,192,66165,1,0,0:0:0:0:
448,192,66247,1,0,0:0:0:0:
192,192,66328,128,0,66654:0:0:0:0:
320,192,66328,1,0,0:0:0:0:
448,192,66410,1,0,0:0:0:0:
64,192,66491,1,0,0:0:0:0:
320,192,66573,1,0,0:0:0:0:
448,192,66654,128,0,66817:0:0:0:0:
64,192,66654,1,0,0:0:0:0:
320,192,66736,1,0,0:0:0:0:
192,192,66817,1,0,0:0:0:0:
64,192,66899,1,0,0:0:0:0:
320,192,66980,128,0,67143:0:0:0:0:
192,192,66980,1,0,0:0:0:0:
448,192,66980,1,0,0:0:0:0:
64,192,67062,1,0,0:0:0:0:
192,192,67143,1,0,0:0:0:0:
448,192,67225,1,0,0:0:0:0:
192,192,67306,128,0,67469:0:0:0:0:
320,192,67306,1,0,0:0:0:0:
64,192,67306,1,0,0:0:0:0:
448,192,67388,1,0,0:0:0:0:
320,192,67469,1,0,0:0:0:0:
448,192,67551,1,0,0:0:0:0:
64,192,67632,128,0,68122:0:0:0:0:
320,192,67632,1,0,0:0:0:0:
192,192,67632,1,0,0:0:0:0:
448,192,67714,1,0,0:0:0:0:
320,192,67795,1,0,0:0:0:0:
192,192,67795,1,0,0:0:0:0:
448,192,67877,1,0,0:0:0:0:
192,192,67959,1,0,0:0:0:0:
320,192,68040,1,0,0:0:0:0:
448,192,68122,128,0,68448:0:0:0:0:
192,192,68122,1,0,0:0:0:0:
320,192,68203,1,0,0:0:0:0:
192,192,68285,1,0,0:0:0:0:
64,192,68366,1,0,0:0:0:0:
192,192,68448,128,0,68611:0:0:0:0:
320,192,68448,1,0,0:0:0:0:
64,192,68529,1,0,0:0:0:0:
320,192,68611,1,0,0:0:0:0:
64,192,68692,1,0,0:0:0:0:
320,192,68774,128,0,68937:0:0:0:0:
192,192,68774,1,0,0:0:0:0:
448,192,68774,1,0,0:0:0:0:
64,192,68855,1,0,0:0:0:0:
192,192,68937,128,0,69263:0:0:0:0:
448,192,68937,1,0,0:0:0:0:
64,192,69018,1,0,0:0:0:0:
320,192,69100,1,0,0:0:0:0:
448,192,69100,1,0,0:0:0:0:
64,192,69181,1,0,0:0:0:0:
448,192,69263,128,0,69426:0:0:0:0:
320,192,69263,1,0,0:0:0:0:
64,192,69344,1,0,0:0:0:0:
192,192,69426,1,0,0:0:0:0:
320,192,69426,1,0,0:0:0:0:
64,192,69507,1,0,0:0:0:0:
192,192,69589,128,0,69752:0:0:0:0:
320,192,69589,1,0,0:0:0:0:
448,192,69670,1,0,0:0:0:0:
320,192,69752,1,0,0:0:0:0:
64,192,69752,1,0,0:0:0:0:
448,192,69834,1,0,0:0:0:0:
192,192,69915,128,0,70078:0:0:0:0:
320,192,69915,1,0,0:0:0:0:
448,192,69997,1,0,0:0:0:0:
320,192,70078,128,0,70241:0:0:0:0:
64,192,70078,1,0,0:0:0:0:
448,192,70160,1,0,0:0:0:0:
64,192,70241,128,0,70567:0:0:0:0:
192,192,70241,1,0,0:0:0:0:
448,192,70323,1,0,0:0:0:0:
320,192,70404,1,0,0:0:0:0:
192,192,70404,1,0,0:0:0:0:
448,192,70486,1,0,0:0:0:0:
192,192,70567,128,0,70730:0:0:0:0:
320,192,70567,1,0,0:0:0:0:
448,192,70649,1,0,0:0:0:0:
320,192,70730,128,0,70893:0:0:0:0:
64,192,70730,1,0,0:0:0:0:
448,192,70812,1,0,0:0:0:0:
192,192,70893,1,0,0:0:0:0:
64,192,70975,1,0,0:0:0:0:
448,192,71056,128,0,71219:0:0:0:0:
320,192,71056,1,0,0:0:0:0:
192,192,71056,1,0,0:0:0:0:
64,192,71138,1,0,0:0:0:0:
192,192,71219,1,0,0:0:0:0:
64,192,71301,1,0,0:0:0:0:
320,192,71382,128,0,71545:0:0:0:0:
192,192,71382,1,0,0:0:0:0:
448,192,71382,1,0,0:0:0:0:
64,192,71464,1,0,0:0:0:0:
448,192,71545,128,0,71872:0:0:0:0:
192,192,71545,1,0,0:0:0:0:
64,192,71627,1,0,0:0:0:0:
192,192,71709,1,0,0:0:0:0:
64,192,71790,1,0,0:0:0:0:
320,192,71872,128,0,72035:0:0:0:0:
192,192,71872,1,0,0:0:0:0:
64,192,71953,1,0,0:0:0:0:
192,192,72035,1,0,0:0:0:0:
64,192,72116,1,0,0:0:0:0:
448,192,72198,128,0,72361:0:0:0:0:
192,192,72198,1,0,0:0:0:0:
320,192,72198,1,0,0:0:0:0:
448,192,72524,128,0,72850:0:0:0:0:
320,192,72524,1,0,0:0:0:0:
64,192,72524,1,0,0:0:0:0:
192,192,72524,1,0,0:0:0:0:
64,192,72687,1,0,0:0:0:0:
320,192,72850,128,0,73013:0:0:0:0:
192,192,72850,1,0,0:0:0:0:
64,192,72850,1,0,0:0:0:0:
192,192,73013,128,0,73176:0:0:0:0:
64,192,73013,1,0,0:0:0:0:
448,192,73013,1,0,0:0:0:0:
64,192,73339,128,0,73828:0:0:0:0:
320,192,73339,1,0,0:0:0:0:
448,192,73339,1,0,0:0:0:0:
192,192,73420,1,0,0:0:0:0:
320,192,73502,1,0,0:0:0:0:
448,192,73584,1,0,0:0:0:0:
320,192,73665,1,0,0:0:0:0:
192,192,73665,1,0,0:0:0:0:
448,192,73747,1,0,0:0:0:0:
192,192,73828,1,0,0:0:0:0:
320,192,73910,1,0,0:0:0:0:
448,192,73991,1,0,0:0:0:0:
64,192,73991,1,0,0:0:0:0:
192,192,73991,128,0,74969:0:0:0:0:
320,192,74073,1,0,0:0:0:0:
448,192,74154,1,0,0:0:0:0:
320,192,74236,1,0,0:0:0:0:
64,192,74317,1,0,0:0:0:0:
448,192,74317,1,0,0:0:0:0:
320,192,74399,1,0,0:0:0:0:
64,192,74480,1,0,0:0:0:0:
320,192,74562,1,0,0:0:0:0:
448,192,74643,1,0,0:0:0:0:
64,192,74643,1,0,0:0:0:0:
320,192,74725,1,0,0:0:0:0:
448,192,74806,1,0,0:0:0:0:
64,192,74888,1,0,0:0:0:0:
320,192,74969,128,0,75132:0:0:0:0:
448,192,74969,1,0,0:0:0:0:
64,192,75051,1,0,0:0:0:0:
192,192,75132,1,0,0:0:0:0:
64,192,75214,1,0,0:0:0:0:
448,192,75295,128,0,75459:0:0:0:0:
192,192,75295,1,0,0:0:0:0:
320,192,75295,1,0,0:0:0:0:
64,192,75377,1,0,0:0:0:0:
320,192,75459,1,0,0:0:0:0:
192,192,75540,1,0,0:0:0:0:
320,192,75622,128,0,75785:0:0:0:0:
448,192,75622,1,0,0:0:0:0:
64,192,75622,1,0,0:0:0:0:
192,192,75703,1,0,0:0:0:0:
64,192,75785,1,0,0:0:0:0:
448,192,75785,1,0,0:0:0:0:
192,192,75866,1,0,0:0:0:0:
64,192,75948,128,0,76437:0:0:0:0:
320,192,75948,1,0,0:0:0:0:
448,192,75948,1,0,0:0:0:0:
192,192,76029,1,0,0:0:0:0:
320,192,76111,1,0,0:0:0:0:
448,192,76192,1,0,0:0:0:0:
320,192,76274,1,0,0:0:0:0:
192,192,76274,1,0,0:0:0:0:
448,192,76355,1,0,0:0:0:0:
320,192,76437,1,0,0:0:0:0:
192,192,76518,1,0,0:0:0:0:
448,192,76600,128,0,76926:0:0:0:0:
64,192,76600,1,0,0:0:0:0:
320,192,76600,1,0,0:0:0:0:
192,192,76681,1,0,0:0:0:0:
64,192,76763,1,0,0:0:0:0:
192,192,76844,1,0,0:0:0:0:
64,192,76926,1,0,0:0:0:0:
320,192,76926,1,0,0:0:0:0:
192,192,77007,1,0,0:0:0:0:
64,192,77089,128,0,77415:0:0:0:0:
320,192,77089,1,0,0:0:0:0:
448,192,77089,1,0,0:0:0:0:
192,192,77170,1,0,0:0:0:0:
320,192,77252,1,0,0:0:0:0:
448,192,77334,1,0,0:0:0:0:
320,192,77415,1,0,0:0:0:0:
192,192,77415,1,0,0:0:0:0:
448,192,77497,1,0,0:0:0:0:
192,192,77578,128,0,77741:0:0:0:0:
320,192,77578,1,0,0:0:0:0:
448,192,77660,1,0,0:0:0:0:
320,192,77741,1,0,0:0:0:0:
64,192,77741,1,0,0:0:0:0:
448,192,77823,1,0,0:0:0:0:
320,192,77904,128,0,78067:0:0:0:0:
192,192,77904,1,0,0:0:0:0:
64,192,77986,1,0,0:0:0:0:
192,192,78067,1,0,0:0:0:0:
448,192,78067,1,0,0:0:0:0:
64,192,78149,1,0,0:0:0:0:
192,192,78230,128,0,78393:0:0:0:0:
320,192,78230,1,0,0:0:0:0:
448,192,78230,1,0,0:0:0:0:
64,192,78312,1,0,0:0:0:0:
320,192,78393,1,0,0:0:0:0:
448,192,78393,1,0,0:0:0:0:
64,192,78475,1,0,0:0:0:0:
320,192,78556,128,0,78882:0:0:0:0:
192,192,78556,1,0,0:0:0:0:
448,192,78556,1,0,0:0:0:0:
64,192,78638,1,0,0:0:0:0:
192,192,78719,1,0,0:0:0:0:
448,192,78801,1,0,0:0:0:0:
192,192,78882,1,0,0:0:0:0:
64,192,78882,1,0,0:0:0:0:
448,192,78964,1,0,0:0:0:0:
320,192,79045,1,0,0:0:0:0:
192,192,79127,1,0,0:0:0:0:
448,192,79209,128,0,80187:0:0:0:0:
64,192,79209,1,0,0:0:0:0:
320,192,79209,1,0,0:0:0:0:
192,192,79290,1,0,0:0:0:0:
64,192,79372,1,0,0:0:0:0:
192,192,79453,1,0,0:0:0:0:
64,192,79535,1,0,0:0:0:0:
320,192,79535,1,0,0:0:0:0:
192,192,79616,1,0,0:0:0:0:
320,192,79698,1,0,0:0:0:0:
192,192,79779,1,0,0:0:0:0:
64,192,79861,1,0,0:0:0:0:
320,192,79861,1,0,0:0:0:0:
192,192,79942,1,0,0:0:0:0:
64,192,80024,1,0,0:0:0:0:
192,192,80105,1,0,0:0:0:0:
320,192,80187,128,0,80350:0:0:0:0:
64,192,80187,1,0,0:0:0:0:
192,192,80268,1,0,0:0:0:0:
64,192,80350,1,0,0:0:0:0:
448,192,80431,1,0,0:0:0:0:
192,192,80513,128,0,80676:0:0:0:0:
320,192,80513,1,0,0:0:0:0:
64,192,80513,1,0,0:0:0:0:
448,192,80594,1,0,0:0:0:0:
320,192,80676,1,0,0:0:0:0:
448,192,80757,1,0,0:0:0:0:
320,192,80839,128,0,81002:0:0:0:0:
192,192,80839,1,0,0:0:0:0:
64,192,80839,1,0,0:0:0:0:
448,192,80920,1,0,0:0:0:0:
192,192,81002,1,0,0:0:0:0:
64,192,81002,1,0,0:0:0:0:
448,192,81084,1,0,0:0:0:0:
64,192,81165,128,0,81328:0:0:0:0:
320,192,81165,1,0,0:0:0:0:
192,192,81165,1,0,0:0:0:0:
448,192,81247,1,0,0:0:0:0:
320,192,81328,1,0,0:0:0:0:
192,192,81410,1,0,0:0:0:0:
64,192,81491,1,0,0:0:0:0:
448,192,81491,1,0,0:0:0:0:
320,192,81573,1,0,0:0:0:0:
192,192,81654,128,0,81817:0:0:0:0:
64,192,81654,1,0,0:0:0:0:
320,192,81736,1,0,0:0:0:0:
448,192,81817,1,0,0:0:0:0:
64,192,81817,1,0,0:0:0:0:
320,192,81899,1,0,0:0:0:0:
192,192,81980,1,0,0:0:0:0:
448,192,81980,1,0,0:0:0:0:
64,192,82062,1,0,0:0:0:0:
192,192,82143,1,0,0:0:0:0:
448,192,82143,1,0,0:0:0:0:
320,192,82143,128,0,82306:0:0:0:0:
64,192,82225,1,0,0:0:0:0:
192,192,82306,1,0,0:0:0:0:
448,192,82306,1,0,0:0:0:0:
64,192,82388,1,0,0:0:0:0:
192,192,82469,1,0,0:0:0:0:
320,192,82551,1,0,0:0:0:0:
448,192,82632,128,0,82795:0:0:0:0:
192,192,82632,1,0,0:0:0:0:
64,192,82632,1,0,0:0:0:0:
320,192,82714,1,0,0:0:0:0:
192,192,82795,1,0,0:0:0:0:
64,192,82877,1,0,0:0:0:0:
320,192,82959,128,0,83122:0:0:0:0:
192,192,82959,1,0,0:0:0:0:
448,192,82959,1,0,0:0:0:0:
64,192,83040,1,0,0:0:0:0:
192,192,83122,1,0,0:0:0:0:
64,192,83203,1,0,0:0:0:0:
320,192,83285,128,0,83448:0:0:0:0:
192,192,83285,1,0,0:0:0:0:
448,192,83285,1,0,0:0:0:0:
64,192,83366,1,0,0:0:0:0:
448,192,83448,128,0,83611:0:0:0:0:
192,192,83448,1,0,0:0:0:0:
64,192,83529,1,0,0:0:0:0:
192,192,83611,1,0,0:0:0:0:
320,192,83692,1,0,0:0:0:0:
64,192,83774,1,0,0:0:0:0:
192,192,83774,1,0,0:0:0:0:
448,192,83774,1,0,0:0:0:0:
320,192,83855,1,0,0:0:0:0:
64,192,83937,1,0,0:0:0:0:
448,192,83937,1,0,0:0:0:0:
192,192,84018,1,0,0:0:0:0:
64,192,84100,1,0,0:0:0:0:
320,192,84100,1,0,0:0:0:0:
448,192,84100,1,0,0:0:0:0:
192,192,84181,1,0,0:0:0:0:
320,192,84263,1,0,0:0:0:0:
448,192,84263,1,0,0:0:0:0:
64,192,84344,1,0,0:0:0:0:
192,192,84426,1,0,0:0:0:0:
320,192,84426,1,0,0:0:0:0:
448,192,84426,1,0,0:0:0:0:
64,192,84507,1,0,0:0:0:0:
192,192,84589,1,0,0:0:0:0:
448,192,84589,1,0,0:0:0:0:
320,192,84670,1,0,0:0:0:0:
192,192,84752,1,0,0:0:0:0:
64,192,84752,1,0,0:0:0:0:
448,192,84834,1,0,0:0:0:0:
320,192,84915,1,0,0:0:0:0:
64,192,84915,1,0,0:0:0:0:
192,192,84915,1,0,0:0:0:0:
448,192,84997,1,0,0:0:0:0:
320,192,85078,1,0,0:0:0:0:
192,192,85160,1,0,0:0:0:0:
448,192,85241,128,0,85404:0:0:0:0:
64,192,85241,1,0,0:0:0:0:
320,192,85241,1,0,0:0:0:0:
192,192,85323,1,0,0:0:0:0:
64,192,85404,1,0,0:0:0:0:
192,192,85486,1,0,0:0:0:0:
320,192,85567,128,0,85730:0:0:0:0:
64,192,85567,1,0,0:0:0:0:
448,192,85567,1,0,0:0:0:0:
192,192,85649,1,0,0:0:0:0:
64,192,85730,1,0,0:0:0:0:
320,192,85893,128,0,86056:0:0:0:0:
192,192,85893,1,0,0:0:0:0:
64,192,85893,1,0,0:0:0:0:
448,192,86056,128,0,86219:0:0:0:0:
64,192,86056,1,0,0:0:0:0:
192,192,86056,1,0,0:0:0:0:
448,192,86382,1,0,0:0:0:0:
320,192,86382,1,0,0:0:0:0:
192,192,86382,1,0,0:0:0:0:
64,192,86382,1,0,0:0:0:0:
