osu file format v14

[General]
AudioFilename: Sakura Reflection MYTK Remix.mp3
AudioLeadIn: 0
PreviewTime: 38604
Countdown: 0
SampleSet: Soft
StackLeniency: 0.4
Mode: 0
LetterboxInBreaks: 0
WidescreenStoryboard: 0

[Editor]
Bookmarks: 19404,25804,38604,51404,64204,77004,83404,89804,102604,115404
DistanceSpacing: 0.8
BeatDivisor: 4
GridSize: 4
TimelineZoom: 3.899998

[Metadata]
Title:Sakura Reflection (MYTK Remix)
TitleUnicode:Sakura Reflection (MYTK Remix)
Artist:Ryu*
ArtistUnicode:Ryu☆
Creator:Leader
Version:Another
Source:
Tags:Dubstep Ryutaro Nakahara REFLEC BEAT SDVX Kloyd Gamu Kyubey Lust
BeatmapID:650610
BeatmapSetID:288486

[Difficulty]
HPDrainRate:7
CircleSize:4.2
OverallDifficulty:8
ApproachRate:9.4
SliderMultiplier:1.8
SliderTickRate:1

[Events]
//Background and Video events
0,0,"bg.png",0,0
//Break Periods
2,19604,23650
2,51604,55650
//Storyboard Layer 0 (Background)
//Storyboard Layer 1 (Fail)
//Storyboard Layer 2 (Pass)
//Storyboard Layer 3 (Foreground)
//Storyboard Sound Samples

[TimingPoints]
204,400,4,2,10,50,1,0
204,-133.333333333333,4,2,10,50,0,0
5304,-200,4,2,10,75,0,0
6604,-133.333333333333,4,2,10,60,0,0
13004,-100,4,2,10,70,0,0
17804,-200,4,2,10,70,0,0
18604,-66.6666666666667,4,2,10,75,0,0
24204,-66.6666666666667,4,2,10,5,0,0
25804,-100,4,2,10,80,0,0
26404,-80,4,2,10,80,0,0
27104,-66.6666666666667,4,2,10,80,0,0
27404,-80,4,2,10,80,0,0
27804,-66.6666666666667,4,2,10,80,0,0
28804,-80,4,2,10,80,0,0
29404,-66.6666666666667,4,2,10,80,0,0
30804,-100,4,2,10,80,0,0
32804,-80,4,2,10,80,0,0
33304,-66.6666666666667,4,2,10,80,0,0
33804,-100,4,2,10,80,0,0
34304,-80,4,2,10,80,0,0
35104,-66.6666666666667,4,2,10,80,0,0
35604,-100,4,2,10,80,0,0
36004,-80,4,2,10,80,0,0
36404,-66.6666666666667,4,2,10,80,0,0
37004,-133.333333333333,4,2,10,80,0,0
37204,-133.333333333333,4,2,10,5,0,0
37304,-133.333333333333,4,2,10,80,0,0
37504,-133.333333333333,4,2,10,5,0,0
37604,-133.333333333333,4,2,10,80,0,0
37804,-133.333333333333,4,2,10,5,0,0
37904,-133.333333333333,4,2,10,80,0,0
38104,-133.333333333333,4,2,10,5,0,0
38204,-133.333333333333,4,2,10,80,0,0
38604,-66.6666666666667,4,2,10,80,0,0
39204,-80,4,2,10,80,0,0
39804,-66.6666666666667,4,2,10,80,0,0
40204,-100,4,2,10,80,0,0
41004,-80,4,2,10,80,0,0
41404,-66.6666666666667,4,2,10,80,0,0
41804,-100,4,2,10,80,0,0
42204,-80,4,2,10,80,0,0
42704,-66.6666666666667,4,2,10,80,0,0
43404,-100,4,2,10,80,0,0
43804,-66.6666666666667,4,2,10,80,0,0
44204,-100,4,2,10,80,0,0
45804,-80,4,2,10,80,0,0
46204,-66.6666666666667,4,2,10,80,0,0
46604,-100,4,2,10,80,0,0
47004,-80,4,2,10,80,0,0
47404,-66.6666666666667,4,2,10,80,0,0
47804,-50,4,2,10,80,0,0
48204,-200,4,2,10,80,0,0
49804,-100,4,2,10,80,0,0
51404,-100,4,2,10,80,0,0
57804,-100,4,2,10,50,0,0
58204,-100,4,2,10,60,0,0
58604,-100,4,2,10,70,0,0
59004,-100,4,2,10,80,0,0
59404,-100,4,2,10,60,0,0
59804,-100,4,2,10,65,0,0
60204,-100,4,2,10,75,0,0
60604,-100,4,2,10,80,0,0
61004,-100,4,2,10,85,0,0
61404,-100,4,2,10,90,0,0
61804,-100,4,2,10,92,0,0
62204,-100,4,2,10,94,0,0
62604,-100,4,2,10,96,0,0
63004,-100,4,2,10,98,0,0
63404,-100,4,2,10,100,0,0
63804,-100,4,2,10,100,0,0
64204,-100,4,2,10,60,0,0
77004,-100,4,2,10,70,0,0
83404,-100,4,2,10,75,0,0
89804,-100,4,2,10,80,0,0
90704,-66.6666666666667,4,2,10,80,0,0
91204,-100,4,2,10,80,0,0
92204,-66.6666666666667,4,2,10,80,0,0
92504,-57.1428571428571,4,2,10,80,0,0
92804,-50,4,2,10,80,0,0
93004,-100,4,2,10,80,0,0
93804,-66.6666666666667,4,2,10,80,0,0
94604,-100,4,2,10,80,0,0
95404,-66.6666666666667,4,2,10,80,0,0
96204,-100,4,2,10,80,0,0
97004,-66.6666666666667,4,2,10,80,0,0
97804,-100,4,2,10,80,0,0
98604,-133.333333333333,4,2,10,80,0,0
99404,-100,4,2,10,80,0,0
100204,-66.6666666666667,4,2,10,80,0,0
101004,-100,4,2,10,80,0,0
101304,-90.9090909090909,4,2,10,80,0,0
101604,-83.3333333333333,4,2,10,80,0,0
101904,-76.9230769230769,4,2,10,80,0,0
102204,-133.333333333333,4,2,10,80,0,0
102604,-100,4,2,10,80,0,0
104904,-66.6666666666667,4,2,10,80,0,0
105204,-100,4,2,10,80,0,0
106604,-66.6666666666667,4,2,10,80,0,0
107004,-57.1428571428571,4,2,10,80,0,0
107404,-100,4,2,10,80,0,0
109804,-66.6666666666667,4,2,10,80,0,0
110104,-57.1428571428571,4,2,10,80,0,0
110404,-50,4,2,10,80,0,0
110604,-100,4,2,10,80,0,0
111304,-66.6666666666667,4,2,10,80,0,0
111704,-100,4,2,10,80,0,0
112204,-100,4,2,10,80,0,0
114604,-133.333333333333,4,2,10,80,0,0

[Colours]
Combo1 : 255,106,118
Combo2 : 163,124,241
Combo3 : 248,97,206
Combo4 : 209,160,239

[HitObjects]
172,148,204,5,2,0:0:0:0:
236,72,404,1,0,0:0:0:0:
272,164,604,1,2,0:0:0:0:
104,224,804,2,0,P|80:176|92:84,2,135.000005149842,2|2|2,0:0|0:0|0:0,0:0:0:0:
328,328,1804,5,2,0:0:0:0:
196,376,2004,2,0,L|188:304,1,67.5000025749208,2|0,0:0|0:0,0:0:0:0:
328,328,2404,2,0,L|332:256,1,67.5000025749208,2|0,0:0|0:0,0:0:0:0:
292,112,2804,1,0,0:0:0:0:
392,176,3004,1,2,0:0:0:0:
244,260,3204,1,2,0:0:0:0:
416,296,3404,5,2,0:0:0:0:
300,192,3604,1,2,0:0:0:0:
428,88,3804,1,0,0:0:0:0:
264,36,4004,2,0,P|196:40|112:64,2,135.000005149842,2|2|2,0:0|0:0|0:0,0:0:0:0:
368,124,5004,6,0,L|352:204,1,67.5000025749208,2|2,0:0|0:0,0:0:0:0:
280,248,5304,2,0,L|268:204,1,45
196,164,5604,2,0,P|164:160|132:160,2,45,2|0|2,0:0|0:0|0:0,0:0:0:0:
408,324,6204,1,0,0:0:0:0:
316,360,6404,1,0,0:0:0:0:
408,324,6604,38,0,L|424:188,1,135.000005149842,6|0,1:2|0:0,0:0:0:0:
380,24,7204,1,2,0:0:0:0:
512,136,7404,1,8,0:0:0:0:
284,276,7604,2,0,L|268:141,1,135.000005149842,2|2,0:0|0:0,0:0:0:0:
188,16,8204,5,2,1:2:0:0:
88,144,8404,2,0,P|72:104|68:60,1,67.5000025749208,2|0,0:0|0:0,0:0:0:0:
216,172,8804,2,0,P|209:205|196:235,1,67.5000025749208,2|8,1:2|0:0,0:0:0:0:
92,284,9204,2,0,L|20:292,2,67.5000025749208,2|2|2,0:0|0:0|0:0,0:0:0:0:
300,340,9804,6,0,L|316:200,1,135.000005149842,2|0,1:2|0:0,0:0:0:0:
436,76,10404,2,0,L|429:151,1,67.5000025749208,2|8,0:0|0:0,0:0:0:0:
192,256,10804,2,0,L|176:121,1,135.000005149842,2|2,0:0|1:2,0:0:0:0:
436,76,11404,6,0,L|430:144,1,67.5000025749208,6|2,1:2|0:0,0:0:0:0:
320,208,11804,2,0,L|315:133,1,67.5000025749208,0|2,1:0|0:0,0:0:0:0:
448,256,12204,2,0,L|440:344,1,67.5000025749208,10|2,0:0|0:0,0:0:0:0:
280,356,12604,1,2,1:2:0:0:
280,356,12704,1,0,1:2:0:0:
280,356,12804,1,2,1:2:0:0:
280,356,12904,1,0,1:2:0:0:
280,356,13004,38,0,L|184:344,1,90,6|2,1:2|0:0,0:0:0:0:
32,276,13404,1,0,1:0:0:0:
80,376,13604,1,2,0:0:0:0:
152,256,13804,2,0,P|148:208|124:176,1,90,0|2,1:0|0:0,0:0:0:0:
44,108,14204,1,0,1:0:0:0:
4,200,14404,1,2,0:0:0:0:
256,288,14604,5,0,1:0:0:0:
256,288,14804,1,2,0:0:0:0:
80,360,15004,1,0,1:0:0:0:
80,360,15204,1,2,0:0:0:0:
432,360,15404,1,2,1:0:0:0:
432,360,15604,1,2,0:0:0:0:
256,192,15804,1,2,1:2:0:0:
80,360,16004,1,2,1:2:0:0:
80,360,16104,1,0,1:0:0:0:
80,360,16204,6,0,P|76:340|72:316,3,45,2|0|2|0,1:2|1:0|1:2|1:0,0:0:0:0:
72,208,16604,2,0,P|76:188|80:164,3,45,2|0|2|0,1:2|1:0|1:2|1:0,0:0:0:0:
126,20,17004,1,0,1:0:0:0:
126,20,17104,1,0,1:0:0:0:
126,20,17204,5,2,1:2:0:0:
118,51,17304,1,0,1:0:0:0:
115,83,17404,1,0,1:0:0:0:
120,114,17504,1,0,1:0:0:0:
128,145,17604,1,2,1:2:0:0:
142,173,17704,1,0,1:0:0:0:
156,197,17804,22,0,B|177:235|161:268|161:268|182:283|182:283|167:316|190:351,1,157.5,4|0,1:2|0:0,0:0:0:0:
260,376,18604,70,0,P|268:340|292:288,1,67.5000025749208,0|0,1:0|0:0,0:0:0:0:
356,276,18804,2,0,L|492:260,1,135.000005149842,10|2,0:0|1:2,0:0:0:0:
490,260,19104,1,0,0:0:0:0:
490,260,19204,1,2,1:2:0:0:
256,192,19404,5,4,1:2:0:0:
256,192,24204,12,0,25404,0:0:0:0:
256,368,25804,6,0,B|296:260|200:260|260:120,1,225,4|0,1:2|0:0,0:0:0:0:
344,72,26404,6,0,L|356:132,1,56.25,2|0,0:1|0:0,0:0:0:0:
460,232,26604,2,0,P|480:184|448:128,1,112.5,10|2,0:1|0:1,0:0:0:0:
264,36,26904,2,0,L|192:48,1,56.25
56,208,27104,6,0,P|40:176|32:136,2,67.5000025749208,2|2|2,0:1|0:1|0:1,0:0:0:0:
312,188,27404,6,0,L|320:132,1,56.25,4|0,1:2|0:0,0:0:0:0:
232,256,27604,2,0,L|240:312,1,56.25,2|0,0:1|0:0,0:0:0:0:
347,351,27804,6,0,P|382:351|428:359,1,67.5000025749208
494,206,28004,2,0,P|495:177|488:138,1,67.5000025749208,2|0,0:1|1:0,0:0:0:0:
258,38,28204,6,0,L|238:178,1,135.000005149842,8|2,0:0|0:1,0:0:0:0:
60,368,28504,2,0,L|40:234,1,135.000005149842,2|0,1:0|0:0,0:0:0:0:
76,160,28804,6,0,P|50:154|12:153,1,56.25,2|0,0:1|0:0,0:0:0:0:
170,134,29004,2,0,P|188:114|208:82,1,56.25,0|0,1:0|0:0,0:0:0:0:
147,223,29204,2,0,P|154:248|172:281,1,56.25
324,344,29404,6,0,L|336:264,1,67.5000025749208,2|0,0:1|0:0,0:0:0:0:
147,223,29604,2,0,L|135:143,1,67.5000025749208,2|0,0:1|0:0,0:0:0:0:
108,56,29804,5,10,0:1:0:0:
248,176,29904,2,0,L|336:192,1,67.5000025749208,2|0,0:1|0:0,0:0:0:0:
380,128,30104,2,0,L|452:116,1,67.5000025749208,2|0,0:1|0:0,0:0:0:0:
500,40,30304,1,0,0:0:0:0:
248,176,30404,2,0,P|272:132|256:180,1,135.000005149842,8|0,0:0|1:0,0:0:0:0:
270,179,30804,6,0,P|204:174|134:183,1,135,4|0,0:0|0:0,0:0:0:0:
64,212,31204,2,0,L|52:164,1,45,0|0,0:0|0:0,0:0:0:0:
132,268,31404,2,0,L|121:311,1,45,8|0,0:0|0:0,0:0:0:0:
48,356,31604,1,0,0:0:0:0:
244,252,31804,1,0,0:0:0:0:
40,124,32004,1,0,1:0:0:0:
180,360,32204,6,0,B|232:348|272:376|272:376|288:348|288:348|324:368|388:356,1,225,4|0,1:2|0:0,0:0:0:0:
460,292,32804,6,0,L|468:232,1,56.25
356,120,33004,2,0,L|372:244,1,112.5,2|8,0:1|0:0,0:0:0:0:
280,268,33304,6,0,P|245:265|212:256,1,67.5000025749208,2|0,0:1|0:0,0:0:0:0:
52,120,33504,1,0,1:0:0:0:
136,160,33604,2,0,P|169:157|202:148,1,67.5000025749208,8|0,0:0|0:1,0:0:0:0:
308,64,33804,5,0,1:0:0:0:
308,64,33904,2,0,L|300:108,1,45,0|0,0:0|0:0,0:0:0:0:
248,204,34104,2,0,L|256:248,1,45,0|0,0:0|0:0,0:0:0:0:
324,344,34304,6,0,L|380:340,1,56.25,2|0,0:1|0:0,0:0:0:0:
200,376,34504,2,0,L|128:368,1,56.25,2|8,0:1|0:0,0:0:0:0:
52,336,34704,1,0,0:0:0:0:
28,248,34804,2,0,L|24:220,4,28.125,0|0|0|0|0,1:0|0:0|0:0|0:0|0:0,0:0:0:0:
60,112,35104,6,0,L|128:124,1,67.5000025749208,2|8,1:0|0:0,0:0:0:0:
193,42,35304,2,0,L|260:31,1,67.5000025749208,2|0,0:1|0:0,0:0:0:0:
259,31,35604,6,0,B|291:39|291:39|395:15,1,135
480,72,36004,6,0,L|488:16,1,56.25,2|2,0:1|0:1,0:0:0:0:
408,132,36204,2,0,L|416:188,1,56.25,8|0,0:0|0:0,0:0:0:0:
496,332,36404,5,2,0:1:0:0:
496,332,36504,2,0,L|424:348,1,67.5000025749208,2|0,0:1|0:0,0:0:0:0:
312,268,36704,2,0,L|246:253,1,67.5000025749208,2|8,0:1|0:0,0:0:0:0:
116,356,36904,1,2,0:1:0:0:
108,344,37004,6,0,L|112:272,1,67.5000025749208,2|0,1:3|0:0,0:0:0:0:
116,268,37304,6,0,L|112:196,1,67.5000025749208,2|0,0:3|0:0,0:0:0:0:
112,188,37604,6,0,L|116:116,1,67.5000025749208,2|0,0:3|0:0,0:0:0:0:
116,112,37904,6,0,L|112:40,1,67.5000025749208,2|0,0:3|0:0,0:0:0:0:
392,100,38204,1,0,1:0:0:0:
416,116,38304,1,0,1:0:0:0:
436,128,38404,1,8,1:0:0:0:
456,140,38504,1,0,1:0:0:0:
472,152,38604,6,0,L|468:228,1,67.5000025749208,4|0,1:2|0:0,0:0:0:0:
271,377,38804,2,0,P|251:308|280:246,1,135,2|0,0:1|0:0,0:0:0:0:
364,168,39204,6,0,L|380:232,1,56.25,2|2,0:1|0:1,0:0:0:0:
168,124,39404,2,0,L|206:71,1,56.25,8|0,0:0|0:0,0:0:0:0:
241,301,39604,2,0,L|176:294,1,56.25,0|0,0:0|0:0,0:0:0:0:
100,344,39804,6,0,P|88:296|88:252,1,67.5000025749208,2|0,0:1|0:0,0:0:0:0:
276,148,40004,2,0,P|288:196|288:240,1,67.5000025749208,2|0,0:1|0:0,0:0:0:0:
208,376,40204,6,0,L|184:232,1,135.000005149842,4|0,1:2|0:0,0:0:0:0:
72,124,40604,5,0,1:0:0:0:
68,140,40704,1,0,1:0:0:0:
64,156,40804,1,0,1:0:0:0:
60,172,40904,1,0,1:0:0:0:
56,192,41004,6,0,L|-20:204,1,56.25,8|0,0:0|0:0,0:0:0:0:
276,148,41204,2,0,L|352:136,1,56.25
185,242,41404,6,0,L|199:319,1,67.5000025749208,2|0,1:0|0:0,0:0:0:0:
148,88,41604,2,0,L|132:4,1,67.5000025749208,10|0,0:1|0:0,0:0:0:0:
256,20,41804,6,0,P|324:12|400:24,1,135,4|0,1:2|0:0,0:0:0:0:
468,92,42204,6,0,L|480:36,1,56.25,2|0,0:1|0:0,0:0:0:0:
348,132,42404,2,0,L|359:187,1,56.25,2|0,0:1|0:0,0:0:0:0:
484,332,42604,5,10,0:1:0:0:
484,332,42704,2,0,P|464:292|440:260,1,67.5000025749208,2|0,0:1|0:0,0:0:0:0:
300,276,42904,1,2,0:1:0:0:
300,276,43004,2,0,P|257:261|217:256,1,67.5000025749208,2|0,0:1|0:0,0:0:0:0:
36,344,43204,2,0,P|78:329|118:324,1,67.5000025749208,10|2,0:1|0:1,0:0:0:0:
360,352,43404,6,0,P|392:296|376:220,1,135,4|0,1:2|0:0,0:0:0:0:
340,144,43804,6,0,L|344:72,1,67.5000025749208,2|0,1:0|0:0,0:0:0:0:
160,76,44004,2,0,L|164:144,1,67.5000025749208,2|0,0:1|0:0,0:0:0:0:
256,252,44204,6,0,L|256:304,1,45,8|0,0:0|0:0,0:0:0:0:
48,348,44404,2,0,P|23:302|72:184,1,180,2|2,0:3|0:3,0:0:0:0:
388,136,45004,6,0,L|400:196,1,45,4|0,1:2|0:0,0:0:0:0:
496,352,45204,2,0,P|508:296|428:268,1,135
356,336,45604,2,0,L|308:332,1,45,2|0,0:1|0:0,0:0:0:0:
136,356,45804,6,0,P|168:356|200:344,1,56.25
372,240,46004,2,0,P|340:240|308:228,1,56.25,8|0,0:0|0:0,0:0:0:0:
200,156,46204,6,0,L|192:88,1,67.5000025749208,2|0,1:0|1:0,0:0:0:0:
320,88,46404,2,0,L|328:20,1,67.5000025749208,2|0,1:0|1:0,0:0:0:0:
100,256,46604,6,0,B|84:160|84:160|120:184,1,135,4|0,1:2|0:0,0:0:0:0:
188,232,47004,6,0,L|244:224,1,56.25,2|0,0:1|0:0,0:0:0:0:
312,312,47204,2,0,L|372:320,1,56.25,2|0,1:0|1:0,0:0:0:0:
436,260,47404,6,0,P|444:224|428:184,1,67.5000025749208,8|0,0:0|0:0,0:0:0:0:
76,196,47604,2,0,P|67:228|75:260,1,67.5000025749208,2|0,0:1|0:0,0:0:0:0:
360,372,47804,6,0,L|452:360,1,90
152,372,48004,2,0,L|60:360,1,90
258,382,48204,6,0,B|328:208|184:204|258:38,1,337.5,4|0,1:2|0:0,0:0:0:0:
392,144,49804,1,8,0:0:0:0:
392,144,50004,6,0,L|336:156,1,45,8|8,0:0|0:0,0:0:0:0:
124,240,50204,2,0,L|180:252,1,45,8|0,0:0|0:0,0:0:0:0:
352,352,50404,1,8,0:0:0:0:
352,352,50604,6,0,L|360:292,1,45,8|8,0:0|0:0,0:0:0:0:
124,240,50804,2,0,L|116:180,1,45,8|8,0:0|0:0,0:0:0:0:
284,24,51004,1,8,0:0:0:0:
284,24,51204,6,0,L|276:76,1,45,8|8,0:0|0:0,0:0:0:0:
256,192,51404,1,4,1:2:0:0:
256,192,56204,5,2,0:0:0:0:
256,192,56304,12,0,57604,0:0:0:0:
188,352,57804,6,0,L|176:260,1,90,0|0,1:0|0:0,0:0:0:0:
320,280,58204,2,0,L|332:188,1,90,0|0,1:0|0:0,0:0:0:0:
224,56,58604,2,0,P|180:52|124:72,1,90,0|0,1:0|0:0,0:0:0:0:
160,232,59004,2,0,P|204:236|260:216,1,90,0|0,1:0|0:0,0:0:0:0:
460,84,59404,5,0,1:0:0:0:
372,52,59604,1,0,0:0:0:0:
324,208,59804,5,0,1:0:0:0:
408,188,60004,1,0,0:0:0:0:
492,344,60204,5,0,1:0:0:0:
400,320,60404,1,0,0:0:0:0:
232,380,60604,1,0,1:0:0:0:
56,376,60804,5,0,0:0:0:0:
36,335,60904,1,0,0:0:0:0:
31,291,61004,1,0,0:0:0:0:
40,247,61104,1,0,0:0:0:0:
63,208,61204,5,0,0:0:0:0:
75,165,61304,1,0,0:0:0:0:
75,120,61404,1,0,0:0:0:0:
61,78,61504,1,0,0:0:0:0:
36,40,61604,5,0,0:0:0:0:
78,57,61704,1,0,0:0:0:0:
122,59,61804,1,0,0:0:0:0:
165,47,61904,1,0,0:0:0:0:
202,21,62004,1,0,0:0:0:0:
189,64,62104,1,0,0:0:0:0:
188,109,62204,1,0,0:0:0:0:
200,152,62304,1,0,0:0:0:0:
222,191,62404,1,0,0:0:0:0:
256,220,62504,1,0,0:0:0:0:
296,240,62604,6,0,L|320:244,7,22.5,0|0|0|0|0|0|0|0,1:0|1:0|1:0|1:0|1:0|1:0|1:0|1:0,0:0:0:0:
374,303,63004,6,0,L|396:299,7,22.5,0|0|0|0|0|0|0|0,1:0|1:0|1:0|1:0|1:0|1:0|1:0|1:0,0:0:0:0:
468,344,63404,6,0,L|492:348,7,22.5,0|0|0|0|0|0|0|0,1:0|1:0|1:0|1:0|1:0|1:0|1:0|1:0,0:0:0:0:
318,247,63804,6,0,P|302:195|342:115,1,135,0|0,1:0|0:0,0:0:0:0:
358,111,64204,6,0,L|214:107,1,135,6|0,1:2|0:0,0:0:0:0:
200,92,64604,1,2,0:0:0:0:
284,200,64804,1,0,0:0:0:0:
88,372,65004,2,0,P|72:324|80:268,1,90,2|2,0:0|0:0,0:0:0:0:
80,268,65304,1,2,0:0:0:0:
88,252,65404,1,2,0:0:0:0:
200,92,65604,1,0,0:0:0:0:
336,236,65804,6,0,P|292:244|244:260,1,90,2|0,0:0|0:0,0:0:0:0:
444,272,66204,2,0,P|472:306|510:339,1,90,2|0,0:0|0:0,0:0:0:0:
420,176,66604,2,0,P|435:133|445:84,1,90,2|0,0:0|0:0,0:0:0:0:
280,8,67004,5,2,0:0:0:0:
344,84,67204,1,0,0:0:0:0:
184,268,67404,2,0,P|168:208|180:120,1,135,2|0,0:0|0:0,0:0:0:0:
184,112,67804,5,2,0:0:0:0:
264,196,68004,1,0,0:0:0:0:
116,320,68204,1,2,0:0:0:0:
284,384,68404,1,2,0:0:0:0:
280,360,68504,1,2,0:0:0:0:
276,336,68604,1,2,0:0:0:0:
136,196,68804,1,0,0:0:0:0:
336,256,69004,6,0,P|396:268|460:232,1,135,2|0,0:0|0:0,0:0:0:0:
484,152,69404,2,0,L|488:104,1,45,2|2,0:0|0:0,0:0:0:0:
396,112,69604,2,0,L|392:64,1,45,2|2,0:0|0:0,0:0:0:0:
312,152,69804,2,0,L|292:44,1,90,2|0,0:0|0:0,0:0:0:0:
376,356,70204,5,2,0:0:0:0:
480,304,70404,1,0,0:0:0:0:
264,216,70604,2,0,P|188:212|120:224,1,135,2|0,0:0|0:0,0:0:0:0:
104,228,71004,5,2,0:0:0:0:
256,344,71204,1,0,0:0:0:0:
364,156,71404,1,2,0:0:0:0:
364,156,71504,1,2,0:0:0:0:
364,156,71604,1,2,0:0:0:0:
364,156,71704,1,2,0:0:0:0:
364,156,71804,1,2,0:0:0:0:
444,224,72004,1,0,0:0:0:0:
344,368,72204,6,0,P|328:328|324:276,1,90,2|0,0:0|0:0,0:0:0:0:
340,64,72604,1,2,0:0:0:0:
468,144,72804,1,0,0:0:0:0:
324,280,73004,1,2,0:0:0:0:
400,236,73204,1,0,0:0:0:0:
496,328,73404,5,2,0:0:0:0:
384,384,73604,1,0,0:0:0:0:
240,340,73804,2,0,P|192:332|96:356,1,135,2|0,0:0|0:0,0:0:0:0:
72,368,74204,6,0,L|56:260,1,90,2|0,0:0|0:0,0:0:0:0:
176,160,74604,1,2,0:0:0:0:
176,160,74704,1,0,0:0:0:0:
176,160,74804,1,2,0:0:0:0:
176,160,74904,1,2,0:0:0:0:
176,160,75004,2,0,L|192:268,1,90,2|0,0:0|0:0,0:0:0:0:
360,376,75404,6,0,P|388:320|348:208,1,180,2|2,0:0|0:0,0:0:0:0:
256,100,76004,1,0,0:0:0:0:
256,192,76204,12,0,76804,0:0:0:0:
132,356,77004,6,0,P|84:304|100:200,1,180,6|2,1:2|0:0,0:0:0:0:
216,136,77604,1,0,0:0:0:0:
256,280,77804,2,0,P|208:272|156:268,1,90,10|2,0:0|0:0,0:0:0:0:
324,352,78204,1,2,0:0:0:0:
348,348,78304,1,0,0:0:0:0:
372,344,78404,1,0,0:0:0:0:
480,260,78604,6,0,P|464:212|432:160,1,90,2|0,1:2|0:0,0:0:0:0:
432,160,78904,1,0,0:0:0:0:
416,144,79004,1,2,0:0:0:0:
288,100,79204,1,0,0:0:0:0:
292,256,79404,2,0,P|340:244|384:240,1,90,10|0,0:0|0:0,0:0:0:0:
232,340,79804,1,2,0:0:0:0:
180,256,80004,1,0,0:0:0:0:
344,32,80204,6,0,P|368:76|348:172,1,135,2|0,1:2|0:0,0:0:0:0:
312,220,80604,2,0,L|216:232,1,90,2|0,0:0|0:0,0:0:0:0:
56,300,81004,2,0,P|36:248|36:200,1,90,10|2,0:0|0:0,0:0:0:0:
36,196,81304,1,2,0:0:0:0:
40,176,81404,1,2,0:0:0:0:
96,80,81604,1,0,1:0:0:0:
204,132,81804,6,0,P|268:140|332:108,1,135,2|0,1:2|1:0,0:0:0:0:
416,88,82204,2,0,L|408:144,1,45
504,216,82404,2,0,L|497:171,1,45,0|0,1:0|0:0,0:0:0:0:
416,248,82604,2,0,L|436:348,1,90,10|0,0:0|0:0,0:0:0:0:
304,204,83004,5,0,0:0:0:0:
316,196,83104,1,0,0:0:0:0:
328,188,83204,1,0,1:0:0:0:
340,180,83304,1,0,0:0:0:0:
352,172,83404,6,0,P|396:160|452:160,1,90,6|0,1:2|0:0,0:0:0:0:
196,240,83804,2,0,P|152:252|96:252,1,90,2|0,1:2|0:0,0:0:0:0:
316,288,84204,2,0,P|328:332|328:388,1,90,2|2,1:2|0:0,0:0:0:0:
248,132,84604,2,0,P|236:88|236:32,1,90,2|0,1:2|0:0,0:0:0:0:
408,108,85004,5,6,1:2:0:0:
116,28,85204,1,0,0:0:0:0:
376,28,85404,5,2,1:2:0:0:
96,148,85604,1,0,0:0:0:0:
352,260,85804,5,2,1:2:0:0:
168,216,86004,1,0,0:0:0:0:
104,360,86204,5,2,1:2:0:0:
268,312,86404,1,2,1:2:0:0:
440,340,86604,5,2,1:2:0:0:
460,310,86704,1,0,1:0:0:0:
471,276,86804,1,0,1:0:0:0:
471,240,86904,1,0,1:0:0:0:
459,207,87004,1,2,1:2:0:0:
438,178,87104,1,0,1:0:0:0:
408,158,87204,1,2,1:2:0:0:
374,147,87304,1,0,1:0:0:0:
338,148,87404,5,2,1:2:0:0:
304,161,87504,1,0,1:0:0:0:
276,183,87604,1,2,1:2:0:0:
256,213,87704,1,2,1:2:0:0:
247,247,87804,1,2,1:2:0:0:
249,283,87904,1,0,1:0:0:0:
262,317,88004,1,2,1:2:0:0:
285,344,88104,1,0,1:0:0:0:
384,364,88204,6,0,B|400:280|400:280|352:304,1,135,0|0,1:0|1:0,0:0:0:0:
285,344,88604,2,0,L|224:352,1,45
152,356,88804,1,0,1:0:0:0:
144,332,88904,1,0,1:0:0:0:
136,308,89004,1,0,1:0:0:0:
56,240,89104,6,0,P|24:240|4:244,2,45,2|0|0,0:0|1:0|0:0,0:0:0:0:
136,200,89404,1,2,0:0:0:0:
140,184,89504,1,0,0:0:0:0:
144,168,89604,1,2,1:2:0:0:
148,152,89704,1,2,0:0:0:0:
152,136,89804,6,0,L|144:40,1,90,4|0,1:2|0:0,0:0:0:0:
44,20,90204,1,0,0:0:0:0:
256,128,90404,2,0,P|304:128|352:108,1,90,0|10,0:0|0:0,0:0:0:0:
484,28,90704,6,0,L|476:104,1,67.5000025749208,0|2,0:0|0:1,0:0:0:0:
464,188,90904,1,0,0:0:0:0:
360,368,91004,2,0,P|338:306|388:252,1,135.000005149842,2|0,0:1|0:0,0:0:0:0:
464,188,91304,1,0,0:0:0:0:
464,188,91404,6,0,L|352:176,1,90,4|0,1:2|0:0,0:0:0:0:
192,380,91804,2,0,L|100:372,1,90
29,257,92104,5,0,1:0:0:0:
29,257,92204,2,0,B|78:293|78:293|102:204,1,135.000005149842,8|0,0:0|0:0,0:0:0:0:
98,70,92504,2,0,B|45:29|45:29|20:130,1,157.500001502037,8|0,0:0|0:0,0:0:0:0:
175,169,92804,2,0,L|270:158,1,90,2|0,0:3|0:0,0:0:0:0:
399,369,93004,6,0,B|431:329|435:285|435:285|419:245|371:201,1,180,4|0,1:2|0:0,0:0:0:0:
216,268,93604,1,0,0:0:0:0:
44,176,93804,6,0,P|36:144|32:88,1,67.5000025749208,10|0,0:1|0:0,0:0:0:0:
200,40,94004,2,0,P|196:73|188:106,1,67.5000025749208,2|0,0:1|0:0,0:0:0:0:
96,288,94204,2,0,L|24:280,1,67.5000025749208,2|0,0:1|0:0,0:0:0:0:
296,328,94404,1,2,0:1:0:0:
308,352,94504,1,0,0:0:0:0:
472,296,94604,6,0,P|504:244|496:160,1,135,4|0,1:2|0:0,0:0:0:0:
400,52,95004,2,0,L|408:100,1,45,2|2,0:1|0:1,0:0:0:0:
272,164,95204,2,0,L|279:119,1,45,2|2,1:0|0:1,0:0:0:0:
324,376,95404,6,0,P|340:316|316:244,1,135.000005149842,8|2,0:0|0:3,0:0:0:0:
168,212,95704,1,0,0:0:0:0:
168,212,95804,2,0,L|156:280,1,67.5000025749208,2|0,0:3|0:0,0:0:0:0:
272,164,96004,2,0,L|260:97,1,67.5000025749208,2|0,1:3|0:0,0:0:0:0:
376,12,96204,6,0,L|364:104,1,90,4|0,1:2|0:0,0:0:0:0:
32,288,96604,2,0,L|20:240,1,45
124,332,96804,2,0,L|112:280,1,45
296,220,97004,6,0,L|276:320,1,67.5000025749208,8|2,0:0|0:1,0:0:0:0:
224,140,97204,2,0,L|320:107,1,67.5000025749208,2|2,0:1|0:1,0:0:0:0:
191,243,97404,2,0,L|114:175,1,67.5000025749208,2|2,0:1|0:1,0:0:0:0:
371,259,97604,6,0,P|368:299|354:335,1,67.5000025749208,2|2,0:1|0:1,0:0:0:0:
250,378,97804,5,4,1:2:0:0:
88,157,98004,1,0,0:0:0:0:
64,336,98204,2,0,L|164:328,1,90
250,378,98504,1,0,1:0:0:0:
250,378,98604,6,0,P|264:324|232:244,1,135.000005149842,8|0,0:0|0:0,0:0:0:0:
96,160,99204,1,0,0:0:0:0:
68,328,99404,6,0,L|164:316,1,90,4|0,1:2|0:0,0:0:0:0:
400,228,99804,2,0,L|304:216,1,90,4|0,1:2|0:0,0:0:0:0:
157,316,100104,5,0,0:0:0:0:
157,316,100204,2,0,L|145:236,1,67.5000025749208,8|0,0:0|0:0,0:0:0:0:
310,216,100404,2,0,L|318:136,1,67.5000025749208,2|0,0:3|0:0,0:0:0:0:
138,128,100604,1,2,0:3:0:0:
137,121,100670,1,0,0:0:0:0:
136,114,100737,1,0,0:0:0:0:
135,107,100804,2,0,L|127:31,1,67.5000025749208
32,16,101004,5,2,1:2:0:0:
128,40,101104,2,0,L|172:32,1,45
280,64,101304,5,2,0:0:0:0:
260,156,101404,2,0,L|252:204,1,49.5000015106202
40,164,101604,5,2,0:0:0:0:
72,248,101704,2,0,L|84:300,1,53.9999983520508
200,364,101904,5,2,0:0:0:0:
320,312,102004,2,0,L|384:304,1,58.4999973220826
424,176,102204,6,0,L|432:132,1,33.7500012874604,2|0,0:0|0:0,0:0:0:0:
216,240,102404,2,0,L|222:273,1,33.7500012874604,2|0,0:0|0:0,0:0:0:0:
40,164,102604,6,0,P|24:88|104:24,1,180,4|0,1:2|0:0,0:0:0:0:
400,56,103204,2,0,L|392:108,1,45,0|0,0:0|0:0,0:0:0:0:
256,216,103404,2,0,L|249:171,1,45,8|0,0:0|0:0,0:0:0:0:
372,252,103604,1,0,0:0:0:0:
372,252,103704,1,0,0:0:0:0:
372,252,103804,2,0,L|360:344,1,90,0|0,0:0|1:0,0:0:0:0:
40,216,104204,6,0,P|20:164|16:124,1,90,4|0,1:2|0:0,0:0:0:0:
208,132,104604,2,0,P|230:81|256:49,1,90,0|0,0:0|0:0,0:0:0:0:
405,149,104904,6,0,L|501:116,1,67.5000025749208,2|2,0:1|0:1,0:0:0:0:
372,252,105104,2,0,L|295:184,1,67.5000025749208,2|2,0:1|0:1,0:0:0:0:
477,229,105304,1,2,0:1:0:0:
477,229,105404,6,0,P|476:280|456:328,1,90,2|0,0:3|0:0,0:0:0:0:
372,384,105704,1,0,0:0:0:0:
240,344,105804,6,0,B|212:248|212:248|252:268,1,135,4|0,1:2|0:0,0:0:0:0:
360,280,106204,2,0,L|368:220,1,45
284,192,106404,2,0,L|280:148,1,45
340,64,106604,6,0,L|408:56,1,67.5000025749208,8|0,0:0|0:0,0:0:0:0:
184,172,106804,2,0,L|112:162,1,67.5000025749208
344,360,107004,6,0,P|384:352|428:352,1,78.7500007510185,2|0,0:3|0:0,0:0:0:0:
168,316,107204,2,0,P|128:315|90:307,1,78.7500007510185,2|0,0:3|0:0,0:0:0:0:
248,384,107404,6,0,L|260:240,1,135,4|0,1:2|0:0,0:0:0:0:
312,168,107804,2,0,L|304:124,1,45,0|2,0:0|0:1,0:0:0:0:
204,96,108004,2,0,L|208:52,1,45,2|2,1:0|0:1,0:0:0:0:
304,24,108204,2,0,L|392:8,1,90,8|0,0:0|0:0,0:0:0:0:
496,124,108604,5,0,0:0:0:0:
96,68,108804,1,0,1:0:0:0:
280,276,109004,2,0,P|292:208|184:160,1,180,4|0,1:2|0:0,0:0:0:0:
56,232,109604,1,0,0:0:0:0:
204,368,109804,6,0,P|272:360|360:364,1,135.000005149842,8|0,0:0|0:0,0:0:0:0:
496,268,110104,2,0,P|404:268|336:248,1,157.500001502037,8|0,0:0|0:0,0:0:0:0:
255,146,110404,2,0,P|299:143|351:134,1,90,2|0,0:3|0:0,0:0:0:0:
488,56,110604,6,0,L|380:48,1,90,4|0,1:2|0:0,0:0:0:0:
196,84,111004,1,0,0:0:0:0:
324,200,111204,1,0,0:0:0:0:
255,146,111304,5,0,0:0:0:0:
196,84,111404,2,0,L|188:16,1,67.5000025749208,2|2,1:0|0:1,0:0:0:0:
324,200,111604,2,0,L|332:132,1,67.5000025749208,2|2,0:1|0:1,0:0:0:0:
180,288,111804,6,0,P|152:280|104:276,1,45,2|0,0:3|0:0,0:0:0:0:
308,360,112004,2,0,P|332:360|360:352,1,45,2|0,0:3|0:0,0:0:0:0:
52,328,112204,6,0,P|36:260|112:184,1,180,4|0,1:2|0:0,0:0:0:0:
232,160,112804,1,0,0:0:0:0:
224,292,113004,2,0,P|184:284|128:280,1,90,8|0,0:0|0:0,0:0:0:0:
288,360,113304,1,0,0:0:0:0:
288,360,113404,2,0,P|332:351|376:348,1,90,0|0,0:0|0:0,0:0:0:0:
488,230,113804,5,4,1:2:0:0:
158,159,114004,1,0,0:0:0:0:
288,360,114204,1,0,0:0:0:0:
358,30,114404,1,0,0:0:0:0:
104,268,114604,6,0,P|44:196|88:64,1,236.250009012223,4|0,1:2|0:0,0:0:0:0:
152,28,115404,5,4,1:2:0:0:
