osu file format v14

[General]
AudioFilename: audio.mp3
AudioLeadIn: 0
PreviewTime: 81307
Countdown: 0
SampleSet: Soft
StackLeniency: 0.6
Mode: 0
LetterboxInBreaks: 0
WidescreenStoryboard: 0

[Editor]
Bookmarks: 12083,22350,32618,42885,53152,57003,58286,69837,74971,81388,101922
DistanceSpacing: 1
BeatDivisor: 4
GridSize: 32
TimelineZoom: 2.2

[Metadata]
Title:Sakura Mirage
TitleUnicode:Sakura Mirage
Artist:Ryu
ArtistUnicode:Ryu☆
Creator:Skorpiik
Version:Extra
Source:SOUND VOLTEX II -infinite infection-
Tags:
BeatmapID:1791291
BeatmapSetID:857338

[Difficulty]
HPDrainRate:6
CircleSize:4
OverallDifficulty:9
ApproachRate:9.6
SliderMultiplier:2
SliderTickRate:1

[Events]
//Background and Video events
0,0,"maxresdefault.jpg",0,0
//Break Periods
2,53352,56654
2,70037,73178
//Storyboard Layer 0 (Background)
//Storyboard Layer 1 (Fail)
//Storyboard Layer 2 (Pass)
//Storyboard Layer 3 (Foreground)
//Storyboard Sound Samples

[TimingPoints]
1816,320.855614973262,4,2,0,70,1,0
12083,-125,4,2,0,50,0,0
17217,-100,4,2,0,60,0,0
18500,-125,4,2,0,50,0,0
19783,-100,4,2,0,60,0,0
22350,-100,4,2,0,70,0,0
26361,-200,4,2,0,50,0,0
27484,-100,4,2,0,70,0,0
32618,-100,4,2,0,60,0,0
35184,-125,4,2,0,60,0,0
37430,-83.3333333333333,4,2,0,70,0,0
37671,-83.3333333333333,4,2,0,60,0,0
37751,-100,4,2,0,60,0,0
39035,-125,4,2,0,50,0,0
39676,-200,4,2,0,35,0,0
40318,-133.333333333333,4,2,0,60,0,0
42885,-100,4,2,0,70,0,0
57163,-125,4,2,0,60,0,0
73687,-200,4,2,0,50,0,0
74971,-125,4,2,0,60,0,0
78821,-153.846153846154,4,2,0,50,0,0
81067,-100,4,2,0,70,0,0
81307,-100,4,2,0,5,0,0
81388,-76.9230769230769,4,2,0,80,0,1
101922,-100,4,2,0,80,0,0

[Colours]
Combo1 : 201,98,240
Combo2 : 125,12,201
Combo3 : 50,108,245
Combo4 : 128,128,255

[HitObjects]
88,86,1816,6,0,L|79:154,3,50
166,154,2136,1,0,0:0:0:0:
213,169,2216,1,0,0:0:0:0:
263,172,2296,1,0,0:0:0:0:
312,162,2376,1,0,0:0:0:0:
357,141,2457,6,0,L|413:108,3,50
461,182,2778,1,0,0:0:0:0:
482,227,2859,1,0,0:0:0:0:
492,276,2939,1,0,0:0:0:0:
489,326,3019,1,0,0:0:0:0:
474,374,3099,6,0,L|410:388,3,50
353,329,3420,1,0,0:0:0:0:
306,309,3500,1,0,0:0:0:0:
257,303,3580,1,0,0:0:0:0:
208,309,3660,1,0,0:0:0:0:
161,328,3741,6,0,L|95:358,3,50
51,278,4061,1,0,0:0:0:0:
34,230,4141,1,0,0:0:0:0:
30,181,4221,1,0,0:0:0:0:
39,132,4301,1,0,0:0:0:0:
60,87,4382,6,0,L|138:80,3,50
158,162,4703,1,0,0:0:0:0:
207,167,4783,1,0,0:0:0:0:
257,165,4863,1,0,0:0:0:0:
306,155,4943,1,0,0:0:0:0:
353,138,5024,6,0,L|408:111,3,50
459,183,5345,1,0,0:0:0:0:
479,227,5425,1,0,0:0:0:0:
472,276,5505,1,0,0:0:0:0:
440,314,5585,1,0,0:0:0:0:
393,328,5666,5,0,0:0:0:0:
373,268,5746,1,0,0:0:0:0:
354,209,5826,1,0,0:0:0:0:
334,150,5906,1,0,0:0:0:0:
315,90,5987,5,0,0:0:0:0:
300,137,6067,1,0,0:0:0:0:
285,185,6147,1,0,0:0:0:0:
270,233,6227,1,0,0:0:0:0:
256,281,6307,5,0,0:0:0:0:
244,245,6387,1,0,0:0:0:0:
232,209,6467,1,0,0:0:0:0:
221,173,6547,1,0,0:0:0:0:
209,138,6628,5,0,0:0:0:0:
201,161,6708,1,0,0:0:0:0:
194,185,6788,1,0,0:0:0:0:
186,209,6868,1,0,0:0:0:0:
179,233,6948,5,0,0:0:0:0:
23,100,7110,2,0,P|44:147|67:165,1,50
203,233,7270,1,0,0:0:0:0:
134,40,7430,2,0,P|128:91|139:118,1,50
228,232,7591,1,0,0:0:0:0:
264,31,7751,2,0,P|233:72|229:101,1,50
253,232,7912,1,0,0:0:0:0:
384,75,8072,2,0,P|337:96|319:118,1,50
278,232,8233,6,0,L|290:302,1,50
415,384,8393,2,0,L|403:314,1,50
306,217,8553,2,0,L|318:287,1,50
443,369,8713,2,0,L|431:299,1,50
334,202,8874,2,0,L|346:272,1,50
471,354,9034,2,0,L|459:284,1,50
362,187,9195,2,0,L|374:257,1,50
499,339,9355,2,0,L|487:269,1,50
469,121,9516,5,0,0:0:0:0:
206,139,9676,2,0,P|244:147|285:173,1,50
433,281,9837,1,0,0:0:0:0:
415,18,9997,2,0,P|405:54|378:89,1,50
249,217,10158,1,0,0:0:0:0:
512,199,10318,2,0,P|481:188|437:158,1,50
316,44,10479,1,0,0:0:0:0:
334,307,10639,2,0,P|340:263|360:223,1,50
473,71,10799,5,0,0:0:0:0:
470,121,10879,1,0,0:0:0:0:
467,171,10960,2,0,L|463:233,1,50
233,184,11120,1,0,0:0:0:0:
277,161,11200,1,0,0:0:0:0:
322,139,11281,2,0,L|378:110,1,50
440,331,11441,1,0,0:0:0:0:
399,303,11521,1,0,0:0:0:0:
357,276,11602,2,0,L|304:241,1,50
172,100,11762,5,0,0:0:0:0:
139,152,11842,1,0,0:0:0:0:
140,213,11922,1,0,0:0:0:0:
174,265,12002,1,0,0:0:0:0:
230,290,12082,5,0,0:0:0:0:
247,180,12243,1,0,0:0:0:0:
333,249,12404,1,0,0:0:0:0:
320,359,12564,1,0,0:0:0:0:
320,359,12644,1,0,0:0:0:0:
320,359,12725,2,0,P|395:348|422:323,1,80
465,243,13045,1,0,0:0:0:0:
448,133,13206,1,0,0:0:0:0:
340,34,13366,5,0,0:0:0:0:
318,124,13527,1,0,0:0:0:0:
340,34,13687,1,0,0:0:0:0:
318,124,13848,1,0,0:0:0:0:
225,111,14008,5,0,0:0:0:0:
247,201,14169,1,0,0:0:0:0:
225,111,14329,2,0,P|186:132|161:185,1,80
166,161,14570,1,0,0:0:0:0:
166,161,14650,5,0,0:0:0:0:
80,134,14810,1,0,0:0:0:0:
60,46,14971,1,0,0:0:0:0:
80,24,15051,1,0,0:0:0:0:
89,52,15131,1,0,0:0:0:0:
109,30,15211,1,0,0:0:0:0:
118,58,15291,2,0,P|173:80|211:73,1,80
287,42,15612,1,0,0:0:0:0:
261,193,15773,1,0,0:0:0:0:
261,193,15853,1,0,0:0:0:0:
261,193,15933,6,0,L|204:188,1,40
106,179,16094,2,0,L|163:184,1,40
260,199,16254,2,0,L|203:189,1,40
106,172,16415,2,0,L|163:182,1,40
258,206,16575,2,0,L|203:191,1,40
108,165,16736,2,0,L|163:180,1,40
256,212,16896,2,0,L|202:193,1,40
110,159,17057,2,0,L|164:178,1,40
247,319,17217,5,0,0:0:0:0:
378,143,17377,2,0,L|384:217,1,50
387,288,17537,1,0,0:0:0:0:
488,129,17698,2,0,L|482:203,1,50
479,274,17858,1,0,0:0:0:0:
366,136,18019,2,0,L|372:210,1,50
375,281,18179,1,0,0:0:0:0:
476,122,18340,2,0,L|470:196,1,50
467,267,18500,5,0,0:0:0:0:
273,269,18660,2,0,L|268:212,1,40
253,115,18820,2,0,L|262:171,1,40
280,269,18981,2,0,L|270:212,1,40
246,117,19141,2,0,L|260:172,1,40
287,267,19302,2,0,L|272:211,1,40
240,119,19462,2,0,L|259:172,1,40
293,265,19623,2,0,L|273:211,1,40
131,113,19783,5,0,0:0:0:0:
364,87,19944,2,0,L|272:98,1,50
196,266,20104,1,0,0:0:0:0:
408,298,20265,2,0,L|316:285,1,50
166,114,20425,1,0,0:0:0:0:
399,88,20586,2,0,L|325:97,1,50
231,267,20746,1,0,0:0:0:0:
443,299,20907,2,0,L|355:287,1,50
275,120,21067,5,0,0:0:0:0:
162,112,21227,1,0,0:0:0:0:
154,225,21388,1,0,0:0:0:0:
267,233,21548,1,0,0:0:0:0:
222,59,21709,5,0,3:0:0:0:
222,59,21869,2,0,L|215:146,1,50
206,285,22029,2,0,L|213:198,1,50
101,164,22190,1,0,0:0:0:0:
327,180,22350,5,0,0:0:0:0:
374,343,22511,1,0,0:0:0:0:
493,75,22671,2,0,P|498:156|489:192,1,100
474,220,22912,1,0,0:0:0:0:
435,251,22992,5,0,0:0:0:0:
386,263,23072,1,0,0:0:0:0:
336,257,23152,1,0,0:0:0:0:
193,195,23313,1,0,0:0:0:0:
306,347,23473,1,0,0:0:0:0:
257,341,23553,1,0,0:0:0:0:
207,336,23634,6,0,L|122:324,1,50
115,139,23794,2,0,L|103:224,1,50
84,312,23955,1,0,0:0:0:0:
288,170,24115,1,0,0:0:0:0:
24,234,24275,1,0,0:0:0:0:
207,336,24436,1,0,0:0:0:0:
117,39,24596,2,0,P|110:89|119:154,1,100
146,217,24837,1,0,0:0:0:0:
146,217,24917,5,0,0:0:0:0:
292,35,25078,1,0,0:0:0:0:
362,232,25238,2,0,P|359:284|334:347,1,100
299,352,25479,1,0,0:0:0:0:
249,359,25559,1,0,0:0:0:0:
203,343,25639,1,0,0:0:0:0:
168,307,25719,1,0,0:0:0:0:
121,291,25799,1,0,0:0:0:0:
72,298,25879,1,0,0:0:0:0:
253,268,26040,1,0,0:0:0:0:
244,218,26120,1,0,0:0:0:0:
236,169,26201,6,0,L|226:111,1,50
404,38,26361,2,0,L|398:76,1,25
441,143,26521,2,0,L|447:105,1,25
408,36,26682,2,0,L|399:73,1,25
436,144,26842,2,0,L|445:107,1,25
413,35,27003,2,0,L|400:71,1,25
431,145,27163,2,0,L|444:109,1,25
418,35,27324,2,0,L|402:70,1,25
356,185,27484,5,0,0:0:0:0:
512,79,27644,1,0,0:0:0:0:
331,33,27805,1,0,0:0:0:0:
327,82,27885,1,0,0:0:0:0:
303,125,27965,1,0,0:0:0:0:
263,154,28045,1,0,0:0:0:0:
214,162,28126,1,0,0:0:0:0:
168,181,28206,1,0,0:0:0:0:
138,220,28286,1,0,0:0:0:0:
133,269,28366,1,0,0:0:0:0:
154,314,28446,1,0,0:0:0:0:
374,233,28607,1,0,0:0:0:0:
324,240,28687,1,0,0:0:0:0:
275,247,28767,5,0,0:0:0:0:
231,47,28928,1,0,0:0:0:0:
431,86,29088,1,0,0:0:0:0:
150,130,29249,1,0,0:0:0:0:
351,0,29409,1,0,0:0:0:0:
324,240,29570,1,0,0:0:0:0:
132,45,29730,2,0,P|115:125|129:164,1,100
161,213,29971,1,0,0:0:0:0:
161,213,30051,5,0,0:0:0:0:
31,82,30211,1,0,0:0:0:0:
229,107,30372,2,0,L|247:217,1,100
268,249,30612,1,0,0:0:0:0:
310,274,30692,1,0,0:0:0:0:
359,274,30772,1,0,0:0:0:0:
401,248,30853,2,0,P|411:220|412:185,1,50
380,36,31013,1,0,0:0:0:0:
234,207,31174,1,0,0:0:0:0:
283,198,31254,1,0,0:0:0:0:
332,190,31334,5,0,0:0:0:0:
120,35,31495,2,0,L|126:84,1,50
147,236,31655,1,0,0:0:0:0:
35,22,31815,2,0,L|41:71,1,50
79,243,31976,1,0,0:0:0:0:
147,236,32056,1,0,0:0:0:0:
215,229,32136,1,0,0:0:0:0:
284,222,32216,1,0,0:0:0:0:
352,215,32296,1,0,0:0:0:0:
325,14,32457,1,0,0:0:0:0:
488,201,32618,5,0,0:0:0:0:
475,185,32778,1,0,0:0:0:0:
456,190,32938,1,0,0:0:0:0:
456,210,33099,1,0,0:0:0:0:
475,216,33259,2,0,P|472:271|448:316,1,100
275,316,33580,2,0,P|253:271|252:221,1,100
370,22,33901,5,0,0:0:0:0:
372,71,33981,1,0,0:0:0:0:
349,115,34061,1,0,0:0:0:0:
308,142,34141,1,0,0:0:0:0:
259,146,34221,1,0,0:0:0:0:
214,125,34302,1,0,0:0:0:0:
166,113,34382,1,0,0:0:0:0:
116,115,34462,1,0,0:0:0:0:
68,131,34543,2,0,P|50:176|62:239,1,100
234,311,34864,2,0,P|252:266|240:203,1,100
156,41,35184,6,0,L|147:98,1,40
214,125,35345,2,0,L|223:182,1,40
129,216,35505,2,0,L|122:255,1,40
250,313,35666,1,0,0:0:0:0:
247,293,35746,1,0,0:0:0:0:
244,274,35826,5,0,0:0:0:0:
292,281,35906,1,0,0:0:0:0:
336,259,35986,1,0,0:0:0:0:
359,216,36066,1,0,0:0:0:0:
353,167,36146,1,0,0:0:0:0:
304,174,36227,1,0,0:0:0:0:
260,152,36307,1,0,0:0:0:0:
237,109,36387,1,0,0:0:0:0:
243,60,36468,6,0,L|307:53,1,40
414,60,36628,1,0,0:0:0:0:
414,60,36709,1,0,0:0:0:0:
414,60,36789,2,0,L|350:53,1,40
178,147,36949,1,0,0:0:0:0:
178,147,37030,1,0,0:0:0:0:
178,147,37110,2,0,L|242:140,1,40
297,131,37270,1,0,0:0:0:0:
447,154,37430,2,0,B|444:192|458:233|458:233|429:224|429:224|444:257|440:298,1,179.999994506836
386,361,37751,5,0,0:0:0:0:
261,176,37912,1,0,0:0:0:0:
243,315,38072,1,0,0:0:0:0:
118,130,38233,1,0,0:0:0:0:
102,177,38313,1,0,0:0:0:0:
101,227,38393,1,0,0:0:0:0:
87,222,38473,1,0,0:0:0:0:
72,217,38553,1,0,0:0:0:0:
94,261,38634,1,0,0:0:0:0:
128,297,38714,1,0,0:0:0:0:
114,303,38794,1,0,0:0:0:0:
100,310,38874,1,0,0:0:0:0:
147,325,38955,1,0,0:0:0:0:
196,327,39035,6,0,L|286:317,1,80
441,233,39356,2,0,L|351:243,1,80
227,141,39676,2,0,L|234:197,1,50
306,155,39997,2,0,L|300:105,1,50
111,48,40318,5,0,0:0:0:0:
115,85,40398,1,0,0:0:0:0:
119,122,40478,1,0,0:0:0:0:
123,159,40558,1,0,0:0:0:0:
127,197,40639,1,0,0:0:0:0:
157,175,40719,1,0,0:0:0:0:
193,164,40799,1,0,0:0:0:0:
230,164,40879,1,0,0:0:0:0:
266,175,40959,5,0,0:0:0:0:
261,212,41040,1,0,0:0:0:0:
257,249,41120,1,0,0:0:0:0:
253,286,41200,1,0,0:0:0:0:
250,324,41281,1,0,0:0:0:0:
219,302,41361,1,0,0:0:0:0:
183,291,41441,1,0,0:0:0:0:
146,291,41521,1,0,0:0:0:0:
110,302,41602,5,0,0:0:0:0:
81,308,41683,1,0,0:0:0:0:
87,337,41763,1,0,0:0:0:0:
116,330,41844,1,0,0:0:0:0:
104,310,41922,5,0,0:0:0:0:
89,313,42003,1,0,0:0:0:0:
92,328,42083,1,0,0:0:0:0:
107,324,42164,1,0,0:0:0:0:
101,314,42243,5,0,0:0:0:0:
94,316,42324,1,0,0:0:0:0:
95,323,42404,1,0,0:0:0:0:
102,321,42485,1,0,0:0:0:0:
98,319,42564,5,0,0:0:0:0:
443,327,42885,5,0,0:0:0:0:
408,291,42965,1,0,0:0:0:0:
386,246,43045,1,0,0:0:0:0:
380,197,43125,1,0,0:0:0:0:
390,148,43206,1,0,0:0:0:0:
374,102,43286,1,0,0:0:0:0:
335,73,43366,1,0,0:0:0:0:
286,71,43446,1,0,0:0:0:0:
245,99,43526,5,0,0:0:0:0:
204,71,43607,1,0,0:0:0:0:
154,72,43687,1,0,0:0:0:0:
115,101,43767,1,0,0:0:0:0:
99,148,43848,1,0,0:0:0:0:
103,197,43928,1,0,0:0:0:0:
132,236,44008,1,0,0:0:0:0:
178,256,44088,1,0,0:0:0:0:
227,249,44168,6,0,L|292:238,3,50
391,182,44489,2,0,L|341:173,3,50
489,259,44810,5,0,0:0:0:0:
486,307,44890,1,0,0:0:0:0:
453,344,44970,1,0,0:0:0:0:
405,353,45050,1,0,0:0:0:0:
359,332,45131,1,0,0:0:0:0:
310,320,45211,1,0,0:0:0:0:
260,323,45291,1,0,0:0:0:0:
213,339,45371,1,0,0:0:0:0:
172,367,45452,6,0,L|86:355,3,50
56,301,45773,1,0,0:0:0:0:
50,251,45853,1,0,0:0:0:0:
45,201,45933,1,0,0:0:0:0:
40,151,46013,1,0,0:0:0:0:
34,102,46094,6,0,L|28:47,3,50
134,102,46414,1,0,0:0:0:0:
184,96,46494,1,0,0:0:0:0:
234,91,46574,1,0,0:0:0:0:
284,86,46654,1,0,0:0:0:0:
333,80,46735,5,0,0:0:0:0:
369,130,46815,1,0,0:0:0:0:
381,190,46895,1,0,0:0:0:0:
367,251,46975,1,0,0:0:0:0:
329,300,47056,5,0,0:0:0:0:
291,269,47136,1,0,0:0:0:0:
272,223,47216,1,0,0:0:0:0:
278,174,47296,1,0,0:0:0:0:
308,135,47377,5,0,0:0:0:0:
334,160,47457,1,0,0:0:0:0:
347,195,47537,1,0,0:0:0:0:
344,232,47617,1,0,0:0:0:0:
326,265,47698,5,0,0:0:0:0:
311,245,47778,1,0,0:0:0:0:
303,221,47858,1,0,0:0:0:0:
302,196,47938,1,0,0:0:0:0:
310,172,48019,6,0,L|369:165,3,50
453,167,48340,1,0,0:0:0:0:
474,211,48420,1,0,0:0:0:0:
485,259,48500,1,0,0:0:0:0:
486,309,48580,1,0,0:0:0:0:
477,358,48660,6,0,L|422:357,3,50
350,300,48981,1,0,0:0:0:0:
300,290,49061,1,0,0:0:0:0:
251,288,49141,1,0,0:0:0:0:
201,294,49221,1,0,0:0:0:0:
153,307,49302,5,0,0:0:0:0:
169,260,49382,1,0,0:0:0:0:
159,211,49462,1,0,0:0:0:0:
125,175,49542,1,0,0:0:0:0:
78,161,49623,1,0,0:0:0:0:
51,120,49703,1,0,0:0:0:0:
58,71,49783,1,0,0:0:0:0:
95,40,49863,1,0,0:0:0:0:
144,41,49944,5,0,0:0:0:0:
164,87,50024,1,0,0:0:0:0:
202,118,50104,1,0,0:0:0:0:
251,128,50184,1,0,0:0:0:0:
298,114,50264,1,0,0:0:0:0:
345,100,50345,1,0,0:0:0:0:
394,110,50425,1,0,0:0:0:0:
432,141,50505,1,0,0:0:0:0:
451,187,50586,6,0,L|459:252,3,50
369,340,50906,2,0,L|375:290,3,50
314,195,51227,5,0,0:0:0:0:
264,202,51307,1,0,0:0:0:0:
215,209,51387,1,0,0:0:0:0:
165,217,51467,1,0,0:0:0:0:
116,224,51547,1,0,0:0:0:0:
123,174,51628,1,0,0:0:0:0:
130,125,51708,1,0,0:0:0:0:
138,75,51788,1,0,0:0:0:0:
145,26,51869,5,0,0:0:0:0:
170,53,51949,1,0,0:0:0:0:
202,71,52029,1,0,0:0:0:0:
239,77,52109,1,0,0:0:0:0:
295,78,52190,5,0,0:0:0:0:
269,105,52270,1,0,0:0:0:0:
237,123,52350,1,0,0:0:0:0:
200,129,52430,1,0,0:0:0:0:
144,126,52511,5,0,0:0:0:0:
170,153,52591,1,0,0:0:0:0:
202,171,52671,1,0,0:0:0:0:
239,177,52751,1,0,0:0:0:0:
294,172,52832,5,0,0:0:0:0:
268,199,52912,1,0,0:0:0:0:
236,217,52992,1,0,0:0:0:0:
199,223,53072,1,0,0:0:0:0:
144,219,53152,5,0,0:0:0:0:
403,67,57163,6,0,P|408:115|390:166,1,80
204,250,57484,2,0,P|243:221|296:211,1,80
356,215,57805,1,0,0:0:0:0:
463,330,57965,2,0,P|418:310|383:269,1,80
329,105,58286,5,0,0:0:0:0:
85,62,58767,1,0,0:0:0:0:
108,208,58928,1,0,0:0:0:0:
249,89,59249,2,0,L|145:73,1,80
20,130,59570,5,0,0:0:0:0:
21,144,59650,1,0,0:0:0:0:
22,159,59730,1,0,0:0:0:0:
24,174,59810,1,0,0:0:0:0:
49,199,59890,5,0,0:0:0:0:
48,213,59970,1,0,0:0:0:0:
47,228,60050,1,0,0:0:0:0:
45,243,60130,1,0,0:0:0:0:
20,268,60211,5,0,0:0:0:0:
21,282,60291,1,0,0:0:0:0:
22,297,60371,1,0,0:0:0:0:
24,312,60451,1,0,0:0:0:0:
49,337,60532,2,0,P|89:346|135:334,1,80
247,218,60853,5,0,0:0:0:0:
473,162,61334,1,0,0:0:0:0:
332,77,61494,1,0,0:0:0:0:
388,303,61815,2,0,L|306:293,1,80
154,203,62136,5,0,0:0:0:0:
149,217,62216,1,0,0:0:0:0:
147,232,62296,1,0,0:0:0:0:
148,246,62376,1,0,0:0:0:0:
127,277,62457,5,0,0:0:0:0:
134,290,62537,1,0,0:0:0:0:
143,302,62617,1,0,0:0:0:0:
154,312,62697,1,0,0:0:0:0:
160,348,62778,5,0,0:0:0:0:
174,352,62858,1,0,0:0:0:0:
189,354,62938,1,0,0:0:0:0:
204,353,63018,1,0,0:0:0:0:
233,374,63099,2,0,P|277:356|307:308,1,80
331,178,63420,5,0,0:0:0:0:
157,30,63901,1,0,0:0:0:0:
179,171,64061,1,0,0:0:0:0:
355,25,64382,2,0,L|341:120,1,80
271,262,64703,5,0,0:0:0:0:
285,259,64783,1,0,0:0:0:0:
300,257,64863,1,0,0:0:0:0:
315,255,64943,1,0,0:0:0:0:
348,269,65024,5,0,0:0:0:0:
355,256,65104,1,0,0:0:0:0:
363,244,65184,2,0,L|396:192,1,40
449,169,65345,5,0,0:0:0:0:
446,155,65425,1,0,0:0:0:0:
444,140,65505,1,0,0:0:0:0:
442,125,65585,1,0,0:0:0:0:
416,99,65666,2,0,P|356:90|318:102,1,80
163,193,65987,6,0,L|342:180,1,160
165,27,66789,1,0,0:0:0:0:
133,119,66949,1,0,0:0:0:0:
86,13,67110,1,0,0:0:0:0:
48,153,67270,5,0,0:0:0:0:
208,93,67430,1,0,0:0:0:0:
48,153,67591,5,0,0:0:0:0:
216,181,67751,1,0,0:0:0:0:
48,153,67912,5,0,0:0:0:0:
179,261,68072,1,0,0:0:0:0:
48,153,68233,5,0,0:0:0:0:
107,312,68393,1,0,0:0:0:0:
208,93,68553,5,0,0:0:0:0:
179,261,68714,1,0,0:0:0:0:
299,86,68874,5,0,0:0:0:0:
270,254,69035,1,0,0:0:0:0:
390,79,69195,5,0,0:0:0:0:
361,247,69356,2,0,L|351:300,1,40
241,175,69516,2,0,L|345:169,1,80
475,239,69837,5,0,0:0:0:0:
256,192,73687,5,0,0:0:0:0:
337,256,73848,2,0,L|342:214,1,25
352,133,74008,2,0,L|347:175,1,25
342,256,74168,2,0,L|343:213,1,25
346,132,74328,2,0,L|344:174,1,25
347,256,74489,2,0,L|344:213,1,25
341,132,74649,2,0,L|343:174,1,25
353,255,74810,2,0,L|346:213,1,25
256,192,74971,5,0,0:0:0:0:
161,180,75131,1,0,0:0:0:0:
85,238,75291,1,0,0:0:0:0:
72,332,75452,1,0,0:0:0:0:
192,303,75612,6,0,L|198:248,1,40
165,140,75773,2,0,L|159:195,1,40
75,249,75933,2,0,L|130:255,1,40
282,194,76094,2,0,L|227:188,1,40
75,130,76254,6,0,L|82:178,3,40
139,20,76575,2,0,L|133:59,1,40
251,119,76735,2,0,L|245:79,1,40
313,17,76896,5,0,0:0:0:0:
337,14,76976,1,0,0:0:0:0:
362,18,77056,1,0,0:0:0:0:
385,27,77136,1,0,0:0:0:0:
405,42,77216,1,0,0:0:0:0:
422,60,77297,1,0,0:0:0:0:
433,82,77377,1,0,0:0:0:0:
440,107,77457,1,0,0:0:0:0:
440,132,77537,6,0,L|428:226,1,80
328,253,77778,1,0,0:0:0:0:
328,253,77858,2,0,L|340:159,1,80
352,89,78099,1,0,0:0:0:0:
352,89,78179,1,0,0:0:0:0:
195,134,78340,1,0,0:0:0:0:
195,134,78420,1,0,0:0:0:0:
195,134,78500,1,0,0:0:0:0:
226,294,78660,1,0,0:0:0:0:
226,294,78740,1,0,0:0:0:0:
226,294,78821,6,0,L|141:302,1,64.9999970245363
56,217,79142,2,0,L|62:281,1,64.9999970245363
2,372,79463,2,0,L|131:384,2,129.999994049073
269,122,81067,6,0,P|274:164|234:120,1,150
370,66,81388,5,0,0:0:0:0:
354,270,81548,1,0,0:0:0:0:
477,46,81709,1,0,0:0:0:0:
247,290,81869,1,0,0:0:0:0:
247,290,81949,1,0,0:0:0:0:
247,290,82029,1,0,0:0:0:0:
461,250,82190,1,0,0:0:0:0:
247,180,82350,1,0,0:0:0:0:
184,193,82430,1,0,0:0:0:0:
140,239,82510,1,0,0:0:0:0:
129,302,82590,1,0,0:0:0:0:
157,360,82670,5,0,0:0:0:0:
325,231,82832,1,0,0:0:0:0:
59,193,82992,1,0,0:0:0:0:
250,378,83152,1,0,0:0:0:0:
189,75,83313,2,0,P|162:133|162:197,1,129.999994049073
380,304,83634,1,0,0:0:0:0:
321,278,83714,1,0,0:0:0:0:
281,227,83794,1,0,0:0:0:0:
271,163,83874,1,0,0:0:0:0:
293,102,83954,5,0,0:0:0:0:
469,94,84115,1,0,0:0:0:0:
203,4,84275,2,0,P|185:55|186:145,1,129.999994049073
202,205,84516,1,0,0:0:0:0:
202,205,84596,1,0,0:0:0:0:
296,12,84757,1,0,0:0:0:0:
102,125,84917,1,0,0:0:0:0:
395,91,85078,1,0,0:0:0:0:
203,4,85238,5,0,0:0:0:0:
275,263,85398,2,0,L|291:177,1,64.9999970245363
430,76,85559,2,0,L|441:139,1,64.9999970245363
471,317,85719,2,0,L|407:305,1,64.9999970245363
189,362,85880,2,0,L|262:353,1,64.9999970245363
429,231,86040,2,0,L|356:222,1,64.9999970245363
113,130,86201,1,0,0:0:0:0:
115,194,86281,1,0,0:0:0:0:
152,246,86361,1,0,0:0:0:0:
211,272,86441,1,0,0:0:0:0:
275,270,86521,6,0,P|332:259|414:234,1,129.999994049073
491,60,86842,1,0,0:0:0:0:
426,65,86922,1,0,0:0:0:0:
361,70,87002,1,0,0:0:0:0:
296,75,87082,1,0,0:0:0:0:
231,80,87162,1,0,0:0:0:0:
152,246,87324,1,0,0:0:0:0:
376,191,87484,1,0,0:0:0:0:
316,166,87564,1,0,0:0:0:0:
251,168,87644,1,0,0:0:0:0:
193,196,87724,1,0,0:0:0:0:
151,245,87804,5,0,0:0:0:0:
397,280,87965,1,0,0:0:0:0:
214,57,88126,1,0,0:0:0:0:
252,338,88287,1,0,0:0:0:0:
403,95,88447,1,0,0:0:0:0:
397,280,88607,1,0,0:0:0:0:
214,57,88767,1,0,0:0:0:0:
180,112,88847,1,0,0:0:0:0:
164,176,88927,1,0,0:0:0:0:
163,241,89007,1,0,0:0:0:0:
183,301,89087,5,0,0:0:0:0:
289,144,89249,1,0,0:0:0:0:
40,62,89409,2,0,P|20:114|21:197,1,129.999994049073
45,263,89650,1,0,0:0:0:0:
45,263,89730,1,0,0:0:0:0:
197,75,89890,1,0,0:0:0:0:
182,381,90051,1,0,0:0:0:0:
96,154,90211,1,0,0:0:0:0:
393,180,90372,5,0,0:0:0:0:
194,258,90532,2,0,P|240:275|279:276,1,64.9999970245363
486,251,90693,1,0,0:0:0:0:
194,102,90853,2,0,P|240:85|279:84,1,64.9999970245363
486,109,91014,1,0,0:0:0:0:
298,355,91174,1,0,0:0:0:0:
263,180,91334,2,0,B|199:188|147:170|147:170|133:204|133:204|112:192|98:176,1,194.999991073609
49,92,91655,5,0,0:0:0:0:
121,97,91735,1,0,0:0:0:0:
194,102,91815,1,0,0:0:0:0:
267,107,91895,1,0,0:0:0:0:
340,112,91976,2,0,P|363:163|356:243,1,129.999994049073
309,288,92217,1,0,0:0:0:0:
290,219,92297,1,0,0:0:0:0:
472,285,92457,1,0,0:0:0:0:
224,351,92618,1,0,0:0:0:0:
175,308,92698,1,0,0:0:0:0:
149,249,92778,1,0,0:0:0:0:
151,184,92858,1,0,0:0:0:0:
180,127,92938,5,0,0:0:0:0:
466,88,93099,2,0,L|450:161,1,64.9999970245363
147,142,93259,1,0,0:0:0:0:
432,103,93420,2,0,L|416:176,1,64.9999970245363
113,157,93580,1,0,0:0:0:0:
398,118,93741,2,0,L|382:191,1,64.9999970245363
79,274,93901,5,0,0:0:0:0:
79,172,94008,5,0,0:0:0:0:
170,224,94115,5,0,0:0:0:0:
170,326,94222,6,0,P|211:347|301:315,1,129.999994049073
398,118,94543,1,0,0:0:0:0:
233,262,94703,1,0,0:0:0:0:
233,262,94783,1,0,0:0:0:0:
233,262,94864,1,0,0:0:0:0:
459,229,95024,1,0,0:0:0:0:
294,373,95184,1,0,0:0:0:0:
323,89,95345,1,0,0:0:0:0:
376,270,95505,5,0,0:0:0:0:
112,222,95666,2,0,P|121:270|147:295,1,64.9999970245363
342,255,95826,1,0,0:0:0:0:
78,207,95987,2,0,P|87:255|113:280,1,64.9999970245363
308,240,96147,1,0,0:0:0:0:
44,192,96308,2,0,P|53:240|79:265,1,64.9999970245363
274,225,96468,1,0,0:0:0:0:
244,159,96548,1,0,0:0:0:0:
254,87,96628,1,0,0:0:0:0:
300,33,96708,1,0,0:0:0:0:
369,11,96789,5,0,0:0:0:0:
390,54,96869,1,0,0:0:0:0:
385,102,96949,1,0,0:0:0:0:
380,150,97029,1,0,0:0:0:0:
401,193,97109,1,0,0:0:0:0:
398,212,97190,1,0,0:0:0:0:
395,231,97270,1,0,0:0:0:0:
392,250,97350,1,0,0:0:0:0:
389,269,97430,5,0,0:0:0:0:
346,290,97511,1,0,0:0:0:0:
298,285,97591,1,0,0:0:0:0:
250,280,97671,1,0,0:0:0:0:
207,301,97751,1,0,0:0:0:0:
143,312,97831,1,0,0:0:0:0:
84,288,97911,1,0,0:0:0:0:
46,236,97991,1,0,0:0:0:0:
41,172,98071,5,0,0:0:0:0:
157,59,98233,2,0,L|222:52,1,64.9999970245363
289,209,98393,2,0,L|224:201,1,64.9999970245363
17,80,98553,2,0,L|81:72,1,64.9999970245363
325,134,98714,2,0,L|260:126,1,64.9999970245363
106,214,98874,2,0,L|113:149,1,64.9999970245363
328,46,99035,1,0,0:0:0:0:
395,70,99115,1,0,0:0:0:0:
435,130,99195,1,0,0:0:0:0:
431,202,99275,1,0,0:0:0:0:
385,257,99356,6,0,P|346:268|304:265,1,64.9999970245363
216,103,99516,2,0,P|245:131|263:169,1,64.9999970245363
168,327,99676,2,0,P|177:287|201:252,1,64.9999970245363
352,159,99837,1,0,0:0:0:0:
352,159,99917,1,0,0:0:0:0:
352,159,99997,5,0,0:0:0:0:
414,146,100077,1,0,0:0:0:0:
460,100,100157,1,0,0:0:0:0:
414,54,100238,1,0,0:0:0:0:
351,41,100318,2,0,L|289:46,2,32.4999985122681
226,38,100479,2,0,L|201:148,1,64.9999970245363
95,282,100639,5,0,0:0:0:0:
72,14,100799,1,0,0:0:0:0:
273,213,100960,1,0,0:0:0:0:
208,203,101040,1,0,0:0:0:0:
144,193,101120,1,0,0:0:0:0:
80,184,101200,1,0,0:0:0:0:
15,174,101280,1,0,0:0:0:0:
211,101,101441,1,0,0:0:0:0:
43,357,101602,2,0,P|10:305|6:221,1,129.999994049073
54,30,101922,5,0,0:0:0:0:
