osu file format v14

[General]
AudioFilename: audio.mp3
AudioLeadIn: 0
PreviewTime: 77400
Countdown: 0
SampleSet: Soft
StackLeniency: 0.2
Mode: 0
LetterboxInBreaks: 0
WidescreenStoryboard: 1

[Editor]
DistanceSpacing: 0.8
BeatDivisor: 4
GridSize: 32
TimelineZoom: 1.5

[Metadata]
Title:Sakura Mirage (MYTK Remix)
TitleUnicode:Sakura Mirage (MYTK Remix)
Artist:Ryu*
ArtistUnicode:Ryu☆
Creator:Leader
Version:Normal
Source:REFLEC BEAT groovin'!!
Tags:paradogi nerova riuz gx saturnalize dubstep まいたけ ryutaro nakahara SDVX 2 SOUND VOLTEX II -infinite infection- beatmania IIDX 22 PENDUAL DanceDanceRevolution ddr electronic video game instrumental
BeatmapID:2267387
BeatmapSetID:1078566

[Difficulty]
HPDrainRate:3
CircleSize:3
OverallDifficulty:4
ApproachRate:5
SliderMultiplier:1.2
SliderTickRate:1

[Events]
//Background and Video events
0,0,"Konachan.com - 281049 sample.jpg",0,0
//Break Periods
//Storyboard Layer 0 (Background)
//Storyboard Layer 1 (Fail)
//Storyboard Layer 2 (Pass)
//Storyboard Layer 3 (Foreground)
//Storyboard Layer 4 (Overlay)
//Storyboard Sound Samples

[TimingPoints]
1200,400,4,2,54,80,1,0
1500,-100,4,2,54,5,0,0
1600,-100,4,2,54,80,0,0
3100,-100,4,2,54,5,0,0
3200,-100,4,2,54,80,0,0
12300,-100,4,2,53,80,0,0
13300,-100,4,2,52,80,0,0
14000,-100,4,2,53,80,0,0
14300,-100,4,1,69,100,0,0
14400,-100,4,1,69,80,0,0
14500,-100,4,2,69,80,0,0
17600,-100,4,1,69,80,0,0
17700,-100,4,2,69,80,0,0
19950,-100,4,2,52,80,0,0
20400,-100,4,2,53,80,0,0
20800,-100,4,1,53,80,0,0
20900,-100,4,2,53,80,0,0
23200,-100,4,2,53,80,0,0
23600,-100,4,2,53,80,0,0
26150,-100,4,2,52,40,0,0
26200,-100,4,2,52,80,0,0
26800,-100,4,2,53,80,0,0
27600,-100,4,2,53,80,0,0
29600,-100,4,2,53,80,0,0
30800,-100,4,2,53,80,0,0
30825,-100,4,2,53,5,0,0
30875,-100,4,2,52,5,0,0
30900,-100,4,2,52,80,0,0
31025,-100,4,2,52,5,0,0
31100,-100,4,2,52,80,0,0
31425,-100,4,2,52,5,0,0
31500,-100,4,2,52,80,0,0
31575,-100,4,2,53,80,0,0
33550,-100,4,2,52,80,0,0
33800,-100,4,2,53,80,0,0
36000,-100,4,2,53,80,0,0
37100,-100,4,2,52,80,0,0
37600,-100,4,2,53,80,0,0
38000,-100,4,2,52,80,0,0
39400,-100,4,2,52,80,0,0
39600,-100,4,2,53,80,0,0
41000,-100,4,2,53,80,0,0
42400,-100,4,2,52,80,0,0
42800,-100,4,2,53,80,0,0
43200,-100,4,2,53,80,0,0
45000,-100,4,2,53,80,0,0
45200,-100,4,2,53,80,0,0
47400,-100,4,2,53,80,0,0
47900,-100,4,2,53,80,0,0
48200,-100,4,2,53,80,0,0
48400,-100,4,2,53,80,0,0
48800,-100,4,2,53,80,0,0
49000,-100,4,2,53,80,0,0
49200,-100,4,2,53,80,0,0
50400,-100,4,2,53,80,0,0
50800,-100,4,2,53,80,0,0
52050,-100,4,2,52,80,0,0
52400,-100,4,2,53,80,0,0
57200,-100,4,2,69,80,0,0
58350,-100,4,2,52,80,0,0
58650,-100,4,2,52,60,0,0
58800,-100,4,2,53,80,0,0
59000,-100,4,2,53,80,0,0
59200,-100,4,2,53,50,0,0
59400,-100,4,2,53,80,0,0
59600,-100,4,2,53,50,0,0
59800,-100,4,2,53,80,0,0
60000,-100,4,2,53,80,0,0
60200,-100,4,2,53,80,0,0
60400,-100,4,2,53,80,0,0
60600,-100,4,2,53,80,0,0
60800,-100,4,2,53,80,0,0
61000,-100,4,2,53,80,0,0
61200,-100,4,2,53,80,0,0
61400,-100,4,2,53,80,0,0
61600,-100,4,2,53,80,0,0
62200,-100,4,2,53,80,0,0
62400,-100,4,2,53,80,0,0
62600,-100,4,2,53,80,0,0
62800,-100,4,2,53,80,0,0
63000,-100,4,2,53,80,0,0
63200,-100,4,2,53,80,0,0
63400,-100,4,2,53,80,0,0
63600,-100,4,2,53,80,0,0
63800,-100,4,2,53,80,0,0
64000,-100,4,2,53,80,0,0
64200,-100,4,2,53,80,0,0
64400,-100,4,2,53,80,0,0
64600,-100,4,2,53,80,0,0
64800,-100,4,2,53,80,0,0
65300,-100,4,2,53,40,0,0
65400,-100,4,2,53,80,0,0
65600,-100,4,2,53,80,0,0
65700,-100,4,2,53,40,0,0
65800,-100,4,2,53,80,0,0
66000,-100,4,2,53,80,0,0
66100,-100,4,2,53,40,0,0
66200,-100,4,2,53,80,0,0
66400,-100,4,2,53,80,0,0
66500,-100,4,2,53,40,0,0
66600,-100,4,2,53,80,0,0
66800,-100,4,2,53,80,0,0
66900,-100,4,2,53,40,0,0
67000,-100,4,2,53,80,0,0
67100,-100,4,2,53,40,0,0
67200,-100,4,2,53,80,0,0
67300,-100,4,2,53,40,0,0
67400,-100,4,2,53,80,0,0
67500,-100,4,2,53,40,0,0
67600,-100,4,2,53,80,0,0
67700,-100,4,2,53,40,0,0
67800,-100,4,2,53,80,0,0
67900,-100,4,2,53,40,0,0
68000,-100,4,2,53,80,0,0
68100,-100,4,2,53,40,0,0
68200,-100,4,2,53,80,0,0
68300,-100,4,2,53,40,0,0
68400,-100,4,2,53,80,0,0
68450,-100,4,2,53,100,0,0
68500,-100,4,2,53,80,0,0
69750,-100,4,2,67,80,0,0
69975,-100,4,2,67,80,0,0
70025,-100,4,2,67,5,0,0
70050,-100,4,2,67,80,0,0
70075,-100,4,2,67,5,0,0
70100,-100,4,2,67,80,0,0
70125,-100,4,2,67,5,0,0
70150,-100,4,2,67,80,0,0
70175,-100,4,2,67,5,0,0
70200,-100,4,2,67,80,0,0
70225,-100,4,2,67,5,0,0
70250,-100,4,2,67,80,0,0
70275,-100,4,2,67,5,0,0
70300,-100,4,2,67,80,0,0
70325,-100,4,2,67,5,0,0
70350,-100,4,2,67,80,0,0
70375,-100,4,2,67,5,0,0
70400,-100,4,2,67,80,0,0
70425,-100,4,2,67,5,0,0
70450,-100,4,2,67,80,0,0
70475,-100,4,2,67,5,0,0
70500,-100,4,2,67,80,0,0
70525,-100,4,2,67,5,0,0
70550,-100,4,2,67,80,0,0
70575,-100,4,2,67,5,0,0
70600,-100,4,2,67,80,0,0
70633,-100,4,2,67,5,0,0
70666,-100,4,2,67,80,0,0
70700,-100,4,2,67,5,0,0
70733,-100,4,2,67,80,0,0
70766,-100,4,2,67,5,0,0
70800,-100,4,2,67,80,0,0
70833,-100,4,2,67,5,0,0
70866,-100,4,2,67,80,0,0
70900,-100,4,2,67,5,0,0
70933,-100,4,2,67,80,0,0
70966,-100,4,2,67,5,0,0
71000,-100,4,2,67,80,0,0
71050,-100,4,2,67,5,0,0
71100,-100,4,2,67,80,0,0
71150,-100,4,2,67,5,0,0
71200,-100,4,2,67,80,0,0
71250,-100,4,2,67,5,0,0
71300,-100,4,2,67,80,0,0
71350,-100,4,2,67,5,0,0
71400,-100,4,2,67,80,0,0
71450,-100,4,2,67,5,0,0
71500,-100,4,2,67,80,0,0
71550,-100,4,2,67,5,0,0
71600,-100,4,2,54,80,0,0
77600,-100,4,2,53,80,0,0
80600,-100,4,2,53,100,0,0
80650,-100,4,2,52,100,0,0
80700,-100,4,2,52,40,0,0
80800,-100,4,2,52,60,0,0
80900,-100,4,2,52,80,0,0
81100,-100,4,2,54,100,0,0
81200,-100,4,2,54,80,0,0
81400,-100,4,2,54,100,0,0
81600,-100,4,2,54,80,0,0
81800,-100,4,2,54,100,0,0
82000,-100,4,2,54,80,0,0
83600,-100,4,2,53,80,0,0
83800,-100,4,2,53,100,0,0
84400,-100,4,2,53,80,0,0
85800,-100,4,2,54,100,0,0
86000,-100,4,2,54,80,0,0
86900,-100,4,2,52,80,0,0
87500,-100,4,2,53,80,0,0
88100,-100,4,2,53,100,0,0
88200,-100,4,2,53,80,0,0
88300,-100,4,2,53,100,0,0
88400,-100,4,2,53,80,0,0
88600,-100,4,2,53,100,0,0
88800,-100,4,2,53,80,0,0
90300,-100,4,2,53,100,0,0
90400,-100,4,2,53,80,0,0
91000,-100,4,2,53,100,0,0
91200,-100,4,2,53,80,0,0
93600,-100,4,2,52,80,0,0
94000,-100,4,2,53,80,0,0
95000,-100,4,2,53,100,0,0
95200,-100,4,2,53,80,0,0
96500,-100,4,2,53,100,0,0
96600,-100,4,2,53,80,0,0
96700,-100,4,2,53,100,0,0
96800,-100,4,2,53,80,0,0
97400,-100,4,2,53,100,0,0
97600,-100,4,2,53,80,0,0
101300,-100,4,2,53,100,0,0
101400,-100,4,2,53,80,0,0
102500,-100,4,2,53,100,0,0
102600,-100,4,2,53,80,0,0
102700,-100,4,2,53,100,0,0
102800,-100,4,2,53,80,0,0
105300,-100,4,2,53,100,0,0
105400,-100,4,2,53,80,0,0
106350,-100,4,2,52,80,0,0
106800,-100,4,2,53,80,0,0
109200,-100,4,2,53,100,0,0
109400,-100,4,2,53,80,0,0
109500,-100,4,2,53,100,0,0
109600,-100,4,2,53,80,0,0
110900,-100,4,2,52,80,0,0
111300,-100,4,2,52,100,0,0
111400,-100,4,2,52,80,0,0
111500,-100,4,2,52,100,0,0
111600,-100,4,2,53,80,0,0
111800,-100,4,2,53,100,0,0
112000,-100,4,2,53,80,0,0
112200,-100,4,2,53,100,0,0
112400,-100,4,2,53,80,0,0
112600,-100,4,2,53,100,0,0
113200,-100,4,2,99,80,0,0
113950,-100,4,2,99,100,0,0
114000,-100,4,2,99,80,0,0

[Colours]
Combo1 : 217,239,255
Combo2 : 255,213,214
Combo3 : 238,238,238
Combo4 : 255,206,157

[HitObjects]
77,123,1200,6,0,P|87:171|87:252,1,120,4|0,1:3|0:0,0:0:0:0:
84,289,1800,1,0,0:0:0:0:
76,336,2000,2,0,L|216:356,1,120,8|2,0:0|0:0,0:0:0:0:
271,295,2800,2,0,P|317:288|380:352,1,120,0|0,1:0|0:0,0:0:0:0:
466,353,3600,2,0,L|470:289,1,60,8|0,0:0|0:0,0:0:0:0:
430,265,4000,2,0,L|423:194,1,60,2|0,0:0|0:0,0:0:0:0:
447,163,4400,6,0,L|512:149,2,60,0|0|0,1:0|0:0|0:0,0:0:0:0:
370,104,5200,2,0,L|305:90,2,60,8|0|2,0:0|0:0|0:0,0:0:0:0:
329,190,6000,2,0,P|284:201|207:167,1,120,0|0,1:0|0:0,0:0:0:0:
182,142,6600,1,0,0:0:0:0:
147,108,6800,2,0,P|150:159|141:242,1,120,8|2,0:0|0:0,0:0:0:0:
172,319,7600,6,0,P|247:325|305:334,1,120,0|0,1:0|0:0,0:0:0:0:
338,341,8200,1,0,0:0:0:0:
324,294,8400,2,0,P|325:244|334:174,1,120,8|2,0:0|0:0,0:0:0:0:
350,79,9200,1,0,1:0:0:0:
265,124,9600,2,0,P|226:115|201:102,1,60
170,77,10000,1,8,0:0:0:0:
75,58,10400,1,2,0:0:0:0:
104,151,10800,6,0,P|111:209|103:277,1,120,0|0,1:0|0:0,0:0:0:0:
99,317,11400,1,0,0:0:0:0:
85,363,11600,2,0,L|11:372,2,60
180,360,12400,2,0,P|242:361|322:375,1,120,0|2,1:0|0:0,0:0:0:0:
389,336,13200,1,2,0:0:0:0:
389,336,13400,2,0,P|393:289|408:205,1,120,2|10,0:0|0:3,0:0:0:0:
424,173,14000,5,4,1:3:0:0:
352,109,14400,1,0,3:0:0:0:
320,199,14800,2,0,L|254:208,1,60,0|0,1:0|0:0,0:0:0:0:
227,171,15200,2,0,L|166:164,1,60,2|8,3:2|0:0,0:0:0:0:
131,132,15600,1,0,1:0:0:0:
101,223,16000,1,0,3:0:0:0:
181,274,16400,2,0,P|193:312|197:349,1,60,0|0,1:0|0:0,0:0:0:0:
221,372,16800,2,0,L|304:380,1,60,2|8,3:2|0:2,0:0:0:0:
313,342,17200,5,0,1:0:0:0:
407,359,17600,1,0,3:2:0:0:
442,269,18000,2,0,P|445:231|452:194,1,60,0|0,1:0|0:0,0:0:0:0:
465,164,18400,2,0,L|403:155,1,60,2|8,3:2|0:0,0:0:0:0:
376,116,18800,1,0,1:0:0:0:
340,205,19200,1,0,3:0:0:0:
263,146,19600,2,0,P|253:180|252:209,1,60,0|0,1:0|0:0,0:0:0:0:
251,252,20000,2,0,L|182:262,1,60,8|8,0:1|0:3,0:0:0:0:
150,236,20400,5,0,1:0:0:0:
127,142,20800,1,0,1:0:0:0:
220,118,21200,1,8,1:3:0:0:
245,210,21600,1,8,1:3:0:0:
238,305,22000,2,0,P|290:311|358:345,1,120,0|0,1:0|1:0,0:0:0:0:
441,372,22800,2,0,L|450:236,1,120,8|8,1:3|1:3,0:0:0:0:
453,204,23400,1,0,0:0:0:0:
455,156,23600,1,0,1:0:0:0:
256,192,23700,12,0,25200,1:0:0:0:
104,65,26800,5,6,1:3:0:0:
166,137,27200,1,2,0:1:0:0:
102,209,27600,2,0,P|103:251|110:289,1,60,8|0,0:0|0:0,0:0:0:0:
131,308,28000,2,0,L|206:319,1,60,8|8,0:3|0:3,0:0:0:0:
233,296,28400,2,0,P|274:283|334:339,1,120,0|8,1:0|0:3,0:0:0:0:
412,377,29200,1,8,0:0:0:0:
443,286,29600,2,0,P|447:236|452:214,1,60,8|8,0:3|0:3,0:0:0:0:
458,179,30000,5,4,1:2:0:0:
399,103,30400,1,2,0:1:0:0:
340,179,30800,2,0,P|275:189|211:98,1,180,8|2,0:0|0:1,0:0:0:0:
211,58,31600,2,0,L|208:-15,2,60,0|2|2,1:0|0:2|0:2,0:0:0:0:
132,113,32400,2,0,L|57:118,1,60,10|2,0:2|0:2,0:0:0:0:
26,132,32800,2,0,P|23:167|27:201,1,60,2|0,0:2|0:0,0:0:0:0:
43,236,33200,5,0,1:0:0:0:
107,306,33600,1,4,0:3:0:0:
150,325,33800,2,0,L|159:391,2,60,0|8|0,0:0|0:0|0:0,0:0:0:0:
181,288,34400,1,8,0:3:0:0:
250,354,34800,2,0,P|286:357|323:367,1,60,0|0,1:0|0:0,0:0:0:0:
356,370,35200,1,8,0:3:0:0:
422,300,35600,2,0,L|423:235,1,60,8|0,0:0|0:0,0:0:0:0:
394,201,36000,2,0,L|388:139,1,60,8|8,0:3|0:3,0:0:0:0:
415,101,36400,6,0,P|367:109|274:103,1,120,4|2,1:2|0:1,0:0:0:0:
210,62,37200,2,0,L|202:0,2,60,6|2|0,0:1|0:1|0:0,0:0:0:0:
136,123,38000,1,4,1:2:0:0:
136,123,39600,6,0,P|142:165|147:261,1,120,4|0,1:0|0:0,0:0:0:0:
195,325,40400,2,0,P|255:331|339:346,1,120,8|0,0:0|0:0,0:0:0:0:
409,354,41200,1,0,1:0:0:0:
362,270,41600,1,2,0:2:0:0:
457,277,42000,1,10,0:2:0:0:
414,190,42400,2,0,P|418:148|428:122,1,60,2|2,0:1|0:1,0:0:0:0:
445,88,42800,5,4,1:3:0:0:
365,34,43200,1,2,0:1:0:0:
365,34,43400,2,0,P|316:47|232:48,1,120,0|0,3:0|0:0,0:0:0:0:
199,43,44000,1,8,0:3:0:0:
137,116,44400,1,0,1:0:0:0:
101,148,44600,2,0,P|62:141|35:132,2,60,6|0|2,1:2|0:0|1:2,0:0:0:0:
134,182,45200,1,14,0:2:0:0:
64,248,45600,1,0,1:2:0:0:
157,269,46000,6,0,P|190:274|238:355,1,120,4|0,1:1|0:0,0:0:0:0:
330,371,46800,2,0,L|458:370,1,120,8|0,0:0|0:0,0:0:0:0:
496,286,47600,1,0,1:0:0:0:
412,238,48000,1,0,1:0:0:0:
469,160,48400,2,0,P|425:144|326:275,1,240,8|0,0:0|1:0,0:0:0:0:
324,271,50800,5,0,1:0:0:0:
258,340,51200,1,8,0:0:0:0:
258,340,51400,1,0,1:0:0:0:
188,273,51800,1,8,0:0:0:0:
188,273,52000,2,0,P|171:306|167:335,1,60,0|8,1:0|0:3,0:0:0:0:
158,375,52400,5,6,1:3:0:0:
74,328,52800,1,0,0:0:0:0:
106,237,53200,2,0,P|105:181|94:106,1,120,8|0,0:0|0:0,0:0:0:0:
164,50,54000,2,0,P|221:46|302:30,1,120,0|2,1:0|0:2,0:0:0:0:
378,28,54800,1,2,0:2:0:0:
454,86,55200,1,2,0:2:0:0:
364,119,55600,6,0,P|362:206|364:266,1,120,4|0,1:1|0:0,0:0:0:0:
340,332,56400,2,0,P|283:333|200:343,1,120,8|0,0:0|0:0,0:0:0:0:
125,325,57200,2,0,P|83:244|194:138,1,240,0|0,1:0|0:0,0:0:0:0:
246,85,58400,2,0,P|255:117|260:156,1,60,8|8,0:3|0:2,0:0:0:0:
263,191,58800,6,0,P|349:201|405:210,1,120,4|0,0:3|0:0,0:0:0:0:
457,146,59600,2,0,P|470:196|452:278,1,120,0|0,0:0|1:0,0:0:0:0:
393,332,60400,2,0,P|307:342|251:351,1,120,0|0,1:0|1:0,0:0:0:0:
181,374,61200,1,0,1:0:0:0:
125,295,61600,1,0,0:0:0:0:
204,241,62000,6,0,P|203:184|185:109,1,120,0|0,1:0|1:0,0:0:0:0:
125,51,62800,2,0,P|183:29|242:45,1,120,0|0,1:0|1:0,0:0:0:0:
285,125,63600,2,0,P|351:130|421:140,1,120,0|0,1:0|1:0,0:0:0:0:
490,183,64400,1,0,1:0:0:0:
444,267,64800,1,0,0:0:0:0:
355,230,65200,6,0,P|351:267|355:306,1,60,0|8,1:0|1:3,0:0:0:0:
361,336,65600,1,0,1:0:0:0:
267,356,66000,1,0,1:0:0:0:
172,373,66400,1,0,1:0:0:0:
202,281,66800,1,0,1:0:0:0:
296,264,67200,1,0,1:0:0:0:
245,189,67600,6,0,P|241:157|229:112,1,60,0|8,1:0|1:3,0:0:0:0:
219,84,68000,2,0,L|160:78,1,60,0|8,1:0|1:3,0:0:0:0:
111,70,68400,1,0,1:0:0:0:
256,192,68600,12,0,69800,1:0:0:0:
256,192,70000,12,0,71600,0:0:0:0:
254,190,73200,5,0,0:0:0:0:
254,190,74800,1,0,0:0:0:0:
254,190,76400,2,0,L|254:49,2,120
256,285,77600,2,0,P|301:298|328:311,1,60
347,337,78000,5,4,1:1:0:0:
426,283,78400,1,0,1:0:0:0:
355,217,78800,2,0,P|357:167|364:141,1,60,0|0,1:0|0:0,0:0:0:0:
385,116,79200,2,0,L|456:107,1,60,0|0,1:0|0:0,0:0:0:0:
492,100,79600,1,0,1:0:0:0:
436,21,80000,1,0,1:0:0:0:
340,30,80400,2,0,P|271:27|207:14,1,120,8|8,0:0|0:3,0:0:0:0:
125,10,81200,5,0,1:0:0:0:
83,99,81600,1,0,1:0:0:0:
178,91,82000,1,0,1:0:0:0:
142,180,82400,1,0,1:0:0:0:
65,237,82800,2,0,P|125:269|244:176,1,240,0|8,1:0|0:0,0:0:0:0:
111,36,84400,1,0,1:0:0:0:
256,192,84600,12,0,86000,0:0:0:0:
144,73,87600,5,6,1:3:0:0:
230,114,88000,2,0,P|240:154|246:194,1,60,4|0,1:2|0:0,0:0:0:0:
247,220,88400,1,12,0:2:0:0:
316,286,88800,2,0,L|394:295,1,60,0|8,0:0|0:1,0:0:0:0:
423,298,89200,2,0,P|437:233|427:155,1,120,4|0,1:2|0:0,0:0:0:0:
419,134,89800,1,0,1:0:0:0:
400,89,90000,1,8,0:2:0:0:
317,39,90400,1,0,0:0:0:0:
288,130,90800,5,4,1:2:0:0:
212,70,91200,2,0,P|199:111|198:143,1,60
201,175,91600,2,0,L|127:188,1,60,12|0,0:2|0:0,0:0:0:0:
94,191,92000,1,0,0:0:0:0:
68,283,92400,1,4,1:2:0:0:
68,283,92600,2,0,P|166:291|198:297,1,120,2|2,0:2|1:2,0:0:0:0:
232,310,93200,2,0,P|300:313|372:298,1,120,10|2,0:2|0:1,0:0:0:0:
445,286,94000,5,4,1:2:0:0:
379,217,94400,1,4,1:2:0:0:
473,201,94800,1,12,0:2:0:0:
411,127,95200,2,0,P|407:94|409:59,1,60,0|8,0:0|0:1,0:0:0:0:
413,19,95600,1,4,1:2:0:0:
320,44,96000,1,0,1:0:0:0:
225,63,96400,2,0,P|218:107|214:135,1,60,12|0,0:2|1:0,0:0:0:0:
214,170,96800,1,0,0:0:0:0:
244,260,97200,6,0,P|293:267|336:326,1,120,4|0,1:2|0:0,0:0:0:0:
422,359,98000,2,0,L|430:218,1,120,12|0,0:2|0:0,0:0:0:0:
432,191,98600,1,0,0:0:0:0:
433,143,98800,1,0,1:0:0:0:
259,60,99600,1,0,0:0:0:0:
211,143,100000,2,0,P|169:152|139:151,1,60
105,139,100400,5,6,1:3:0:0:
67,227,100800,1,0,0:0:0:0:
113,310,101200,2,0,B|167:296|167:343|239:326,1,120,8|0,0:0|0:0,0:0:0:0:
274,314,101800,1,0,0:0:0:0:
320,302,102000,2,0,P|354:298|439:341,2,120,0|0|8,1:0|1:0|0:0,0:0:0:0:
255,373,103200,1,0,0:0:0:0:
184,307,103600,6,0,P|171:255|189:172,1,120,4|0,1:2|0:0,0:0:0:0:
202,147,104200,1,0,0:0:0:0:
227,106,104400,2,0,L|289:100,2,60,12|0|0,0:2|0:0|0:0,0:0:0:0:
145,56,105200,1,4,1:1:0:0:
83,129,105600,2,0,P|41:120|10:110,2,60,2|2|10,0:2|1:2|0:2,0:0:0:0:
131,128,106200,1,2,0:2:0:0:
166,160,106400,2,0,L|178:230,1,60,2|2,0:1|0:1,0:0:0:0:
186,266,106800,5,6,1:3:0:0:
256,330,107200,1,0,0:0:0:0:
328,266,107600,2,0,L|432:266,2,90,12|0|0,0:2|1:2|0:0,0:0:0:0:
294,232,108400,2,0,P|298:185|293:121,2,90,4|4|4,1:2|1:2|1:2,0:0:0:0:
254,319,109400,1,8,0:0:0:0:
254,319,109600,1,4,1:2:0:0:
172,370,110000,6,0,L|76:370,2,90,4|0|0,1:2|1:0|0:0,0:0:0:0:
204,334,110800,2,0,P|217:273|195:199,1,120,12|8,0:2|0:3,0:0:0:0:
162,131,111600,1,4,1:3:0:0:
101,205,112000,1,0,0:0:0:0:
30,139,112400,1,0,0:0:0:0:
30,139,113200,5,6,1:0:0:0:
101,205,113600,1,6,1:0:0:0:
41,280,114000,2,0,P|72:298|98:306,1,60,14|2,0:1|1:0,0:0:0:0:
142,305,114400,1,0,0:0:0:0:
189,306,114600,1,2,1:1:0:0:
236,302,114800,6,0,L|313:298,2,60,6|6|4,1:1|1:1|1:1,0:0:0:0:
182,221,115600,1,14,0:3:0:0:
