osu file format v14

[General]
AudioFilename: audio.mp3
AudioLeadIn: 0
PreviewTime: 146101
Countdown: 0
SampleSet: Normal
StackLeniency: 0.8
Mode: 3
LetterboxInBreaks: 0
SpecialStyle: 0
WidescreenStoryboard: 0

[Editor]
DistanceSpacing: 1
BeatDivisor: 8
GridSize: 4
TimelineZoom: 1.4

[Metadata]
Title:Sakura Mirage (Extend)
TitleUnicode:Sakura Mirage (Extend)
Artist:Ryu
ArtistUnicode:Ryu
Creator:Ridho 2307
Version:Sakura Party
Source:REFLEC BEAT groovin'!!
Tags:Sound Voltex, REFLEC BEAT , ryu, sakura
BeatmapID:1269551
BeatmapSetID:600873

[Difficulty]
HPDrainRate:8
CircleSize:4
OverallDifficulty:9
ApproachRate:5
SliderMultiplier:1.4
SliderTickRate:1

[Events]
//Background and Video events
0,0,"maxresdefault.jpg",0,0
//Break Periods
//Storyboard Layer 0 (Background)
//Storyboard Layer 1 (Fail)
//Storyboard Layer 2 (Pass)
//Storyboard Layer 3 (Foreground)
//Storyboard Sound Samples

[TimingPoints]
4800,300,4,1,0,10,1,0
4800,-111.111111111111,4,1,0,10,0,0
23700,-10,4,1,0,10,0,0
23718,-1000,4,1,0,10,0,0
23850,-200,4,1,0,10,0,0
23887,-100,4,1,0,10,0,0
23925,-66.6666666666667,4,1,0,10,0,0
23962,-50,4,1,0,10,0,0
24000,-100,4,1,0,10,0,0
43200,-50,4,1,0,10,0,0
43237,-133.333333333333,4,1,0,10,0,0
52800,-100,4,1,0,10,0,0
62100,-10,4,1,0,10,0,0
62118,-1000,4,1,0,10,0,0
62250,-200,4,1,0,10,0,0
62287,-100,4,1,0,10,0,0
62325,-66.6666666666667,4,1,0,10,0,0
62362,-50,4,1,0,10,0,0
62400,-100,4,1,0,10,0,0
110400,-200,4,1,0,10,0,0
114000,-166.666666666667,4,1,0,10,0,0
114600,-142.857142857143,4,1,0,10,0,0
115200,-133.333333333333,4,1,0,10,0,0
116400,-100,4,1,0,10,0,0
117600,-133.333333333333,4,1,0,10,0,0
118800,-100,4,1,0,10,0,0
120000,-133.333333333333,4,1,0,10,0,0
121200,-100,4,1,0,10,0,0
122400,-133.333333333333,4,1,0,10,0,0
123600,-100,4,1,0,10,0,0
126000,-33.3333333333333,4,1,0,10,0,0
126037,-133.333333333333,4,1,0,10,0,0
130500,-66.6666666666667,4,1,0,10,0,0
130800,-33.3333333333333,4,1,0,10,0,0
130837,-133.333333333333,4,1,0,10,0,0
135300,-66.6666666666667,4,1,0,10,0,0
135600,-33.3333333333333,4,1,0,10,0,0
135637,-133.333333333333,4,1,0,10,0,0
140100,-66.6666666666667,4,1,0,10,0,0
140400,-100,4,1,0,10,0,0
144600,-200,4,1,0,10,0,0
145950,-133.333333333333,4,1,0,10,0,0
146025,-100,4,1,0,10,0,0
146100,-66.6666666666667,4,1,0,10,0,0
146400,-100,4,1,0,10,0,1
155700,-1000,4,1,0,10,0,1
155850,-200,4,1,0,10,0,1
155887,-100,4,1,0,10,0,1
155925,-66.6666666666667,4,1,0,10,0,1
155962,-50,4,1,0,10,0,1
156000,-100,4,1,0,10,0,1
165300,-1000,4,1,0,10,0,1
165450,-200,4,1,0,10,0,1
165487,-100,4,1,0,10,0,1
165525,-66.6666666666667,4,1,0,10,0,1
165562,-50,4,1,0,10,0,1
165600,-100,4,1,0,10,0,1
174900,-1000,4,1,0,10,0,1
175050,-200,4,1,0,10,0,1
175087,-100,4,1,0,10,0,1
175125,-66.6666666666667,4,1,0,10,0,1
175162,-50,4,1,0,10,0,1
175200,-100,4,1,0,10,0,1
184500,-10,4,1,0,10,0,1
184518,-1000,4,1,0,10,0,1
184650,-200,4,1,0,10,0,1
184687,-100,4,1,0,10,0,1
184725,-66.6666666666667,4,1,0,10,0,1
184762,-50,4,1,0,10,0,1
184800,-100,4,1,0,10,0,0
204000,-50,4,1,0,10,0,0
204037,-133.333333333333,4,1,0,10,0,0
213600,-100,4,1,0,10,0,0
222900,-10,4,1,0,10,0,0
222918,-1000,4,1,0,10,0,0
223050,-200,4,1,0,10,0,0
223087,-100,4,1,0,10,0,0
223125,-66.6666666666667,4,1,0,10,0,0
223162,-50,4,1,0,10,0,0
223200,-100,4,1,0,10,0,0
271200,-200,4,1,0,10,0,0
274800,-166.666666666667,4,1,0,10,0,0
275400,-142.857142857143,4,1,0,10,0,0
276000,-133.333333333333,4,1,0,10,0,0
277200,-100,4,1,0,10,0,0
278400,-133.333333333333,4,1,0,10,0,0
279600,-100,4,1,0,10,0,0
280800,-133.333333333333,4,1,0,10,0,0
282000,-100,4,1,0,10,0,0
283200,-133.333333333333,4,1,0,10,0,0
284400,-100,4,1,0,10,0,0
286800,-33.3333333333333,4,1,0,10,0,0
286837,-133.333333333333,4,1,0,10,0,0
291300,-66.6666666666667,4,1,0,10,0,0
291600,-33.3333333333333,4,1,0,10,0,0
291637,-133.333333333333,4,1,0,10,0,0
296100,-66.6666666666667,4,1,0,10,0,0
296400,-33.3333333333333,4,1,0,10,0,0
296437,-133.333333333333,4,1,0,10,0,0
300900,-66.6666666666667,4,1,0,10,0,0
301200,-100,4,1,0,10,0,0
305400,-200,4,1,0,10,0,0
306750,-133.333333333333,4,1,0,10,0,0
306825,-100,4,1,0,10,0,0
306900,-66.6666666666667,4,1,0,10,0,0
307200,-100,4,1,0,10,0,1
316500,-1000,4,1,0,10,0,1
316650,-200,4,1,0,10,0,1
316687,-100,4,1,0,10,0,1
316725,-66.6666666666667,4,1,0,10,0,1
316762,-50,4,1,0,10,0,1
316800,-100,4,1,0,10,0,1
326100,-1000,4,1,0,10,0,1
326250,-200,4,1,0,10,0,1
326287,-100,4,1,0,10,0,1
326325,-66.6666666666667,4,1,0,10,0,1
326362,-50,4,1,0,10,0,1
326400,-100,4,1,0,10,0,1
335700,-1000,4,1,0,10,0,1
335850,-200,4,1,0,10,0,1
335887,-100,4,1,0,10,0,1
335925,-66.6666666666667,4,1,0,10,0,1
335962,-50,4,1,0,10,0,1
336000,-100,4,1,0,10,0,1
345300,-10,4,1,0,10,0,1
345318,-1000,4,1,0,10,0,1
345450,-200,4,1,0,10,0,1
345487,-100,4,1,0,10,0,1
345525,-66.6666666666667,4,1,0,10,0,1
345562,-50,4,1,0,10,0,1
345600,-200,4,1,0,10,0,0

[HitObjects]
64,192,4800,5,0,0:0:0:0:
192,192,4950,1,0,0:0:0:0:
320,192,5100,1,0,0:0:0:0:
448,192,5250,1,0,0:0:0:0:
192,192,5400,1,0,0:0:0:0:
448,192,5550,1,0,0:0:0:0:
64,192,5700,1,0,0:0:0:0:
320,192,5850,1,0,0:0:0:0:
192,192,6000,1,0,0:0:0:0:
64,192,6150,1,0,0:0:0:0:
448,192,6300,1,0,0:0:0:0:
320,192,6450,1,0,0:0:0:0:
64,192,6600,1,0,0:0:0:0:
192,192,6750,1,0,0:0:0:0:
320,192,6900,1,0,0:0:0:0:
192,192,7050,1,0,0:0:0:0:
64,192,7200,1,0,0:0:0:0:
320,192,7350,1,0,0:0:0:0:
448,192,7500,1,0,0:0:0:0:
64,192,7650,1,0,0:0:0:0:
192,192,7800,1,0,0:0:0:0:
448,192,7950,1,0,0:0:0:0:
320,192,8100,1,0,0:0:0:0:
192,192,8250,1,0,0:0:0:0:
64,192,8400,1,0,0:0:0:0:
192,192,8550,1,0,0:0:0:0:
320,192,8700,1,0,0:0:0:0:
448,192,8850,1,0,0:0:0:0:
192,192,9000,1,0,0:0:0:0:
320,192,9150,1,0,0:0:0:0:
64,192,9300,1,0,0:0:0:0:
320,192,9450,1,0,0:0:0:0:
192,192,9600,1,0,0:0:0:0:
64,192,9750,128,0,9900:0:0:0:70:blank.wav
320,192,9750,1,0,0:0:0:0:
448,192,9900,1,0,0:0:0:0:
64,192,10050,128,0,10200:0:0:0:70:blank.wav
192,192,10050,1,0,0:0:0:0:
320,192,10200,1,0,0:0:0:0:
64,192,10350,128,0,10500:0:0:0:70:blank.wav
448,192,10350,1,0,0:0:0:0:
192,192,10500,1,0,0:0:0:0:
64,192,10650,128,0,10800:0:0:0:70:blank.wav
320,192,10650,1,0,0:0:0:0:
448,192,10800,1,0,0:0:0:0:
320,192,10950,1,0,0:0:0:35:Chork.wav
64,192,10950,1,0,0:0:0:0:
320,192,11100,1,0,0:0:0:35:Chork.wav
64,192,11100,1,0,0:0:0:0:
192,192,11250,1,0,0:0:0:35:Chork.wav
448,192,11250,1,0,0:0:0:0:
192,192,11400,1,0,0:0:0:35:Chork.wav
448,192,11400,1,0,0:0:0:0:
320,192,11550,1,0,0:0:0:35:Chork.wav
64,192,11550,1,0,0:0:0:0:
320,192,11700,1,0,0:0:0:35:Chork.wav
64,192,11700,1,0,0:0:0:0:
192,192,11850,1,0,0:0:0:35:Chork.wav
448,192,11850,1,0,0:0:0:0:
192,192,12000,1,0,0:0:0:35:Chork.wav
448,192,12000,1,0,0:0:0:0:
448,192,12150,128,0,12300:0:0:0:70:blank.wav
320,192,12150,1,0,0:0:0:0:
64,192,12300,1,0,0:0:0:0:
448,192,12450,128,0,12600:0:0:0:70:blank.wav
192,192,12450,1,0,0:0:0:0:
64,192,12600,1,0,0:0:0:0:
448,192,12750,128,0,12900:0:0:0:70:blank.wav
192,192,12750,1,0,0:0:0:0:
320,192,12900,1,0,0:0:0:0:
448,192,13050,128,0,13200:0:0:0:70:blank.wav
64,192,13050,1,0,0:0:0:0:
192,192,13200,1,0,0:0:0:0:
448,192,13350,128,0,13500:0:0:0:70:blank.wav
320,192,13350,1,0,0:0:0:0:
192,192,13500,1,0,0:0:0:0:
448,192,13650,128,0,13800:0:0:0:70:blank.wav
320,192,13650,1,0,0:0:0:0:
192,192,13800,1,0,0:0:0:0:
448,192,13950,128,0,14025:0:0:0:70:blank.wav
64,192,13950,1,0,0:0:0:0:
448,192,14100,128,0,14400:0:0:0:70:blank.wav
192,192,14100,1,0,0:0:0:0:
64,192,14250,1,0,0:0:0:0:
320,192,14400,1,0,0:0:0:0:
192,192,14550,1,0,0:0:0:0:
64,192,14700,1,0,0:0:0:0:
192,192,14850,1,0,0:0:0:0:
448,192,15000,1,0,0:0:0:0:
320,192,15150,1,0,0:0:0:0:
64,192,15300,1,0,0:0:0:0:
192,192,15450,1,0,0:0:0:0:
320,192,15600,1,0,0:0:0:0:
448,192,15750,1,0,0:0:0:0:
192,192,15750,1,0,0:0:0:35:Chork.wav
448,192,15900,1,0,0:0:0:0:
192,192,15900,1,0,0:0:0:35:Chork.wav
320,192,16050,1,0,0:0:0:35:Chork.wav
64,192,16050,1,0,0:0:0:0:
320,192,16200,1,0,0:0:0:35:Chork.wav
64,192,16200,1,0,0:0:0:0:
192,192,16350,1,0,0:0:0:35:Chork.wav
448,192,16350,1,0,0:0:0:0:
192,192,16500,1,0,0:0:0:35:Chork.wav
448,192,16500,1,0,0:0:0:0:
320,192,16650,1,0,0:0:0:35:Chork.wav
64,192,16650,1,0,0:0:0:0:
320,192,16800,1,0,0:0:0:70:soft-hitwhistle.wav
64,192,16800,1,0,0:0:0:0:
192,192,16950,1,0,0:0:0:0:
320,192,17100,1,0,0:0:0:0:
448,192,17250,1,0,0:0:0:0:
192,192,17400,1,0,0:0:0:0:
64,192,17550,1,0,0:0:0:0:
320,192,17700,1,0,0:0:0:0:
192,192,17850,1,0,0:0:0:0:
448,192,18000,1,0,0:0:0:0:
64,192,18150,1,0,0:0:0:0:
320,192,18150,1,0,0:0:0:35:Chork.wav
64,192,18300,1,0,0:0:0:0:
320,192,18300,1,0,0:0:0:35:Chork.wav
192,192,18450,1,0,0:0:0:35:Chork.wav
448,192,18450,1,0,0:0:0:0:
192,192,18600,1,0,0:0:0:35:Chork.wav
448,192,18600,1,0,0:0:0:0:
320,192,18750,1,0,0:0:0:35:Chork.wav
64,192,18750,1,0,0:0:0:0:
320,192,18900,1,0,0:0:0:35:Chork.wav
64,192,18900,1,0,0:0:0:0:
192,192,19050,1,0,0:0:0:35:Chork.wav
448,192,19050,1,0,0:0:0:0:
192,192,19200,1,0,0:0:0:35:Chork.wav
448,192,19200,1,0,0:0:0:0:
320,192,19350,1,0,0:0:0:0:
192,192,19500,1,0,0:0:0:0:
448,192,19650,1,0,0:0:0:0:
320,192,19800,1,0,0:0:0:0:
64,192,19950,1,0,0:0:0:0:
192,192,20100,1,0,0:0:0:0:
320,192,20250,1,0,0:0:0:0:
64,192,20400,1,0,0:0:0:0:
192,192,20550,1,0,0:0:0:35:Chork.wav
448,192,20550,1,0,0:0:0:0:
192,192,20700,1,0,0:0:0:35:Chork.wav
448,192,20700,1,0,0:0:0:0:
320,192,20850,1,0,0:0:0:35:Chork.wav
64,192,20850,1,0,0:0:0:0:
320,192,21000,1,0,0:0:0:35:Chork.wav
64,192,21000,1,0,0:0:0:0:
192,192,21150,1,0,0:0:0:35:Chork.wav
448,192,21150,1,0,0:0:0:0:
192,192,21300,1,0,0:0:0:35:Chork.wav
448,192,21300,1,0,0:0:0:0:
320,192,21450,1,0,0:0:0:35:Chork.wav
64,192,21450,1,0,0:0:0:0:
320,192,21600,1,0,0:0:0:35:Chork.wav
64,192,21600,1,0,0:0:0:0:
448,192,21750,1,0,0:0:0:0:
320,192,21900,1,0,0:0:0:0:
192,192,22050,1,0,0:0:0:0:
64,192,22200,1,0,0:0:0:0:
192,192,22350,1,0,0:0:0:0:
320,192,22500,1,0,0:0:0:0:
448,192,22650,1,0,0:0:0:0:
320,192,22800,1,0,0:0:0:0:
64,192,22950,1,0,0:0:0:70:soft-hitwhistle.wav
448,192,22950,1,0,0:0:0:0:
192,192,23100,1,0,0:0:0:0:
64,192,23250,1,0,0:0:0:70:soft-hitwhistle.wav
448,192,23250,1,0,0:0:0:0:
192,192,23400,1,0,0:0:0:0:
64,192,23550,1,0,0:0:0:70:soft-hitwhistle.wav
320,192,23550,1,0,0:0:0:0:
64,192,23700,1,0,0:0:0:70:KicK.wav
192,192,23700,1,0,0:0:0:0:
448,192,23700,1,0,0:0:0:0:
64,192,24000,1,0,0:0:0:0:
448,192,24000,1,0,0:0:0:50:soft-hitclap.wav
192,192,24000,1,0,0:0:0:0:
320,192,24075,1,0,0:0:0:0:
192,192,24150,1,0,0:0:0:0:
64,192,24225,1,0,0:0:0:0:
192,192,24300,1,0,0:0:0:0:
448,192,24300,1,0,0:0:0:0:
320,192,24375,1,0,0:0:0:0:
192,192,24450,1,0,0:0:0:0:
64,192,24525,1,0,0:0:0:0:
192,192,24600,1,0,0:0:0:0:
448,192,24600,1,0,0:0:0:0:
320,192,24675,1,0,0:0:0:0:
192,192,24750,1,0,0:0:0:0:
64,192,24825,1,0,0:0:0:0:
192,192,24900,1,0,0:0:0:0:
448,192,24900,1,0,0:0:0:0:
320,192,24975,1,0,0:0:0:0:
192,192,25050,1,0,0:0:0:0:
64,192,25125,1,0,0:0:0:0:
192,192,25200,1,0,0:0:0:0:
448,192,25200,1,0,0:0:0:0:
320,192,25275,1,0,0:0:0:0:
192,192,25350,1,0,0:0:0:0:
64,192,25425,1,0,0:0:0:0:
448,192,25500,1,0,0:0:0:0:
192,192,25500,1,0,0:0:0:0:
320,192,25575,1,0,0:0:0:0:
192,192,25650,1,0,0:0:0:0:
64,192,25725,1,0,0:0:0:0:
192,192,25800,1,0,0:0:0:0:
448,192,25800,1,0,0:0:0:0:
320,192,25875,1,0,0:0:0:0:
192,192,25950,1,0,0:0:0:0:
64,192,26025,1,0,0:0:0:0:
448,192,26100,1,0,0:0:0:0:
192,192,26100,1,0,0:0:0:0:
320,192,26175,1,0,0:0:0:0:
192,192,26250,1,0,0:0:0:0:
64,192,26325,1,0,0:0:0:0:
192,192,26400,1,0,0:0:0:0:
448,192,26400,1,0,0:0:0:0:
320,192,26475,1,0,0:0:0:0:
192,192,26550,1,0,0:0:0:0:
64,192,26625,1,0,0:0:0:0:
192,192,26700,1,0,0:0:0:0:
448,192,26700,1,0,0:0:0:0:
320,192,26775,1,0,0:0:0:0:
192,192,26850,1,0,0:0:0:0:
64,192,26925,1,0,0:0:0:0:
192,192,27000,1,0,0:0:0:0:
448,192,27000,1,0,0:0:0:0:
320,192,27075,1,0,0:0:0:0:
192,192,27150,1,0,0:0:0:0:
64,192,27225,1,0,0:0:0:0:
192,192,27300,1,0,0:0:0:0:
448,192,27300,1,0,0:0:0:0:
320,192,27375,1,0,0:0:0:0:
192,192,27450,1,0,0:0:0:0:
64,192,27525,1,0,0:0:0:0:
320,192,27600,1,0,0:0:0:0:
448,192,27600,1,0,0:0:0:0:
192,192,27600,1,0,0:0:0:0:
64,192,27675,1,0,0:0:0:65:Chi!.wav
320,192,27750,1,0,0:0:0:65:Chi!.wav
192,192,27825,1,0,0:0:0:65:Chi!.wav
64,192,27900,1,0,0:0:0:65:Chi!.wav
448,192,27900,1,0,0:0:0:0:
320,192,27900,1,0,0:0:0:0:
192,192,27975,1,0,0:0:0:65:Chi!.wav
64,192,28050,1,0,0:0:0:0:
320,192,28050,1,0,0:0:0:65:Chi!.wav
448,192,28125,1,0,0:0:0:65:Chi!.wav
192,192,28200,1,0,0:0:0:0:
64,192,28200,1,0,0:0:0:0:
320,192,28200,1,0,0:0:0:0:
448,192,28275,1,0,0:0:0:65:Chi!.wav
64,192,28350,1,0,0:0:0:0:
192,192,28350,1,0,0:0:0:65:Chi!.wav
320,192,28425,1,0,0:0:0:65:Chi!.wav
64,192,28500,1,0,0:0:0:0:
448,192,28500,1,0,0:0:0:65:Chi!.wav
192,192,28500,1,0,0:0:0:0:
320,192,28575,1,0,0:0:0:65:Chi!.wav
448,192,28650,1,0,0:0:0:65:Chi!.wav
64,192,28650,1,0,0:0:0:65:Chi!.wav
192,192,28725,1,0,0:0:0:65:Chi!.wav
448,192,28800,1,0,0:0:0:50:soft-hitclap.wav
320,192,28800,1,0,0:0:0:65:Chi!.wav
64,192,28800,1,0,0:0:0:0:
192,192,28875,1,0,0:0:0:0:
320,192,28950,1,0,0:0:0:0:
448,192,29025,1,0,0:0:0:0:
64,192,29100,1,0,0:0:0:0:
320,192,29100,1,0,0:0:0:0:
192,192,29175,1,0,0:0:0:0:
320,192,29250,1,0,0:0:0:0:
448,192,29325,1,0,0:0:0:0:
64,192,29400,1,0,0:0:0:0:
320,192,29400,1,0,0:0:0:0:
192,192,29475,1,0,0:0:0:0:
320,192,29550,1,0,0:0:0:0:
448,192,29625,1,0,0:0:0:0:
64,192,29700,1,0,0:0:0:0:
320,192,29700,1,0,0:0:0:0:
192,192,29775,1,0,0:0:0:0:
320,192,29850,1,0,0:0:0:0:
448,192,29925,1,0,0:0:0:0:
64,192,30000,1,0,0:0:0:0:
320,192,30000,1,0,0:0:0:0:
192,192,30075,1,0,0:0:0:0:
320,192,30150,1,0,0:0:0:0:
448,192,30225,1,0,0:0:0:0:
64,192,30300,1,0,0:0:0:0:
320,192,30300,1,0,0:0:0:0:
192,192,30375,1,0,0:0:0:0:
320,192,30450,1,0,0:0:0:0:
448,192,30525,1,0,0:0:0:0:
64,192,30600,1,0,0:0:0:0:
320,192,30600,1,0,0:0:0:0:
192,192,30675,1,0,0:0:0:0:
320,192,30750,1,0,0:0:0:0:
448,192,30825,1,0,0:0:0:0:
64,192,30900,1,0,0:0:0:0:
320,192,30900,1,0,0:0:0:0:
192,192,30975,1,0,0:0:0:0:
320,192,31050,1,0,0:0:0:0:
448,192,31125,1,0,0:0:0:0:
64,192,31200,1,0,0:0:0:0:
320,192,31200,1,0,0:0:0:0:
192,192,31275,1,0,0:0:0:0:
320,192,31350,1,0,0:0:0:0:
448,192,31425,1,0,0:0:0:0:
64,192,31500,1,0,0:0:0:0:
320,192,31500,1,0,0:0:0:0:
192,192,31575,1,0,0:0:0:0:
320,192,31650,1,0,0:0:0:0:
448,192,31725,1,0,0:0:0:0:
320,192,31800,1,0,0:0:0:0:
64,192,31800,1,0,0:0:0:0:
192,192,31875,1,0,0:0:0:0:
320,192,31950,1,0,0:0:0:0:
448,192,32025,1,0,0:0:0:0:
320,192,32100,1,0,0:0:0:0:
64,192,32100,1,0,0:0:0:0:
192,192,32175,1,0,0:0:0:0:
320,192,32250,1,0,0:0:0:0:
448,192,32325,1,0,0:0:0:0:
64,192,32400,1,0,0:0:0:0:
320,192,32475,1,0,0:0:0:0:
192,192,32550,1,0,0:0:0:0:
448,192,32625,1,0,0:0:0:0:
64,192,32700,1,0,0:0:0:0:
320,192,32775,1,0,0:0:0:0:
192,192,32850,1,0,0:0:0:0:
448,192,32925,1,0,0:0:0:0:
64,192,33000,1,0,0:0:0:0:
320,192,33075,1,0,0:0:0:0:
192,192,33150,1,0,0:0:0:0:
448,192,33225,1,0,0:0:0:0:
192,192,33300,1,0,0:0:0:0:
320,192,33375,1,0,0:0:0:0:
64,192,33450,1,0,0:0:0:0:
64,192,33600,1,0,0:0:0:0:
320,192,33600,1,0,0:0:0:0:
448,192,33600,1,0,0:0:0:0:
192,192,33600,1,0,0:0:0:0:
64,192,33750,128,0,33900:0:0:0:0:
448,192,33750,1,0,0:0:0:0:
192,192,33900,1,0,0:0:0:0:
320,192,33900,1,0,0:0:0:0:
64,192,34050,128,0,34200:0:0:0:0:
448,192,34050,1,0,0:0:0:0:
192,192,34200,1,0,0:0:0:0:
320,192,34200,1,0,0:0:0:0:
64,192,34350,128,0,34500:0:0:0:0:
448,192,34350,1,0,0:0:0:0:
320,192,34500,1,0,0:0:0:0:
192,192,34500,1,0,0:0:0:0:
64,192,34650,128,0,34800:0:0:0:0:
448,192,34650,1,0,0:0:0:0:
320,192,34800,1,0,0:0:0:0:
192,192,34800,1,0,0:0:0:0:
64,192,34950,128,0,35100:0:0:0:0:
448,192,34950,1,0,0:0:0:0:
192,192,35100,1,0,0:0:0:0:
320,192,35100,1,0,0:0:0:0:
64,192,35250,128,0,35400:0:0:0:0:
448,192,35250,1,0,0:0:0:0:
192,192,35400,1,0,0:0:0:0:
320,192,35400,1,0,0:0:0:0:
448,192,35475,1,0,0:0:0:0:
320,192,35550,1,0,0:0:0:0:
64,192,35550,1,0,0:0:0:0:
192,192,35625,1,0,0:0:0:0:
320,192,35700,1,0,0:0:0:0:
448,192,35700,1,0,0:0:0:0:
64,192,35775,1,0,0:0:0:0:
192,192,35850,1,0,0:0:0:0:
448,192,35850,1,0,0:0:0:0:
320,192,35925,1,0,0:0:0:0:
192,192,36000,1,0,0:0:0:0:
64,192,36000,1,0,0:0:0:0:
320,192,36150,1,0,0:0:0:0:
448,192,36150,128,0,36300:0:0:0:0:
192,192,36300,1,0,0:0:0:0:
64,192,36300,1,0,0:0:0:0:
320,192,36450,1,0,0:0:0:0:
448,192,36450,128,0,36600:0:0:0:0:
192,192,36600,1,0,0:0:0:0:
64,192,36600,1,0,0:0:0:0:
320,192,36750,1,0,0:0:0:0:
448,192,36750,128,0,36900:0:0:0:0:
192,192,36900,1,0,0:0:0:0:
64,192,36900,1,0,0:0:0:0:
320,192,37050,1,0,0:0:0:0:
448,192,37050,128,0,37200:0:0:0:0:
192,192,37200,1,0,0:0:0:0:
64,192,37200,1,0,0:0:0:0:
320,192,37275,1,0,0:0:0:0:
448,192,37350,1,0,0:0:0:0:
64,192,37350,1,0,0:0:0:0:
192,192,37425,1,0,0:0:0:0:
320,192,37500,1,0,0:0:0:0:
448,192,37500,1,0,0:0:0:0:
192,192,37575,1,0,0:0:0:0:
448,192,37650,1,0,0:0:0:0:
64,192,37650,1,0,0:0:0:0:
320,192,37725,1,0,0:0:0:0:
192,192,37800,1,0,0:0:0:0:
64,192,37800,1,0,0:0:0:0:
320,192,37875,1,0,0:0:0:0:
448,192,37950,1,0,0:0:0:0:
64,192,38025,1,0,0:0:0:0:
192,192,38100,1,0,0:0:0:0:
448,192,38100,1,0,0:0:0:0:
320,192,38175,1,0,0:0:0:0:
192,192,38250,1,0,0:0:0:0:
64,192,38325,1,0,0:0:0:0:
448,192,38400,1,0,0:0:0:0:
192,192,38400,1,0,0:0:0:0:
320,192,38400,1,0,0:0:0:0:
64,192,38550,128,0,38700:0:0:0:0:
192,192,38550,1,0,0:0:0:0:
448,192,38700,1,0,0:0:0:0:
320,192,38700,1,0,0:0:0:0:
64,192,38850,128,0,39000:0:0:0:0:
192,192,38850,1,0,0:0:0:0:
320,192,39000,1,0,0:0:0:0:
448,192,39000,1,0,0:0:0:0:
64,192,39150,128,0,39300:0:0:0:0:
192,192,39150,1,0,0:0:0:0:
320,192,39300,1,0,0:0:0:0:
448,192,39300,1,0,0:0:0:0:
64,192,39450,128,0,39600:0:0:0:0:
192,192,39450,1,0,0:0:0:0:
320,192,39600,1,0,0:0:0:0:
448,192,39600,1,0,0:0:0:0:
64,192,39750,1,0,0:0:0:0:
320,192,39750,1,0,0:0:0:0:
64,192,39900,1,0,0:0:0:0:
320,192,39900,1,0,0:0:0:0:
192,192,40050,1,0,0:0:0:0:
448,192,40050,1,0,0:0:0:0:
192,192,40200,1,0,0:0:0:0:
448,192,40200,1,0,0:0:0:0:
64,192,40350,1,0,0:0:0:0:
320,192,40350,1,0,0:0:0:0:
64,192,40500,1,0,0:0:0:0:
320,192,40500,1,0,0:0:0:0:
192,192,40650,1,0,0:0:0:0:
448,192,40650,1,0,0:0:0:0:
192,192,40800,1,0,0:0:0:0:
448,192,40800,1,0,0:0:0:0:
448,192,40950,128,0,41100:0:0:0:0:
64,192,40950,1,0,0:0:0:0:
192,192,41025,1,0,0:0:0:0:
320,192,41100,1,0,0:0:0:0:
448,192,41250,128,0,41400:0:0:0:0:
64,192,41250,1,0,0:0:0:0:
192,192,41325,1,0,0:0:0:0:
320,192,41400,1,0,0:0:0:0:
448,192,41550,128,0,41700:0:0:0:0:
64,192,41550,1,0,0:0:0:0:
192,192,41625,1,0,0:0:0:0:
320,192,41700,1,0,0:0:0:0:
448,192,41850,128,0,42000:0:0:0:0:
64,192,41850,1,0,0:0:0:0:
192,192,41925,1,0,0:0:0:0:
320,192,42000,1,0,0:0:0:0:
64,192,42075,1,0,0:0:0:0:
448,192,42150,1,0,0:0:0:0:
192,192,42225,1,0,0:0:0:0:
320,192,42300,1,0,0:0:0:0:
64,192,42375,1,0,0:0:0:0:
448,192,42450,1,0,0:0:0:0:
192,192,42525,1,0,0:0:0:0:
320,192,42600,1,0,0:0:0:0:
64,192,42675,1,0,0:0:0:0:
448,192,42750,1,0,0:0:0:0:
192,192,42825,1,0,0:0:0:0:
320,192,42900,1,0,0:0:0:0:
64,192,42975,1,0,0:0:0:0:
448,192,43050,1,0,0:0:0:0:
64,192,43200,1,0,0:0:0:0:
192,192,43200,1,0,0:0:0:0:
320,192,43200,1,0,0:0:0:0:
448,192,43200,1,0,0:0:0:0:
64,192,43350,1,0,0:0:0:0:
448,192,43350,1,0,0:0:0:0:
448,192,43500,1,0,0:0:0:0:
192,192,43500,1,0,0:0:0:0:
64,192,43725,1,0,0:0:0:0:
192,192,43800,1,0,0:0:0:0:
320,192,43875,1,0,0:0:0:0:
448,192,43950,1,0,0:0:0:0:
320,192,44100,1,0,0:0:0:0:
64,192,44100,1,0,0:0:0:0:
192,192,44250,1,0,0:0:0:0:
320,192,44325,1,0,0:0:0:0:
448,192,44400,1,0,0:0:0:0:
64,192,44550,1,0,0:0:0:0:
192,192,44700,1,0,0:0:0:0:
320,192,44850,1,0,0:0:0:0:
192,192,45000,1,0,0:0:0:0:
448,192,45000,1,0,0:0:0:0:
320,192,45150,1,0,0:0:0:0:
64,192,45150,1,0,0:0:0:0:
448,192,45300,1,0,0:0:0:0:
192,192,45300,1,0,0:0:0:0:
64,192,45450,1,0,0:0:0:0:
192,192,45525,1,0,0:0:0:0:
320,192,45600,1,0,0:0:0:0:
448,192,45600,1,0,0:0:0:0:
192,192,45750,1,0,0:0:0:0:
64,192,45900,1,0,0:0:0:0:
64,192,46125,1,0,0:0:0:0:
192,192,46200,1,0,0:0:0:0:
320,192,46275,1,0,0:0:0:0:
448,192,46350,1,0,0:0:0:0:
64,192,46350,1,0,0:0:0:0:
192,192,46425,1,0,0:0:0:0:
320,192,46500,1,0,0:0:0:0:
448,192,46500,1,0,0:0:0:0:
448,192,46650,1,0,0:0:0:0:
320,192,46725,1,0,0:0:0:0:
192,192,46800,1,0,0:0:0:0:
64,192,46950,1,0,0:0:0:0:
320,192,46950,1,0,0:0:0:0:
64,192,47100,1,0,0:0:0:0:
320,192,47100,1,0,0:0:0:0:
64,192,47250,1,0,0:0:0:0:
448,192,47250,1,0,0:0:0:0:
64,192,47400,1,0,0:0:0:0:
448,192,47400,1,0,0:0:0:0:
64,192,47550,1,0,0:0:0:0:
320,192,47550,1,0,0:0:0:0:
64,192,47700,1,0,0:0:0:0:
320,192,47700,1,0,0:0:0:0:
64,192,47850,1,0,0:0:0:0:
448,192,47850,1,0,0:0:0:0:
64,192,48000,1,0,0:0:0:0:
448,192,48000,1,0,0:0:0:0:
320,192,48150,1,0,0:0:0:0:
192,192,48300,1,0,0:0:0:0:
64,192,48300,1,0,0:0:0:0:
448,192,48525,1,0,0:0:0:0:
320,192,48600,1,0,0:0:0:0:
192,192,48675,1,0,0:0:0:0:
64,192,48750,1,0,0:0:0:0:
448,192,48900,1,0,0:0:0:0:
192,192,48900,1,0,0:0:0:0:
64,192,49050,1,0,0:0:0:0:
192,192,49125,1,0,0:0:0:0:
320,192,49200,1,0,0:0:0:0:
448,192,49200,1,0,0:0:0:0:
448,192,49350,1,0,0:0:0:0:
192,192,49350,1,0,0:0:0:0:
448,192,49500,1,0,0:0:0:0:
192,192,49500,1,0,0:0:0:0:
448,192,49650,1,0,0:0:0:0:
64,192,49650,1,0,0:0:0:0:
448,192,49800,1,0,0:0:0:0:
64,192,49800,1,0,0:0:0:0:
448,192,49950,1,0,0:0:0:0:
192,192,49950,1,0,0:0:0:0:
448,192,50100,1,0,0:0:0:0:
192,192,50100,1,0,0:0:0:0:
448,192,50250,1,0,0:0:0:0:
64,192,50250,1,0,0:0:0:0:
448,192,50400,1,0,0:0:0:0:
64,192,50400,1,0,0:0:0:0:
192,192,50550,1,0,0:0:0:0:
448,192,50700,1,0,0:0:0:0:
320,192,50700,1,0,0:0:0:0:
64,192,50925,1,0,0:0:0:0:
192,192,51000,1,0,0:0:0:0:
320,192,51075,1,0,0:0:0:0:
448,192,51150,1,0,0:0:0:0:
64,192,51150,1,0,0:0:0:0:
192,192,51300,1,0,0:0:0:0:
320,192,51450,1,0,0:0:0:0:
192,192,51525,1,0,0:0:0:0:
64,192,51600,1,0,0:0:0:0:
448,192,51600,1,0,0:0:0:0:
64,192,51750,1,0,0:0:0:0:
320,192,51750,1,0,0:0:0:0:
64,192,51900,1,0,0:0:0:0:
320,192,51900,1,0,0:0:0:0:
192,192,52050,1,0,0:0:0:0:
448,192,52050,1,0,0:0:0:0:
192,192,52200,1,0,0:0:0:0:
448,192,52200,1,0,0:0:0:0:
320,192,52350,1,0,0:0:0:0:
64,192,52350,1,0,0:0:0:0:
320,192,52500,1,0,0:0:0:0:
64,192,52500,1,0,0:0:0:0:
448,192,52650,1,0,0:0:0:0:
192,192,52650,1,0,0:0:0:0:
320,192,52800,1,0,0:0:0:0:
192,192,52800,1,0,0:0:0:0:
64,192,52800,1,0,0:0:0:0:
448,192,52800,1,0,0:0:0:0:
320,192,52950,1,0,0:0:0:0:
192,192,53100,1,0,0:0:0:0:
448,192,53100,1,0,0:0:0:0:
320,192,53250,1,0,0:0:0:0:
192,192,53400,1,0,0:0:0:0:
448,192,53400,1,0,0:0:0:0:
320,192,53550,1,0,0:0:0:0:
64,192,53700,1,0,0:0:0:0:
448,192,53700,1,0,0:0:0:0:
192,192,53850,1,0,0:0:0:0:
320,192,54000,1,0,0:0:0:0:
448,192,54000,1,0,0:0:0:0:
192,192,54150,1,0,0:0:0:0:
64,192,54300,1,0,0:0:0:0:
448,192,54300,1,0,0:0:0:0:
320,192,54450,1,0,0:0:0:0:
192,192,54600,1,0,0:0:0:0:
448,192,54600,1,0,0:0:0:0:
320,192,54750,1,0,0:0:0:0:
64,192,54900,1,0,0:0:0:0:
192,192,54900,1,0,0:0:0:0:
320,192,55050,1,0,0:0:0:0:
64,192,55200,1,0,0:0:0:0:
448,192,55200,1,0,0:0:0:0:
192,192,55350,1,0,0:0:0:0:
320,192,55500,1,0,0:0:0:0:
64,192,55500,1,0,0:0:0:0:
192,192,55650,1,0,0:0:0:0:
64,192,55800,1,0,0:0:0:0:
320,192,55800,1,0,0:0:0:0:
192,192,55950,1,0,0:0:0:0:
448,192,56100,1,0,0:0:0:0:
64,192,56100,1,0,0:0:0:0:
320,192,56250,1,0,0:0:0:0:
448,192,56400,1,0,0:0:0:0:
64,192,56400,1,0,0:0:0:0:
192,192,56550,1,0,0:0:0:0:
64,192,56700,1,0,0:0:0:0:
448,192,56700,1,0,0:0:0:0:
320,192,56850,1,0,0:0:0:0:
192,192,57000,1,0,0:0:0:0:
64,192,57000,1,0,0:0:0:0:
320,192,57150,1,0,0:0:0:0:
192,192,57300,1,0,0:0:0:0:
448,192,57300,1,0,0:0:0:0:
320,192,57450,1,0,0:0:0:0:
64,192,57450,1,0,0:0:0:0:
448,192,57600,1,0,0:0:0:0:
320,192,57600,1,0,0:0:0:0:
192,192,57600,1,0,0:0:0:0:
192,192,57750,1,0,0:0:0:0:
320,192,57750,1,0,0:0:0:0:
192,192,57900,1,0,0:0:0:0:
64,192,57900,1,0,0:0:0:0:
192,192,58050,1,0,0:0:0:0:
64,192,58050,1,0,0:0:0:0:
320,192,58200,1,0,0:0:0:0:
192,192,58200,1,0,0:0:0:0:
448,192,58350,1,0,0:0:0:0:
320,192,58350,1,0,0:0:0:0:
448,192,58500,1,0,0:0:0:0:
320,192,58500,1,0,0:0:0:0:
192,192,58575,1,0,0:0:0:0:
64,192,58575,1,0,0:0:0:0:
448,192,58650,1,0,0:0:0:0:
320,192,58650,1,0,0:0:0:0:
192,192,58725,1,0,0:0:0:0:
64,192,58725,1,0,0:0:0:0:
448,192,58800,1,0,0:0:0:0:
320,192,58800,1,0,0:0:0:0:
192,192,58950,1,0,0:0:0:0:
64,192,58950,1,0,0:0:0:0:
448,192,58950,1,0,0:0:0:0:
192,192,59100,1,0,0:0:0:0:
64,192,59100,1,0,0:0:0:0:
448,192,59100,1,0,0:0:0:0:
448,192,59250,1,0,0:0:0:0:
320,192,59250,1,0,0:0:0:0:
64,192,59250,1,0,0:0:0:0:
320,192,59400,1,0,0:0:0:0:
448,192,59400,1,0,0:0:0:0:
64,192,59400,1,0,0:0:0:0:
192,192,59550,1,0,0:0:0:0:
64,192,59550,1,0,0:0:0:0:
448,192,59550,1,0,0:0:0:0:
448,192,59700,1,0,0:0:0:0:
320,192,59737,1,0,0:0:0:0:
64,192,59775,1,0,0:0:0:0:
192,192,59812,1,0,0:0:0:0:
448,192,59850,1,0,0:0:0:0:
320,192,59887,1,0,0:0:0:0:
64,192,59925,1,0,0:0:0:0:
192,192,59962,1,0,0:0:0:0:
448,192,60000,1,0,0:0:0:0:
320,192,60000,1,0,0:0:0:0:
192,192,60075,1,0,0:0:0:0:
64,192,60075,1,0,0:0:0:0:
448,192,60150,1,0,0:0:0:0:
320,192,60150,1,0,0:0:0:0:
192,192,60225,1,0,0:0:0:0:
64,192,60225,1,0,0:0:0:0:
448,192,60300,1,0,0:0:0:0:
320,192,60300,1,0,0:0:0:0:
192,192,60375,1,0,0:0:0:0:
64,192,60375,1,0,0:0:0:0:
448,192,60450,1,0,0:0:0:0:
320,192,60450,1,0,0:0:0:0:
192,192,60525,1,0,0:0:0:0:
64,192,60525,1,0,0:0:0:0:
448,192,60600,1,0,0:0:0:0:
320,192,60600,1,0,0:0:0:0:
192,192,60675,1,0,0:0:0:0:
64,192,60675,1,0,0:0:0:0:
448,192,60750,1,0,0:0:0:0:
320,192,60750,1,0,0:0:0:0:
192,192,60825,1,0,0:0:0:0:
64,192,60825,1,0,0:0:0:0:
448,192,60900,1,0,0:0:0:0:
320,192,60900,1,0,0:0:0:0:
64,192,60975,1,0,0:0:0:0:
192,192,60975,1,0,0:0:0:0:
448,192,61050,1,0,0:0:0:0:
320,192,61050,1,0,0:0:0:0:
192,192,61125,1,0,0:0:0:0:
64,192,61125,1,0,0:0:0:0:
320,192,61200,1,0,0:0:0:0:
448,192,61200,1,0,0:0:0:0:
192,192,61200,1,0,0:0:0:0:
320,192,61350,1,0,0:0:0:0:
192,192,61350,1,0,0:0:0:0:
64,192,61350,1,0,0:0:0:0:
448,192,61500,1,0,0:0:0:0:
192,192,61500,1,0,0:0:0:0:
64,192,61500,1,0,0:0:0:0:
320,192,61650,1,0,0:0:0:0:
64,192,61650,1,0,0:0:0:0:
448,192,61650,1,0,0:0:0:0:
64,192,61800,1,0,0:0:0:0:
192,192,61800,1,0,0:0:0:0:
320,192,61800,1,0,0:0:0:0:
64,192,61950,1,0,0:0:0:0:
320,192,61950,1,0,0:0:0:0:
448,192,61950,1,0,0:0:0:0:
192,192,62100,1,0,0:0:0:0:
64,192,62100,1,0,0:0:0:0:
448,192,62100,1,0,0:0:0:0:
448,192,62400,1,0,0:0:0:0:
320,192,62400,1,0,0:0:0:0:
192,192,62400,1,0,0:0:0:0:
64,192,62400,1,0,0:0:0:0:
64,192,62550,1,0,0:0:0:0:
192,192,62625,1,0,0:0:0:0:
64,192,62700,128,0,62925:0:0:0:0:
320,192,62700,1,0,0:0:0:0:
448,192,62700,1,0,0:0:0:0:
64,192,63000,1,0,0:0:0:0:
448,192,63000,1,0,0:0:0:0:
192,192,63075,1,0,0:0:0:0:
320,192,63150,1,0,0:0:0:0:
448,192,63225,1,0,0:0:0:0:
192,192,63300,1,0,0:0:0:0:
64,192,63300,1,0,0:0:0:0:
320,192,63375,1,0,0:0:0:0:
192,192,63450,1,0,0:0:0:0:
64,192,63525,1,0,0:0:0:0:
320,192,63600,1,0,0:0:0:0:
448,192,63600,1,0,0:0:0:0:
192,192,63675,1,0,0:0:0:0:
320,192,63750,1,0,0:0:0:0:
192,192,63825,1,0,0:0:0:0:
64,192,63900,1,0,0:0:0:0:
320,192,63900,1,0,0:0:0:0:
448,192,63975,1,0,0:0:0:0:
192,192,64050,1,0,0:0:0:0:
64,192,64050,1,0,0:0:0:0:
448,192,64125,1,0,0:0:0:0:
320,192,64200,1,0,0:0:0:0:
192,192,64200,1,0,0:0:0:0:
64,192,64275,1,0,0:0:0:0:
448,192,64350,1,0,0:0:0:0:
320,192,64425,1,0,0:0:0:0:
64,192,64425,1,0,0:0:0:0:
192,192,64500,1,0,0:0:0:0:
448,192,64500,1,0,0:0:0:0:
320,192,64650,1,0,0:0:0:0:
192,192,64725,1,0,0:0:0:0:
64,192,64800,1,0,0:0:0:0:
448,192,64800,1,0,0:0:0:0:
320,192,64875,1,0,0:0:0:0:
192,192,64950,1,0,0:0:0:0:
320,192,65025,1,0,0:0:0:0:
64,192,65100,128,0,65325:0:0:0:0:
192,192,65100,1,0,0:0:0:0:
448,192,65100,1,0,0:0:0:0:
448,192,65325,1,0,0:0:0:0:
320,192,65400,1,0,0:0:0:0:
64,192,65400,1,0,0:0:0:0:
192,192,65475,1,0,0:0:0:0:
320,192,65550,1,0,0:0:0:0:
64,192,65550,1,0,0:0:0:0:
448,192,65625,1,0,0:0:0:0:
192,192,65625,1,0,0:0:0:0:
320,192,65700,1,0,0:0:0:0:
64,192,65700,1,0,0:0:0:0:
448,192,65850,1,0,0:0:0:0:
192,192,65850,1,0,0:0:0:0:
320,192,65925,1,0,0:0:0:0:
192,192,66000,1,0,0:0:0:0:
64,192,66000,1,0,0:0:0:0:
448,192,66150,1,0,0:0:0:0:
320,192,66150,1,0,0:0:0:0:
64,192,66150,1,0,0:0:0:0:
448,192,66300,1,0,0:0:0:0:
320,192,66300,1,0,0:0:0:0:
64,192,66300,1,0,0:0:0:0:
192,192,66450,1,0,0:0:0:0:
64,192,66450,1,0,0:0:0:0:
320,192,66450,1,0,0:0:0:0:
320,192,66600,1,0,0:0:0:0:
192,192,66600,1,0,0:0:0:0:
64,192,66600,1,0,0:0:0:0:
448,192,66750,1,0,0:0:0:0:
320,192,66750,1,0,0:0:0:0:
64,192,66750,1,0,0:0:0:0:
448,192,66900,1,0,0:0:0:0:
320,192,66900,1,0,0:0:0:0:
64,192,66900,1,0,0:0:0:0:
192,192,67050,1,0,0:0:0:0:
64,192,67050,1,0,0:0:0:0:
448,192,67050,1,0,0:0:0:0:
320,192,67200,1,0,0:0:0:0:
448,192,67200,1,0,0:0:0:0:
192,192,67200,1,0,0:0:0:0:
64,192,67200,1,0,0:0:0:0:
448,192,67350,1,0,0:0:0:0:
320,192,67425,1,0,0:0:0:0:
448,192,67500,128,0,67725:0:0:0:0:
64,192,67500,1,0,0:0:0:0:
192,192,67500,1,0,0:0:0:0:
64,192,67725,1,0,0:0:0:0:
448,192,67800,1,0,0:0:0:0:
192,192,67800,1,0,0:0:0:0:
320,192,67875,1,0,0:0:0:0:
448,192,67950,1,0,0:0:0:0:
64,192,67950,1,0,0:0:0:0:
192,192,68025,1,0,0:0:0:0:
448,192,68100,1,0,0:0:0:0:
64,192,68100,1,0,0:0:0:0:
320,192,68175,1,0,0:0:0:0:
64,192,68250,1,0,0:0:0:0:
192,192,68325,1,0,0:0:0:0:
448,192,68400,1,0,0:0:0:0:
320,192,68400,1,0,0:0:0:0:
192,192,68550,1,0,0:0:0:0:
64,192,68625,1,0,0:0:0:0:
320,192,68700,1,0,0:0:0:0:
448,192,68700,1,0,0:0:0:0:
192,192,68775,1,0,0:0:0:0:
64,192,68850,1,0,0:0:0:0:
320,192,68925,1,0,0:0:0:0:
64,192,69000,1,0,0:0:0:0:
192,192,69000,1,0,0:0:0:0:
320,192,69075,1,0,0:0:0:0:
448,192,69150,1,0,0:0:0:0:
64,192,69150,1,0,0:0:0:0:
320,192,69225,1,0,0:0:0:0:
192,192,69300,1,0,0:0:0:0:
64,192,69300,1,0,0:0:0:0:
448,192,69375,1,0,0:0:0:0:
64,192,69450,1,0,0:0:0:0:
192,192,69525,1,0,0:0:0:0:
320,192,69600,1,0,0:0:0:0:
448,192,69600,1,0,0:0:0:0:
192,192,69675,1,0,0:0:0:0:
448,192,69750,1,0,0:0:0:0:
320,192,69825,1,0,0:0:0:0:
448,192,69900,128,0,70125:0:0:0:0:
64,192,69900,1,0,0:0:0:0:
192,192,69900,1,0,0:0:0:0:
64,192,70125,1,0,0:0:0:0:
192,192,70200,1,0,0:0:0:0:
448,192,70200,1,0,0:0:0:0:
320,192,70275,1,0,0:0:0:0:
192,192,70350,1,0,0:0:0:0:
448,192,70350,1,0,0:0:0:0:
320,192,70425,1,0,0:0:0:0:
64,192,70425,1,0,0:0:0:0:
192,192,70500,1,0,0:0:0:0:
448,192,70575,1,0,0:0:0:0:
64,192,70575,1,0,0:0:0:0:
320,192,70650,1,0,0:0:0:0:
192,192,70725,1,0,0:0:0:0:
448,192,70800,1,0,0:0:0:0:
320,192,70800,1,0,0:0:0:0:
64,192,70800,1,0,0:0:0:0:
448,192,70950,1,0,0:0:0:0:
64,192,70950,1,0,0:0:0:0:
192,192,71100,1,0,0:0:0:0:
320,192,71100,1,0,0:0:0:0:
320,192,71250,1,0,0:0:0:0:
192,192,71250,1,0,0:0:0:0:
64,192,71400,1,0,0:0:0:0:
192,192,71400,1,0,0:0:0:0:
448,192,71475,1,0,0:0:0:0:
320,192,71475,1,0,0:0:0:0:
192,192,71550,1,0,0:0:0:0:
64,192,71550,1,0,0:0:0:0:
448,192,71700,1,0,0:0:0:0:
320,192,71700,1,0,0:0:0:0:
320,192,71850,1,0,0:0:0:0:
192,192,71850,1,0,0:0:0:0:
448,192,72000,1,0,0:0:0:0:
192,192,72000,1,0,0:0:0:0:
64,192,72000,1,0,0:0:0:0:
64,192,72150,1,0,0:0:0:0:
192,192,72225,1,0,0:0:0:0:
64,192,72300,128,0,72525:0:0:0:0:
320,192,72300,1,0,0:0:0:0:
448,192,72300,1,0,0:0:0:0:
64,192,72600,1,0,0:0:0:0:
448,192,72600,1,0,0:0:0:0:
192,192,72675,1,0,0:0:0:0:
320,192,72750,1,0,0:0:0:0:
448,192,72825,1,0,0:0:0:0:
192,192,72900,1,0,0:0:0:0:
64,192,72900,1,0,0:0:0:0:
320,192,72975,1,0,0:0:0:0:
192,192,73050,1,0,0:0:0:0:
64,192,73125,1,0,0:0:0:0:
320,192,73200,1,0,0:0:0:0:
448,192,73200,1,0,0:0:0:0:
192,192,73275,1,0,0:0:0:0:
320,192,73350,1,0,0:0:0:0:
192,192,73425,1,0,0:0:0:0:
64,192,73500,1,0,0:0:0:0:
320,192,73500,1,0,0:0:0:0:
448,192,73575,1,0,0:0:0:0:
192,192,73650,1,0,0:0:0:0:
64,192,73650,1,0,0:0:0:0:
448,192,73725,1,0,0:0:0:0:
320,192,73800,1,0,0:0:0:0:
192,192,73800,1,0,0:0:0:0:
64,192,73875,1,0,0:0:0:0:
448,192,73950,1,0,0:0:0:0:
320,192,74025,1,0,0:0:0:0:
64,192,74025,1,0,0:0:0:0:
192,192,74100,1,0,0:0:0:0:
448,192,74100,1,0,0:0:0:0:
320,192,74250,1,0,0:0:0:0:
192,192,74325,1,0,0:0:0:0:
64,192,74400,1,0,0:0:0:0:
448,192,74400,1,0,0:0:0:0:
320,192,74475,1,0,0:0:0:0:
192,192,74550,1,0,0:0:0:0:
320,192,74625,1,0,0:0:0:0:
64,192,74700,128,0,74925:0:0:0:0:
192,192,74700,1,0,0:0:0:0:
448,192,74700,1,0,0:0:0:0:
448,192,74925,1,0,0:0:0:0:
320,192,75000,1,0,0:0:0:0:
64,192,75000,1,0,0:0:0:0:
192,192,75075,1,0,0:0:0:0:
320,192,75150,1,0,0:0:0:0:
64,192,75150,1,0,0:0:0:0:
448,192,75225,1,0,0:0:0:0:
192,192,75225,1,0,0:0:0:0:
320,192,75300,1,0,0:0:0:0:
64,192,75300,1,0,0:0:0:0:
448,192,75450,1,0,0:0:0:0:
192,192,75450,1,0,0:0:0:0:
320,192,75525,1,0,0:0:0:0:
192,192,75600,1,0,0:0:0:0:
64,192,75600,1,0,0:0:0:0:
448,192,75750,1,0,0:0:0:0:
320,192,75750,1,0,0:0:0:0:
64,192,75750,1,0,0:0:0:0:
448,192,75900,1,0,0:0:0:0:
320,192,75900,1,0,0:0:0:0:
64,192,75900,1,0,0:0:0:0:
192,192,76050,1,0,0:0:0:0:
64,192,76050,1,0,0:0:0:0:
320,192,76050,1,0,0:0:0:0:
320,192,76200,1,0,0:0:0:0:
192,192,76200,1,0,0:0:0:0:
64,192,76200,1,0,0:0:0:0:
448,192,76350,1,0,0:0:0:0:
320,192,76350,1,0,0:0:0:0:
64,192,76350,1,0,0:0:0:0:
448,192,76500,1,0,0:0:0:0:
320,192,76500,1,0,0:0:0:0:
64,192,76500,1,0,0:0:0:0:
192,192,76650,1,0,0:0:0:0:
64,192,76650,1,0,0:0:0:0:
448,192,76650,1,0,0:0:0:0:
320,192,76800,1,0,0:0:0:0:
448,192,76800,1,0,0:0:0:0:
192,192,76800,1,0,0:0:0:0:
64,192,76800,1,0,0:0:0:0:
448,192,76950,1,0,0:0:0:0:
320,192,77025,1,0,0:0:0:0:
448,192,77100,128,0,77325:0:0:0:0:
64,192,77100,1,0,0:0:0:0:
192,192,77100,1,0,0:0:0:0:
64,192,77325,1,0,0:0:0:0:
448,192,77400,1,0,0:0:0:0:
192,192,77400,1,0,0:0:0:0:
320,192,77475,1,0,0:0:0:0:
448,192,77550,1,0,0:0:0:0:
64,192,77550,1,0,0:0:0:0:
192,192,77625,1,0,0:0:0:0:
448,192,77700,1,0,0:0:0:0:
64,192,77700,1,0,0:0:0:0:
320,192,77775,1,0,0:0:0:0:
64,192,77850,1,0,0:0:0:0:
192,192,77925,1,0,0:0:0:0:
448,192,78000,1,0,0:0:0:0:
320,192,78000,1,0,0:0:0:0:
192,192,78150,1,0,0:0:0:0:
64,192,78225,1,0,0:0:0:0:
320,192,78300,1,0,0:0:0:0:
448,192,78300,1,0,0:0:0:0:
192,192,78375,1,0,0:0:0:0:
64,192,78450,1,0,0:0:0:0:
320,192,78525,1,0,0:0:0:0:
64,192,78600,1,0,0:0:0:0:
192,192,78600,1,0,0:0:0:0:
320,192,78675,1,0,0:0:0:0:
448,192,78750,1,0,0:0:0:0:
64,192,78750,1,0,0:0:0:0:
320,192,78825,1,0,0:0:0:0:
192,192,78900,1,0,0:0:0:0:
64,192,78900,1,0,0:0:0:0:
448,192,78975,1,0,0:0:0:0:
64,192,79050,1,0,0:0:0:0:
192,192,79125,1,0,0:0:0:0:
320,192,79200,1,0,0:0:0:0:
448,192,79200,1,0,0:0:0:0:
192,192,79275,1,0,0:0:0:0:
448,192,79350,1,0,0:0:0:0:
320,192,79425,1,0,0:0:0:0:
448,192,79500,128,0,79725:0:0:0:0:
64,192,79500,1,0,0:0:0:0:
192,192,79500,1,0,0:0:0:0:
64,192,79725,1,0,0:0:0:0:
192,192,79800,1,0,0:0:0:0:
448,192,79800,1,0,0:0:0:0:
320,192,79875,1,0,0:0:0:0:
192,192,79950,1,0,0:0:0:0:
448,192,79950,1,0,0:0:0:0:
320,192,80025,1,0,0:0:0:0:
64,192,80025,1,0,0:0:0:0:
192,192,80100,1,0,0:0:0:0:
448,192,80175,1,0,0:0:0:0:
64,192,80175,1,0,0:0:0:0:
320,192,80250,1,0,0:0:0:0:
192,192,80325,1,0,0:0:0:0:
448,192,80400,1,0,0:0:0:0:
320,192,80400,1,0,0:0:0:0:
64,192,80400,1,0,0:0:0:0:
448,192,80550,1,0,0:0:0:0:
64,192,80550,1,0,0:0:0:0:
192,192,80700,1,0,0:0:0:0:
320,192,80700,1,0,0:0:0:0:
448,192,80700,1,0,0:0:0:0:
320,192,80850,1,0,0:0:0:0:
64,192,80850,1,0,0:0:0:0:
64,192,81000,1,0,0:0:0:0:
192,192,81000,1,0,0:0:0:0:
448,192,81075,1,0,0:0:0:0:
320,192,81075,1,0,0:0:0:0:
192,192,81150,1,0,0:0:0:0:
64,192,81150,1,0,0:0:0:0:
320,192,81300,1,0,0:0:0:0:
448,192,81300,1,0,0:0:0:0:
320,192,81450,1,0,0:0:0:0:
192,192,81450,1,0,0:0:0:0:
192,192,81600,1,0,0:0:0:0:
448,192,81600,128,0,81900:0:0:0:0:
64,192,81600,1,0,0:0:0:0:
320,192,81900,128,0,82200:0:0:0:0:
192,192,81900,1,0,0:0:0:0:
64,192,82200,128,0,83400:0:0:0:0:
192,192,82200,1,0,0:0:0:0:
448,192,82275,1,0,0:0:0:0:
192,192,82350,1,0,0:0:0:0:
320,192,82425,1,0,0:0:0:0:
448,192,82500,1,0,0:0:0:0:
192,192,82575,1,0,0:0:0:0:
320,192,82650,1,0,0:0:0:0:
448,192,82725,1,0,0:0:0:0:
192,192,82800,1,0,0:0:0:0:
320,192,82875,1,0,0:0:0:0:
448,192,82950,1,0,0:0:0:0:
192,192,83025,1,0,0:0:0:0:
320,192,83100,1,0,0:0:0:0:
448,192,83175,1,0,0:0:0:0:
192,192,83250,1,0,0:0:0:0:
320,192,83325,1,0,0:0:0:0:
320,192,83400,128,0,84000:0:0:0:0:
448,192,83400,1,0,0:0:0:0:
192,192,83475,1,0,0:0:0:0:
64,192,83550,1,0,0:0:0:0:
448,192,83625,1,0,0:0:0:0:
192,192,83700,1,0,0:0:0:0:
64,192,83775,1,0,0:0:0:0:
448,192,83850,1,0,0:0:0:0:
192,192,83925,1,0,0:0:0:0:
64,192,84000,128,0,85200:0:0:0:0:
448,192,84000,1,0,0:0:0:0:
192,192,84075,1,0,0:0:0:0:
320,192,84150,1,0,0:0:0:0:
448,192,84225,1,0,0:0:0:0:
192,192,84300,1,0,0:0:0:0:
320,192,84375,1,0,0:0:0:0:
448,192,84450,1,0,0:0:0:0:
192,192,84525,1,0,0:0:0:0:
320,192,84600,1,0,0:0:0:0:
448,192,84675,1,0,0:0:0:0:
192,192,84750,1,0,0:0:0:0:
320,192,84825,1,0,0:0:0:0:
448,192,84900,1,0,0:0:0:0:
192,192,84975,1,0,0:0:0:0:
320,192,85050,1,0,0:0:0:0:
448,192,85125,1,0,0:0:0:0:
320,192,85200,1,0,0:0:0:0:
192,192,85200,128,0,85500:0:0:0:0:
448,192,85275,1,0,0:0:0:0:
320,192,85350,1,0,0:0:0:0:
64,192,85425,1,0,0:0:0:0:
320,192,85500,128,0,85800:0:0:0:0:
448,192,85500,1,0,0:0:0:0:
64,192,85575,1,0,0:0:0:0:
192,192,85650,1,0,0:0:0:0:
64,192,85725,1,0,0:0:0:0:
448,192,85800,128,0,86100:0:0:0:0:
192,192,85800,1,0,0:0:0:0:
64,192,85875,1,0,0:0:0:0:
320,192,85950,1,0,0:0:0:0:
192,192,86025,1,0,0:0:0:0:
320,192,86100,128,0,86400:0:0:0:0:
64,192,86100,1,0,0:0:0:0:
192,192,86175,1,0,0:0:0:0:
64,192,86250,1,0,0:0:0:0:
192,192,86325,1,0,0:0:0:0:
448,192,86400,128,0,86700:0:0:0:0:
64,192,86400,1,0,0:0:0:0:
192,192,86475,1,0,0:0:0:0:
320,192,86550,1,0,0:0:0:0:
64,192,86625,1,0,0:0:0:0:
320,192,86700,128,0,87000:0:0:0:0:
192,192,86700,1,0,0:0:0:0:
448,192,86775,1,0,0:0:0:0:
64,192,86850,1,0,0:0:0:0:
192,192,86925,1,0,0:0:0:0:
64,192,87000,128,0,88200:0:0:0:0:
448,192,87000,1,0,0:0:0:0:
192,192,87075,1,0,0:0:0:0:
320,192,87150,1,0,0:0:0:0:
448,192,87225,1,0,0:0:0:0:
192,192,87300,1,0,0:0:0:0:
320,192,87375,1,0,0:0:0:0:
448,192,87450,1,0,0:0:0:0:
192,192,87525,1,0,0:0:0:0:
320,192,87600,1,0,0:0:0:0:
448,192,87675,1,0,0:0:0:0:
192,192,87750,1,0,0:0:0:0:
320,192,87825,1,0,0:0:0:0:
448,192,87900,1,0,0:0:0:0:
192,192,87975,1,0,0:0:0:0:
320,192,88050,1,0,0:0:0:0:
448,192,88125,1,0,0:0:0:0:
320,192,88200,128,0,88800:0:0:0:0:
192,192,88200,1,0,0:0:0:0:
448,192,88275,1,0,0:0:0:0:
192,192,88350,1,0,0:0:0:0:
64,192,88425,1,0,0:0:0:0:
448,192,88500,1,0,0:0:0:0:
192,192,88575,1,0,0:0:0:0:
64,192,88650,1,0,0:0:0:0:
448,192,88725,1,0,0:0:0:0:
64,192,88800,128,0,90000:0:0:0:0:
192,192,88800,1,0,0:0:0:0:
448,192,88875,1,0,0:0:0:0:
320,192,88950,1,0,0:0:0:0:
192,192,89025,1,0,0:0:0:0:
448,192,89100,1,0,0:0:0:0:
320,192,89175,1,0,0:0:0:0:
192,192,89250,1,0,0:0:0:0:
448,192,89325,1,0,0:0:0:0:
320,192,89400,1,0,0:0:0:0:
192,192,89475,1,0,0:0:0:0:
448,192,89550,1,0,0:0:0:0:
320,192,89625,1,0,0:0:0:0:
192,192,89700,1,0,0:0:0:0:
448,192,89775,1,0,0:0:0:0:
320,192,89850,1,0,0:0:0:0:
192,192,89925,1,0,0:0:0:0:
448,192,90000,1,0,0:0:0:0:
192,192,90075,1,0,0:0:0:0:
320,192,90150,1,0,0:0:0:0:
64,192,90225,1,0,0:0:0:0:
448,192,90300,1,0,0:0:0:0:
192,192,90375,1,0,0:0:0:0:
320,192,90450,1,0,0:0:0:0:
64,192,90525,1,0,0:0:0:0:
448,192,90600,1,0,0:0:0:0:
192,192,90675,1,0,0:0:0:0:
320,192,90750,1,0,0:0:0:0:
64,192,90825,1,0,0:0:0:0:
448,192,90900,1,0,0:0:0:0:
320,192,90975,1,0,0:0:0:0:
64,192,91050,1,0,0:0:0:0:
192,192,91125,1,0,0:0:0:0:
320,192,91200,1,0,0:0:0:0:
448,192,91200,1,0,0:0:0:0:
64,192,91200,1,0,0:0:0:0:
192,192,91275,1,0,0:0:0:0:
320,192,91350,1,0,0:0:0:0:
448,192,91425,1,0,0:0:0:0:
64,192,91500,1,0,0:0:0:0:
320,192,91500,1,0,0:0:0:0:
192,192,91575,1,0,0:0:0:0:
320,192,91650,1,0,0:0:0:0:
448,192,91725,1,0,0:0:0:0:
64,192,91800,1,0,0:0:0:0:
320,192,91800,1,0,0:0:0:0:
192,192,91875,1,0,0:0:0:0:
320,192,91950,1,0,0:0:0:0:
448,192,92025,1,0,0:0:0:0:
64,192,92100,1,0,0:0:0:0:
320,192,92100,1,0,0:0:0:0:
192,192,92175,1,0,0:0:0:0:
320,192,92250,1,0,0:0:0:0:
448,192,92325,1,0,0:0:0:0:
64,192,92400,1,0,0:0:0:0:
320,192,92400,1,0,0:0:0:0:
192,192,92475,1,0,0:0:0:0:
320,192,92550,1,0,0:0:0:0:
448,192,92625,1,0,0:0:0:0:
320,192,92700,1,0,0:0:0:0:
64,192,92700,1,0,0:0:0:0:
192,192,92775,1,0,0:0:0:0:
320,192,92850,1,0,0:0:0:0:
448,192,92925,1,0,0:0:0:0:
64,192,93000,1,0,0:0:0:0:
320,192,93000,1,0,0:0:0:0:
192,192,93075,1,0,0:0:0:0:
320,192,93150,1,0,0:0:0:0:
448,192,93225,1,0,0:0:0:0:
64,192,93300,1,0,0:0:0:0:
320,192,93300,1,0,0:0:0:0:
192,192,93375,1,0,0:0:0:0:
320,192,93450,1,0,0:0:0:0:
448,192,93525,1,0,0:0:0:0:
64,192,93600,1,0,0:0:0:0:
320,192,93600,1,0,0:0:0:0:
192,192,93675,1,0,0:0:0:0:
320,192,93750,1,0,0:0:0:0:
448,192,93825,1,0,0:0:0:0:
64,192,93900,1,0,0:0:0:0:
320,192,93900,1,0,0:0:0:0:
192,192,93975,1,0,0:0:0:0:
320,192,94050,1,0,0:0:0:0:
448,192,94125,1,0,0:0:0:0:
64,192,94200,1,0,0:0:0:0:
320,192,94200,1,0,0:0:0:0:
192,192,94275,1,0,0:0:0:0:
320,192,94350,1,0,0:0:0:0:
448,192,94425,1,0,0:0:0:0:
64,192,94500,1,0,0:0:0:0:
320,192,94500,1,0,0:0:0:0:
192,192,94575,1,0,0:0:0:0:
64,192,94650,1,0,0:0:0:0:
320,192,94725,1,0,0:0:0:0:
192,192,94800,1,0,0:0:0:0:
448,192,94875,1,0,0:0:0:0:
320,192,94950,1,0,0:0:0:0:
64,192,95025,1,0,0:0:0:0:
448,192,95100,1,0,0:0:0:0:
192,192,95175,1,0,0:0:0:0:
320,192,95250,1,0,0:0:0:0:
64,192,95325,1,0,0:0:0:0:
448,192,95400,1,0,0:0:0:0:
192,192,95475,1,0,0:0:0:0:
320,192,95550,1,0,0:0:0:0:
64,192,95625,1,0,0:0:0:0:
448,192,95700,1,0,0:0:0:0:
192,192,95775,1,0,0:0:0:0:
320,192,95850,1,0,0:0:0:0:
64,192,95925,1,0,0:0:0:0:
192,192,96000,1,0,0:0:0:0:
448,192,96000,1,0,0:0:0:0:
320,192,96075,1,0,0:0:0:0:
192,192,96150,1,0,0:0:0:0:
64,192,96225,1,0,0:0:0:0:
192,192,96300,1,0,0:0:0:0:
448,192,96300,1,0,0:0:0:0:
320,192,96375,1,0,0:0:0:0:
192,192,96450,1,0,0:0:0:0:
64,192,96525,1,0,0:0:0:0:
448,192,96600,1,0,0:0:0:0:
192,192,96600,1,0,0:0:0:0:
320,192,96675,1,0,0:0:0:0:
192,192,96750,1,0,0:0:0:0:
64,192,96825,1,0,0:0:0:0:
192,192,96900,1,0,0:0:0:0:
448,192,96900,1,0,0:0:0:0:
320,192,96975,1,0,0:0:0:0:
192,192,97050,1,0,0:0:0:0:
64,192,97125,1,0,0:0:0:0:
192,192,97200,1,0,0:0:0:0:
448,192,97200,1,0,0:0:0:0:
320,192,97275,1,0,0:0:0:0:
192,192,97350,1,0,0:0:0:0:
64,192,97425,1,0,0:0:0:0:
192,192,97500,1,0,0:0:0:0:
448,192,97500,1,0,0:0:0:0:
320,192,97575,1,0,0:0:0:0:
192,192,97650,1,0,0:0:0:0:
64,192,97725,1,0,0:0:0:0:
192,192,97800,1,0,0:0:0:0:
448,192,97800,1,0,0:0:0:0:
320,192,97875,1,0,0:0:0:0:
192,192,97950,1,0,0:0:0:0:
64,192,98025,1,0,0:0:0:0:
192,192,98100,1,0,0:0:0:0:
448,192,98100,1,0,0:0:0:0:
320,192,98175,1,0,0:0:0:0:
192,192,98250,1,0,0:0:0:0:
64,192,98325,1,0,0:0:0:0:
192,192,98400,1,0,0:0:0:0:
448,192,98400,1,0,0:0:0:0:
320,192,98475,1,0,0:0:0:0:
192,192,98550,1,0,0:0:0:0:
64,192,98625,1,0,0:0:0:0:
192,192,98700,1,0,0:0:0:0:
448,192,98700,1,0,0:0:0:0:
320,192,98775,1,0,0:0:0:0:
192,192,98850,1,0,0:0:0:0:
64,192,98925,1,0,0:0:0:0:
192,192,99000,1,0,0:0:0:0:
448,192,99000,1,0,0:0:0:0:
320,192,99075,1,0,0:0:0:0:
192,192,99150,1,0,0:0:0:0:
64,192,99225,1,0,0:0:0:0:
192,192,99300,1,0,0:0:0:0:
448,192,99300,1,0,0:0:0:0:
320,192,99375,1,0,0:0:0:0:
192,192,99450,1,0,0:0:0:0:
448,192,99525,1,0,0:0:0:0:
192,192,99600,1,0,0:0:0:0:
64,192,99675,1,0,0:0:0:0:
320,192,99750,1,0,0:0:0:0:
448,192,99825,1,0,0:0:0:0:
192,192,99900,1,0,0:0:0:0:
64,192,99975,1,0,0:0:0:0:
320,192,100050,1,0,0:0:0:0:
448,192,100125,1,0,0:0:0:0:
192,192,100200,1,0,0:0:0:0:
64,192,100275,1,0,0:0:0:0:
320,192,100350,1,0,0:0:0:0:
448,192,100425,1,0,0:0:0:0:
192,192,100500,1,0,0:0:0:0:
64,192,100575,1,0,0:0:0:0:
320,192,100650,1,0,0:0:0:0:
448,192,100725,1,0,0:0:0:0:
64,192,100800,1,0,0:0:0:0:
320,192,100800,1,0,0:0:0:0:
192,192,100875,1,0,0:0:0:0:
320,192,100950,1,0,0:0:0:0:
448,192,101025,1,0,0:0:0:0:
64,192,101100,1,0,0:0:0:0:
320,192,101100,1,0,0:0:0:0:
192,192,101175,1,0,0:0:0:0:
320,192,101250,1,0,0:0:0:0:
448,192,101325,1,0,0:0:0:0:
64,192,101400,1,0,0:0:0:0:
320,192,101400,1,0,0:0:0:0:
192,192,101475,1,0,0:0:0:0:
320,192,101550,1,0,0:0:0:0:
448,192,101625,1,0,0:0:0:0:
64,192,101700,1,0,0:0:0:0:
320,192,101700,1,0,0:0:0:0:
192,192,101775,1,0,0:0:0:0:
320,192,101850,1,0,0:0:0:0:
448,192,101925,1,0,0:0:0:0:
64,192,102000,1,0,0:0:0:0:
320,192,102000,1,0,0:0:0:0:
192,192,102075,1,0,0:0:0:0:
320,192,102150,1,0,0:0:0:0:
448,192,102225,1,0,0:0:0:0:
320,192,102300,1,0,0:0:0:0:
64,192,102300,1,0,0:0:0:0:
192,192,102375,1,0,0:0:0:0:
320,192,102450,1,0,0:0:0:0:
448,192,102525,1,0,0:0:0:0:
64,192,102600,1,0,0:0:0:0:
320,192,102600,1,0,0:0:0:0:
192,192,102675,1,0,0:0:0:0:
320,192,102750,1,0,0:0:0:0:
448,192,102825,1,0,0:0:0:0:
64,192,102900,1,0,0:0:0:0:
320,192,102900,1,0,0:0:0:0:
192,192,102975,1,0,0:0:0:0:
320,192,103050,1,0,0:0:0:0:
448,192,103125,1,0,0:0:0:0:
64,192,103200,1,0,0:0:0:0:
320,192,103200,1,0,0:0:0:0:
192,192,103275,1,0,0:0:0:0:
320,192,103350,1,0,0:0:0:0:
448,192,103425,1,0,0:0:0:0:
64,192,103500,1,0,0:0:0:0:
320,192,103500,1,0,0:0:0:0:
192,192,103575,1,0,0:0:0:0:
320,192,103650,1,0,0:0:0:0:
448,192,103725,1,0,0:0:0:0:
64,192,103800,1,0,0:0:0:0:
320,192,103800,1,0,0:0:0:0:
192,192,103875,1,0,0:0:0:0:
320,192,103950,1,0,0:0:0:0:
448,192,104025,1,0,0:0:0:0:
64,192,104100,1,0,0:0:0:0:
320,192,104100,1,0,0:0:0:0:
192,192,104175,1,0,0:0:0:0:
64,192,104250,1,0,0:0:0:0:
448,192,104325,1,0,0:0:0:0:
192,192,104400,1,0,0:0:0:0:
64,192,104475,1,0,0:0:0:0:
448,192,104550,1,0,0:0:0:0:
320,192,104625,1,0,0:0:0:0:
64,192,104700,1,0,0:0:0:0:
192,192,104775,1,0,0:0:0:0:
448,192,104850,1,0,0:0:0:0:
320,192,104925,1,0,0:0:0:0:
192,192,105000,1,0,0:0:0:0:
64,192,105075,1,0,0:0:0:0:
320,192,105150,1,0,0:0:0:0:
448,192,105225,1,0,0:0:0:0:
192,192,105300,1,0,0:0:0:0:
64,192,105375,1,0,0:0:0:0:
448,192,105450,1,0,0:0:0:0:
320,192,105525,1,0,0:0:0:0:
192,192,105600,1,0,0:0:0:0:
448,192,105600,1,0,0:0:0:0:
320,192,105675,1,0,0:0:0:0:
192,192,105750,1,0,0:0:0:0:
64,192,105825,1,0,0:0:0:0:
192,192,105900,1,0,0:0:0:0:
448,192,105900,1,0,0:0:0:0:
320,192,105975,1,0,0:0:0:0:
192,192,106050,1,0,0:0:0:0:
64,192,106125,1,0,0:0:0:0:
448,192,106200,1,0,0:0:0:0:
192,192,106200,1,0,0:0:0:0:
320,192,106275,1,0,0:0:0:0:
192,192,106350,1,0,0:0:0:0:
64,192,106425,1,0,0:0:0:0:
192,192,106500,1,0,0:0:0:0:
448,192,106500,1,0,0:0:0:0:
320,192,106575,1,0,0:0:0:0:
192,192,106650,1,0,0:0:0:0:
64,192,106725,1,0,0:0:0:0:
192,192,106800,1,0,0:0:0:0:
448,192,106800,1,0,0:0:0:0:
320,192,106875,1,0,0:0:0:0:
192,192,106950,1,0,0:0:0:0:
64,192,107025,1,0,0:0:0:0:
192,192,107100,1,0,0:0:0:0:
448,192,107100,1,0,0:0:0:0:
320,192,107175,1,0,0:0:0:0:
192,192,107250,1,0,0:0:0:0:
64,192,107325,1,0,0:0:0:0:
192,192,107400,1,0,0:0:0:0:
448,192,107400,1,0,0:0:0:0:
320,192,107475,1,0,0:0:0:0:
192,192,107550,1,0,0:0:0:0:
64,192,107625,1,0,0:0:0:0:
192,192,107700,1,0,0:0:0:0:
448,192,107700,1,0,0:0:0:0:
320,192,107775,1,0,0:0:0:0:
192,192,107850,1,0,0:0:0:0:
64,192,107925,1,0,0:0:0:0:
192,192,108000,1,0,0:0:0:0:
448,192,108000,1,0,0:0:0:0:
320,192,108075,1,0,0:0:0:0:
192,192,108150,1,0,0:0:0:0:
64,192,108225,1,0,0:0:0:0:
192,192,108300,1,0,0:0:0:0:
448,192,108300,1,0,0:0:0:0:
320,192,108375,1,0,0:0:0:0:
192,192,108450,1,0,0:0:0:0:
64,192,108525,1,0,0:0:0:0:
192,192,108600,1,0,0:0:0:0:
448,192,108600,1,0,0:0:0:0:
320,192,108675,1,0,0:0:0:0:
192,192,108750,1,0,0:0:0:0:
64,192,108825,1,0,0:0:0:0:
192,192,108900,1,0,0:0:0:0:
448,192,108900,1,0,0:0:0:0:
320,192,108975,1,0,0:0:0:0:
192,192,109050,1,0,0:0:0:0:
448,192,109125,1,0,0:0:0:0:
320,192,109200,1,0,0:0:0:0:
64,192,109275,1,0,0:0:0:0:
320,192,109350,1,0,0:0:0:0:
64,192,109425,1,0,0:0:0:0:
448,192,109500,1,0,0:0:0:0:
192,192,109575,1,0,0:0:0:0:
448,192,109650,1,0,0:0:0:0:
192,192,109725,1,0,0:0:0:0:
320,192,109800,1,0,0:0:0:0:
64,192,109875,1,0,0:0:0:0:
320,192,109950,1,0,0:0:0:0:
64,192,110025,1,0,0:0:0:0:
448,192,110100,1,0,0:0:0:0:
192,192,110175,1,0,0:0:0:0:
448,192,110250,1,0,0:0:0:0:
192,192,110325,1,0,0:0:0:0:
64,192,110400,1,0,0:0:0:0:
320,192,110400,1,0,0:0:0:0:
448,192,110400,128,0,115200:0:0:0:0:
64,192,114000,1,0,0:0:0:0:
192,192,114150,1,0,0:0:0:0:
320,192,114300,1,0,0:0:0:0:
320,192,114450,1,0,0:0:0:0:
192,192,114600,1,0,0:0:0:0:
192,192,114750,1,0,0:0:0:0:
64,192,114900,1,0,0:0:0:0:
192,192,115050,1,0,0:0:0:0:
320,192,115200,1,0,0:0:0:0:
64,192,115200,1,0,0:0:0:0:
192,192,115650,1,0,0:0:0:0:
320,192,115650,1,0,0:0:0:0:
448,192,115650,1,0,0:0:0:0:
192,192,116100,1,0,0:0:0:0:
64,192,116100,1,0,0:0:0:0:
320,192,116100,1,0,0:0:0:0:
448,192,116250,1,0,0:0:0:0:
64,192,116400,1,0,0:0:0:0:
320,192,116400,1,0,0:0:0:0:
192,192,116475,1,0,0:0:0:0:
448,192,116550,1,0,0:0:0:0:
320,192,116625,1,0,0:0:0:0:
64,192,116700,1,0,0:0:0:0:
192,192,116775,1,0,0:0:0:0:
448,192,116850,1,0,0:0:0:0:
320,192,116925,1,0,0:0:0:0:
192,192,117000,1,0,0:0:0:0:
64,192,117000,1,0,0:0:0:0:
320,192,117075,1,0,0:0:0:0:
448,192,117150,1,0,0:0:0:0:
64,192,117225,1,0,0:0:0:0:
192,192,117300,1,0,0:0:0:0:
448,192,117375,1,0,0:0:0:0:
320,192,117450,1,0,0:0:0:0:
192,192,117525,1,0,0:0:0:0:
64,192,117600,1,0,0:0:0:0:
448,192,117600,1,0,0:0:0:0:
320,192,117600,1,0,0:0:0:0:
192,192,118050,1,0,0:0:0:0:
320,192,118050,1,0,0:0:0:0:
448,192,118050,1,0,0:0:0:0:
320,192,118500,1,0,0:0:0:0:
64,192,118500,1,0,0:0:0:0:
448,192,118500,1,0,0:0:0:0:
192,192,118650,1,0,0:0:0:0:
320,192,118800,1,0,0:0:0:0:
448,192,118800,1,0,0:0:0:0:
192,192,118875,1,0,0:0:0:0:
64,192,118950,1,0,0:0:0:0:
320,192,119025,1,0,0:0:0:0:
448,192,119100,1,0,0:0:0:0:
192,192,119175,1,0,0:0:0:0:
320,192,119250,1,0,0:0:0:0:
64,192,119325,1,0,0:0:0:0:
192,192,119400,1,0,0:0:0:0:
448,192,119400,1,0,0:0:0:0:
320,192,119475,1,0,0:0:0:0:
192,192,119550,1,0,0:0:0:0:
64,192,119625,1,0,0:0:0:0:
320,192,119700,1,0,0:0:0:0:
448,192,119700,1,0,0:0:0:0:
192,192,119775,1,0,0:0:0:0:
320,192,119850,1,0,0:0:0:0:
64,192,119925,1,0,0:0:0:0:
192,192,120000,1,0,0:0:0:0:
320,192,120000,1,0,0:0:0:0:
448,192,120000,1,0,0:0:0:0:
320,192,120450,1,0,0:0:0:0:
64,192,120450,1,0,0:0:0:0:
192,192,120450,1,0,0:0:0:0:
320,192,120900,1,0,0:0:0:0:
448,192,120900,1,0,0:0:0:0:
64,192,120900,1,0,0:0:0:0:
192,192,121050,1,0,0:0:0:0:
448,192,121200,1,0,0:0:0:0:
64,192,121200,1,0,0:0:0:0:
192,192,121275,1,0,0:0:0:0:
320,192,121350,1,0,0:0:0:0:
64,192,121425,1,0,0:0:0:0:
192,192,121500,1,0,0:0:0:0:
448,192,121575,1,0,0:0:0:0:
320,192,121650,1,0,0:0:0:0:
192,192,121725,1,0,0:0:0:0:
64,192,121800,1,0,0:0:0:0:
448,192,121800,1,0,0:0:0:0:
320,192,121875,1,0,0:0:0:0:
64,192,121950,1,0,0:0:0:0:
192,192,122025,1,0,0:0:0:0:
320,192,122100,1,0,0:0:0:0:
64,192,122175,1,0,0:0:0:0:
192,192,122250,1,0,0:0:0:0:
448,192,122325,1,0,0:0:0:0:
320,192,122400,1,0,0:0:0:0:
192,192,122400,1,0,0:0:0:0:
64,192,122400,1,0,0:0:0:0:
448,192,122850,1,0,0:0:0:0:
320,192,122850,1,0,0:0:0:0:
192,192,122850,1,0,0:0:0:0:
320,192,123300,1,0,0:0:0:0:
192,192,123300,1,0,0:0:0:0:
64,192,123300,1,0,0:0:0:0:
448,192,123450,1,0,0:0:0:0:
64,192,123600,1,0,0:0:0:0:
320,192,123600,1,0,0:0:0:0:
448,192,123750,1,0,0:0:0:0:
320,192,123825,1,0,0:0:0:0:
64,192,123900,1,0,0:0:0:0:
192,192,123900,1,0,0:0:0:0:
448,192,124050,1,0,0:0:0:0:
320,192,124125,1,0,0:0:0:0:
64,192,124200,1,0,0:0:0:0:
192,192,124200,1,0,0:0:0:0:
448,192,124350,1,0,0:0:0:0:
320,192,124425,1,0,0:0:0:0:
64,192,124500,1,0,0:0:0:0:
192,192,124500,1,0,0:0:0:0:
448,192,124650,1,0,0:0:0:0:
320,192,124725,1,0,0:0:0:0:
64,192,124800,1,0,0:0:0:0:
192,192,124800,1,0,0:0:0:0:
448,192,124800,1,0,0:0:0:0:
320,192,124875,1,0,0:0:0:0:
192,192,124950,1,0,0:0:0:0:
448,192,125025,1,0,0:0:0:0:
64,192,125100,1,0,0:0:0:0:
320,192,125100,1,0,0:0:0:0:
192,192,125175,1,0,0:0:0:0:
320,192,125250,1,0,0:0:0:0:
448,192,125325,1,0,0:0:0:0:
64,192,125400,1,0,0:0:0:0:
192,192,125400,1,0,0:0:0:0:
448,192,125475,1,0,0:0:0:0:
320,192,125550,1,0,0:0:0:0:
192,192,125625,1,0,0:0:0:0:
64,192,125700,1,0,0:0:0:0:
320,192,125700,1,0,0:0:0:0:
448,192,125775,1,0,0:0:0:0:
192,192,125850,1,0,0:0:0:0:
320,192,125925,1,0,0:0:0:0:
64,192,126000,1,0,0:0:0:0:
448,192,126000,1,0,0:0:0:0:
64,192,126300,1,0,0:0:0:0:
64,192,126600,1,0,0:0:0:0:
192,192,126750,1,0,0:0:0:0:
320,192,126900,1,0,0:0:0:0:
320,192,127200,1,0,0:0:0:0:
320,192,127350,1,0,0:0:0:0:
192,192,127500,1,0,0:0:0:0:
64,192,127650,1,0,0:0:0:0:
64,192,127800,1,0,0:0:0:0:
64,192,128100,1,0,0:0:0:0:
320,192,128250,1,0,0:0:0:0:
192,192,128400,1,0,0:0:0:0:
448,192,128700,1,0,0:0:0:0:
320,192,129000,1,0,0:0:0:0:
192,192,129150,1,0,0:0:0:0:
320,192,129300,1,0,0:0:0:0:
192,192,129450,1,0,0:0:0:0:
64,192,129600,1,0,0:0:0:0:
64,192,129750,1,0,0:0:0:0:
320,192,129900,1,0,0:0:0:0:
64,192,130050,1,0,0:0:0:0:
64,192,130200,1,0,0:0:0:0:
192,192,130500,1,0,0:0:0:0:
320,192,130650,1,0,0:0:0:0:
448,192,130800,1,0,0:0:0:0:
64,192,130800,1,0,0:0:0:0:
192,192,130800,1,0,0:0:0:0:
192,192,131100,1,0,0:0:0:0:
448,192,131400,1,0,0:0:0:0:
320,192,131550,1,0,0:0:0:0:
192,192,131700,1,0,0:0:0:0:
64,192,131850,1,0,0:0:0:0:
320,192,132000,1,0,0:0:0:0:
320,192,132150,1,0,0:0:0:0:
192,192,132300,1,0,0:0:0:0:
320,192,132450,1,0,0:0:0:0:
320,192,132600,1,0,0:0:0:0:
64,192,132900,1,0,0:0:0:0:
192,192,133050,1,0,0:0:0:0:
320,192,133200,1,0,0:0:0:0:
320,192,133500,1,0,0:0:0:0:
320,192,133800,1,0,0:0:0:0:
192,192,133950,1,0,0:0:0:0:
320,192,134100,1,0,0:0:0:0:
448,192,134250,1,0,0:0:0:0:
448,192,134400,1,0,0:0:0:0:
448,192,134550,1,0,0:0:0:0:
192,192,134700,1,0,0:0:0:0:
320,192,134850,1,0,0:0:0:0:
320,192,135000,1,0,0:0:0:0:
64,192,135150,1,0,0:0:0:0:
192,192,135300,1,0,0:0:0:0:
192,192,135450,1,0,0:0:0:0:
320,192,135600,1,0,0:0:0:0:
448,192,135600,1,0,0:0:0:0:
64,192,135600,1,0,0:0:0:0:
192,192,135900,1,0,0:0:0:0:
320,192,136200,1,0,0:0:0:0:
448,192,136350,1,0,0:0:0:0:
192,192,136500,1,0,0:0:0:0:
64,192,136650,1,0,0:0:0:0:
320,192,136800,1,0,0:0:0:0:
320,192,136950,1,0,0:0:0:0:
64,192,137100,1,0,0:0:0:0:
192,192,137250,1,0,0:0:0:0:
192,192,137400,1,0,0:0:0:0:
448,192,137700,1,0,0:0:0:0:
320,192,137850,1,0,0:0:0:0:
64,192,138000,1,0,0:0:0:0:
192,192,138300,1,0,0:0:0:0:
448,192,138600,1,0,0:0:0:0:
320,192,138750,1,0,0:0:0:0:
64,192,138900,1,0,0:0:0:0:
192,192,139050,1,0,0:0:0:0:
64,192,139200,1,0,0:0:0:0:
64,192,139350,1,0,0:0:0:0:
320,192,139500,1,0,0:0:0:0:
192,192,139650,1,0,0:0:0:0:
192,192,139800,1,0,0:0:0:0:
320,192,140100,1,0,0:0:0:0:
192,192,140250,1,0,0:0:0:0:
448,192,140400,1,0,0:0:0:0:
320,192,140400,1,0,0:0:0:0:
64,192,140400,1,0,0:0:0:0:
192,192,140550,1,0,0:0:0:0:
64,192,140550,1,0,0:0:0:0:
448,192,140550,1,0,0:0:0:0:
320,192,140700,1,0,0:0:0:0:
448,192,140700,1,0,0:0:0:0:
64,192,140700,1,0,0:0:0:0:
192,192,140850,1,0,0:0:0:0:
320,192,140850,1,0,0:0:0:0:
448,192,140850,1,0,0:0:0:0:
64,192,141000,1,0,0:0:0:0:
448,192,141000,1,0,0:0:0:0:
320,192,141075,1,0,0:0:0:0:
192,192,141075,1,0,0:0:0:0:
64,192,141150,1,0,0:0:0:0:
448,192,141150,1,0,0:0:0:0:
320,192,141225,1,0,0:0:0:0:
192,192,141225,1,0,0:0:0:0:
64,192,141300,1,0,0:0:0:0:
448,192,141300,1,0,0:0:0:0:
320,192,141375,1,0,0:0:0:0:
192,192,141375,1,0,0:0:0:0:
64,192,141450,1,0,0:0:0:0:
448,192,141450,1,0,0:0:0:0:
320,192,141525,1,0,0:0:0:0:
192,192,141525,1,0,0:0:0:0:
64,192,141600,1,0,0:0:0:0:
448,192,141600,1,0,0:0:0:0:
192,192,141750,1,0,0:0:0:0:
64,192,141750,1,0,0:0:0:0:
320,192,141750,1,0,0:0:0:0:
192,192,141900,1,0,0:0:0:0:
448,192,141900,1,0,0:0:0:0:
64,192,141900,1,0,0:0:0:0:
192,192,142050,1,0,0:0:0:0:
320,192,142050,1,0,0:0:0:0:
448,192,142050,1,0,0:0:0:0:
192,192,142200,1,0,0:0:0:0:
320,192,142200,1,0,0:0:0:0:
64,192,142275,1,0,0:0:0:0:
448,192,142275,1,0,0:0:0:0:
320,192,142350,1,0,0:0:0:0:
192,192,142350,1,0,0:0:0:0:
64,192,142425,1,0,0:0:0:0:
448,192,142425,1,0,0:0:0:0:
320,192,142500,1,0,0:0:0:0:
192,192,142500,1,0,0:0:0:0:
64,192,142575,1,0,0:0:0:0:
448,192,142575,1,0,0:0:0:0:
320,192,142650,1,0,0:0:0:0:
192,192,142650,1,0,0:0:0:0:
64,192,142725,1,0,0:0:0:0:
448,192,142725,1,0,0:0:0:0:
320,192,142800,1,0,0:0:0:0:
192,192,142800,1,0,0:0:0:0:
64,192,142950,1,0,0:0:0:0:
192,192,142950,1,0,0:0:0:0:
448,192,143025,1,0,0:0:0:0:
320,192,143025,1,0,0:0:0:0:
64,192,143100,1,0,0:0:0:0:
192,192,143100,1,0,0:0:0:0:
448,192,143250,1,0,0:0:0:0:
320,192,143250,1,0,0:0:0:0:
192,192,143325,1,0,0:0:0:0:
64,192,143325,1,0,0:0:0:0:
320,192,143400,1,0,0:0:0:0:
448,192,143400,1,0,0:0:0:0:
192,192,143550,1,0,0:0:0:0:
64,192,143550,1,0,0:0:0:0:
448,192,143625,1,0,0:0:0:0:
320,192,143625,1,0,0:0:0:0:
192,192,143700,1,0,0:0:0:0:
64,192,143700,1,0,0:0:0:0:
448,192,143850,1,0,0:0:0:0:
320,192,143850,1,0,0:0:0:0:
192,192,143925,1,0,0:0:0:0:
64,192,143925,1,0,0:0:0:0:
448,192,144000,1,0,0:0:0:0:
320,192,144000,1,0,0:0:0:0:
192,192,144150,1,0,0:0:0:0:
448,192,144300,1,0,0:0:0:0:
64,192,144450,1,0,0:0:0:0:
64,192,144600,1,0,0:0:0:0:
448,192,146100,1,0,0:0:0:0:
320,192,146137,1,0,0:0:0:0:
192,192,146175,1,0,0:0:0:0:
64,192,146212,1,0,0:0:0:0:
448,192,146250,1,0,0:0:0:0:
320,192,146287,1,0,0:0:0:0:
192,192,146325,1,0,0:0:0:0:
64,192,146362,1,0,0:0:0:0:
448,192,146400,1,0,0:0:0:0:
320,192,146400,1,0,0:0:0:0:
192,192,146475,1,0,0:0:0:0:
320,192,146550,1,0,0:0:0:0:
448,192,146550,1,0,0:0:0:0:
64,192,146625,1,0,0:0:0:0:
192,192,146700,1,0,0:0:0:0:
448,192,146700,1,0,0:0:0:0:
320,192,146775,1,0,0:0:0:0:
192,192,146850,1,0,0:0:0:0:
64,192,146850,1,0,0:0:0:0:
448,192,146925,1,0,0:0:0:0:
320,192,147000,1,0,0:0:0:0:
64,192,147000,1,0,0:0:0:0:
192,192,147075,1,0,0:0:0:0:
320,192,147150,1,0,0:0:0:0:
448,192,147150,1,0,0:0:0:0:
64,192,147225,1,0,0:0:0:0:
192,192,147300,1,0,0:0:0:0:
448,192,147300,1,0,0:0:0:0:
320,192,147375,1,0,0:0:0:0:
192,192,147450,1,0,0:0:0:0:
64,192,147450,1,0,0:0:0:0:
320,192,147525,1,0,0:0:0:0:
448,192,147600,1,0,0:0:0:0:
64,192,147600,1,0,0:0:0:0:
192,192,147675,1,0,0:0:0:0:
320,192,147750,1,0,0:0:0:0:
448,192,147750,1,0,0:0:0:0:
64,192,147825,1,0,0:0:0:0:
192,192,147900,1,0,0:0:0:0:
448,192,147900,1,0,0:0:0:0:
320,192,147975,1,0,0:0:0:0:
192,192,148050,1,0,0:0:0:0:
64,192,148050,1,0,0:0:0:0:
320,192,148125,1,0,0:0:0:0:
448,192,148200,128,0,148425:0:0:0:0:
192,192,148200,1,0,0:0:0:0:
64,192,148275,1,0,0:0:0:0:
320,192,148350,1,0,0:0:0:0:
192,192,148425,1,0,0:0:0:0:
448,192,148500,1,0,0:0:0:0:
320,192,148500,1,0,0:0:0:0:
64,192,148500,1,0,0:0:0:0:
192,192,148575,1,0,0:0:0:0:
320,192,148650,1,0,0:0:0:0:
448,192,148725,1,0,0:0:0:0:
64,192,148725,1,0,0:0:0:0:
192,192,148800,1,0,0:0:0:0:
320,192,148800,1,0,0:0:0:0:
448,192,148875,1,0,0:0:0:0:
64,192,148950,1,0,0:0:0:0:
192,192,148950,1,0,0:0:0:0:
320,192,149025,1,0,0:0:0:0:
192,192,149100,1,0,0:0:0:0:
64,192,149100,1,0,0:0:0:0:
448,192,149175,1,0,0:0:0:0:
320,192,149250,1,0,0:0:0:0:
64,192,149250,1,0,0:0:0:0:
192,192,149325,1,0,0:0:0:0:
320,192,149400,1,0,0:0:0:0:
448,192,149400,1,0,0:0:0:0:
64,192,149475,1,0,0:0:0:0:
192,192,149550,1,0,0:0:0:0:
320,192,149550,1,0,0:0:0:0:
448,192,149625,1,0,0:0:0:0:
320,192,149700,1,0,0:0:0:0:
64,192,149700,1,0,0:0:0:0:
192,192,149775,1,0,0:0:0:0:
320,192,149850,1,0,0:0:0:0:
448,192,149850,1,0,0:0:0:0:
64,192,149925,1,0,0:0:0:0:
448,192,150000,1,0,0:0:0:0:
192,192,150000,1,0,0:0:0:0:
320,192,150075,1,0,0:0:0:0:
448,192,150150,1,0,0:0:0:0:
64,192,150150,1,0,0:0:0:0:
192,192,150225,1,0,0:0:0:0:
448,192,150300,1,0,0:0:0:0:
64,192,150300,1,0,0:0:0:0:
320,192,150375,1,0,0:0:0:0:
448,192,150450,1,0,0:0:0:0:
192,192,150450,1,0,0:0:0:0:
64,192,150525,1,0,0:0:0:0:
448,192,150600,1,0,0:0:0:0:
192,192,150600,1,0,0:0:0:0:
320,192,150675,1,0,0:0:0:0:
448,192,150750,1,0,0:0:0:0:
64,192,150750,1,0,0:0:0:0:
192,192,150825,1,0,0:0:0:0:
448,192,150900,1,0,0:0:0:0:
320,192,150900,1,0,0:0:0:0:
64,192,150975,1,0,0:0:0:0:
192,192,151050,1,0,0:0:0:0:
320,192,151125,1,0,0:0:0:0:
448,192,151200,1,0,0:0:0:0:
64,192,151200,1,0,0:0:0:0:
192,192,151200,1,0,0:0:0:0:
320,192,151275,1,0,0:0:0:0:
448,192,151350,1,0,0:0:0:0:
64,192,151350,1,0,0:0:0:0:
192,192,151425,1,0,0:0:0:0:
320,192,151500,1,0,0:0:0:0:
448,192,151500,1,0,0:0:0:0:
192,192,151575,1,0,0:0:0:0:
64,192,151650,1,0,0:0:0:0:
320,192,151650,1,0,0:0:0:0:
448,192,151725,1,0,0:0:0:0:
64,192,151800,1,0,0:0:0:0:
192,192,151800,1,0,0:0:0:0:
320,192,151875,1,0,0:0:0:0:
448,192,151950,1,0,0:0:0:0:
64,192,151950,1,0,0:0:0:0:
192,192,152025,1,0,0:0:0:0:
320,192,152100,1,0,0:0:0:0:
64,192,152100,1,0,0:0:0:0:
192,192,152175,1,0,0:0:0:0:
320,192,152250,1,0,0:0:0:0:
448,192,152250,1,0,0:0:0:0:
192,192,152325,1,0,0:0:0:0:
64,192,152400,1,0,0:0:0:0:
320,192,152400,1,0,0:0:0:0:
448,192,152475,1,0,0:0:0:0:
64,192,152550,1,0,0:0:0:0:
192,192,152550,1,0,0:0:0:0:
320,192,152625,1,0,0:0:0:0:
448,192,152700,1,0,0:0:0:0:
64,192,152700,1,0,0:0:0:0:
192,192,152775,1,0,0:0:0:0:
64,192,152850,1,0,0:0:0:0:
320,192,152850,1,0,0:0:0:0:
192,192,152925,1,0,0:0:0:0:
64,192,153000,128,0,153225:0:0:0:0:
320,192,153000,1,0,0:0:0:0:
448,192,153075,1,0,0:0:0:0:
192,192,153150,1,0,0:0:0:0:
320,192,153225,1,0,0:0:0:0:
192,192,153300,1,0,0:0:0:0:
64,192,153300,1,0,0:0:0:0:
448,192,153300,1,0,0:0:0:0:
320,192,153375,1,0,0:0:0:0:
192,192,153450,1,0,0:0:0:0:
64,192,153450,1,0,0:0:0:0:
320,192,153525,1,0,0:0:0:0:
448,192,153600,1,0,0:0:0:0:
64,192,153600,1,0,0:0:0:0:
192,192,153675,1,0,0:0:0:0:
320,192,153750,1,0,0:0:0:0:
448,192,153750,1,0,0:0:0:0:
192,192,153825,1,0,0:0:0:0:
64,192,153900,1,0,0:0:0:0:
320,192,153900,1,0,0:0:0:0:
192,192,153975,1,0,0:0:0:0:
448,192,154050,1,0,0:0:0:0:
320,192,154050,1,0,0:0:0:0:
64,192,154125,1,0,0:0:0:0:
192,192,154200,1,0,0:0:0:0:
320,192,154200,1,0,0:0:0:0:
448,192,154275,1,0,0:0:0:0:
64,192,154350,1,0,0:0:0:0:
320,192,154350,1,0,0:0:0:0:
192,192,154425,1,0,0:0:0:0:
64,192,154500,1,0,0:0:0:0:
448,192,154500,1,0,0:0:0:0:
320,192,154575,1,0,0:0:0:0:
192,192,154650,1,0,0:0:0:0:
64,192,154650,1,0,0:0:0:0:
320,192,154725,1,0,0:0:0:0:
192,192,154800,1,0,0:0:0:0:
448,192,154800,1,0,0:0:0:0:
64,192,154800,1,0,0:0:0:0:
448,192,154950,1,0,0:0:0:0:
320,192,154950,1,0,0:0:0:0:
192,192,154950,1,0,0:0:0:0:
64,192,155100,1,0,0:0:0:0:
192,192,155100,1,0,0:0:0:0:
448,192,155175,1,0,0:0:0:0:
320,192,155175,1,0,0:0:0:0:
192,192,155250,1,0,0:0:0:0:
64,192,155250,1,0,0:0:0:0:
320,192,155400,1,0,0:0:0:0:
192,192,155400,1,0,0:0:0:0:
64,192,155400,1,0,0:0:0:0:
192,192,155550,1,0,0:0:0:0:
320,192,155550,1,0,0:0:0:0:
64,192,155550,1,0,0:0:0:0:
320,192,155700,1,0,0:0:0:0:
192,192,155700,1,0,0:0:0:0:
64,192,155700,1,0,0:0:0:0:
448,192,156000,1,0,0:0:0:0:
320,192,156000,1,0,0:0:0:0:
64,192,156000,1,0,0:0:0:0:
192,192,156075,1,0,0:0:0:0:
64,192,156150,1,0,0:0:0:0:
448,192,156150,1,0,0:0:0:0:
320,192,156225,1,0,0:0:0:0:
64,192,156300,1,0,0:0:0:0:
192,192,156300,1,0,0:0:0:0:
448,192,156375,1,0,0:0:0:0:
320,192,156450,1,0,0:0:0:0:
64,192,156450,1,0,0:0:0:0:
192,192,156525,1,0,0:0:0:0:
320,192,156600,1,0,0:0:0:0:
448,192,156600,1,0,0:0:0:0:
64,192,156675,1,0,0:0:0:0:
320,192,156750,1,0,0:0:0:0:
192,192,156750,1,0,0:0:0:0:
448,192,156825,1,0,0:0:0:0:
320,192,156900,1,0,0:0:0:0:
64,192,156900,1,0,0:0:0:0:
192,192,156975,1,0,0:0:0:0:
448,192,157050,1,0,0:0:0:0:
320,192,157050,1,0,0:0:0:0:
64,192,157125,128,0,157200:0:0:0:0:
192,192,157200,128,0,157350:0:0:0:0:
320,192,157200,128,0,157350:0:0:0:0:
448,192,157200,128,0,157350:0:0:0:0:
64,192,157350,128,0,157425:0:0:0:0:
192,192,157425,128,0,157575:0:0:0:0:
320,192,157425,128,0,157575:0:0:0:0:
448,192,157425,128,0,157575:0:0:0:0:
64,192,157575,128,0,157650:0:0:0:0:
192,192,157650,128,0,157800:0:0:0:0:
320,192,157650,128,0,157800:0:0:0:0:
448,192,157650,128,0,157800:0:0:0:0:
64,192,157800,128,0,157875:0:0:0:0:
192,192,157875,128,0,158025:0:0:0:0:
320,192,157875,128,0,158025:0:0:0:0:
448,192,157875,128,0,158025:0:0:0:0:
64,192,158025,128,0,158100:0:0:0:0:
320,192,158100,1,0,0:0:0:0:
448,192,158100,1,0,0:0:0:0:
192,192,158100,1,0,0:0:0:0:
64,192,158175,1,0,0:0:0:0:
192,192,158250,1,0,0:0:0:0:
448,192,158250,1,0,0:0:0:0:
320,192,158325,1,0,0:0:0:0:
192,192,158400,1,0,0:0:0:0:
64,192,158400,1,0,0:0:0:0:
320,192,158475,1,0,0:0:0:0:
448,192,158550,1,0,0:0:0:0:
64,192,158550,1,0,0:0:0:0:
192,192,158625,1,0,0:0:0:0:
64,192,158700,1,0,0:0:0:0:
320,192,158700,1,0,0:0:0:0:
448,192,158775,1,0,0:0:0:0:
192,192,158850,1,0,0:0:0:0:
64,192,158850,1,0,0:0:0:0:
320,192,158925,1,0,0:0:0:0:
448,192,159000,1,0,0:0:0:0:
64,192,159000,1,0,0:0:0:0:
192,192,159075,1,0,0:0:0:0:
320,192,159150,1,0,0:0:0:0:
448,192,159150,1,0,0:0:0:0:
64,192,159225,1,0,0:0:0:0:
192,192,159300,1,0,0:0:0:0:
448,192,159300,1,0,0:0:0:0:
64,192,159375,1,0,0:0:0:0:
320,192,159450,1,0,0:0:0:0:
448,192,159450,1,0,0:0:0:0:
192,192,159525,1,0,0:0:0:0:
64,192,159600,1,0,0:0:0:0:
448,192,159600,1,0,0:0:0:0:
320,192,159675,1,0,0:0:0:0:
64,192,159750,1,0,0:0:0:0:
448,192,159750,1,0,0:0:0:0:
192,192,159825,1,0,0:0:0:0:
320,192,159900,1,0,0:0:0:0:
448,192,159900,1,0,0:0:0:0:
64,192,159975,1,0,0:0:0:0:
192,192,160050,1,0,0:0:0:0:
448,192,160050,1,0,0:0:0:0:
320,192,160125,1,0,0:0:0:0:
448,192,160200,128,0,160425:0:0:0:0:
192,192,160200,1,0,0:0:0:0:
64,192,160275,1,0,0:0:0:0:
320,192,160350,1,0,0:0:0:0:
192,192,160425,1,0,0:0:0:0:
448,192,160500,1,0,0:0:0:0:
320,192,160500,1,0,0:0:0:0:
64,192,160500,1,0,0:0:0:0:
192,192,160575,1,0,0:0:0:0:
320,192,160650,1,0,0:0:0:0:
448,192,160725,1,0,0:0:0:0:
64,192,160800,1,0,0:0:0:0:
192,192,160800,1,0,0:0:0:0:
320,192,160800,1,0,0:0:0:0:
448,192,160875,1,0,0:0:0:0:
192,192,160950,1,0,0:0:0:0:
64,192,160950,1,0,0:0:0:0:
320,192,161025,1,0,0:0:0:0:
192,192,161100,1,0,0:0:0:0:
448,192,161100,1,0,0:0:0:0:
64,192,161175,1,0,0:0:0:0:
320,192,161250,1,0,0:0:0:0:
448,192,161250,1,0,0:0:0:0:
192,192,161325,1,0,0:0:0:0:
320,192,161400,1,0,0:0:0:0:
448,192,161475,1,0,0:0:0:0:
64,192,161475,1,0,0:0:0:0:
192,192,161550,1,0,0:0:0:0:
320,192,161550,1,0,0:0:0:0:
64,192,161625,1,0,0:0:0:0:
320,192,161700,1,0,0:0:0:0:
448,192,161700,1,0,0:0:0:0:
192,192,161775,1,0,0:0:0:0:
64,192,161850,1,0,0:0:0:0:
448,192,161850,1,0,0:0:0:0:
320,192,161925,1,0,0:0:0:0:
192,192,162000,1,0,0:0:0:0:
64,192,162000,1,0,0:0:0:0:
320,192,162075,1,0,0:0:0:0:
448,192,162150,1,0,0:0:0:0:
64,192,162150,1,0,0:0:0:0:
320,192,162225,1,0,0:0:0:0:
192,192,162300,1,0,0:0:0:0:
64,192,162300,1,0,0:0:0:0:
320,192,162375,1,0,0:0:0:0:
64,192,162450,1,0,0:0:0:0:
448,192,162450,1,0,0:0:0:0:
192,192,162525,1,0,0:0:0:0:
64,192,162600,128,0,162825:0:0:0:0:
320,192,162600,1,0,0:0:0:0:
448,192,162675,1,0,0:0:0:0:
192,192,162750,1,0,0:0:0:0:
320,192,162825,1,0,0:0:0:0:
64,192,162900,1,0,0:0:0:0:
192,192,162900,1,0,0:0:0:0:
448,192,162900,1,0,0:0:0:0:
320,192,162975,1,0,0:0:0:0:
192,192,163050,1,0,0:0:0:0:
64,192,163125,1,0,0:0:0:0:
448,192,163200,1,0,0:0:0:0:
320,192,163200,1,0,0:0:0:0:
192,192,163200,1,0,0:0:0:0:
320,192,163350,1,0,0:0:0:0:
192,192,163350,1,0,0:0:0:0:
64,192,163350,1,0,0:0:0:0:
320,192,163500,1,0,0:0:0:0:
448,192,163500,1,0,0:0:0:0:
64,192,163500,1,0,0:0:0:0:
192,192,163650,1,0,0:0:0:0:
320,192,163650,1,0,0:0:0:0:
448,192,163650,1,0,0:0:0:0:
192,192,163800,1,0,0:0:0:0:
64,192,163800,1,0,0:0:0:0:
448,192,163875,1,0,0:0:0:0:
320,192,163875,1,0,0:0:0:0:
192,192,163950,1,0,0:0:0:0:
64,192,163950,1,0,0:0:0:0:
448,192,164025,1,0,0:0:0:0:
320,192,164025,1,0,0:0:0:0:
192,192,164100,1,0,0:0:0:0:
64,192,164100,1,0,0:0:0:0:
448,192,164175,1,0,0:0:0:0:
320,192,164175,1,0,0:0:0:0:
192,192,164250,1,0,0:0:0:0:
64,192,164250,1,0,0:0:0:0:
448,192,164325,1,0,0:0:0:0:
320,192,164325,1,0,0:0:0:0:
192,192,164400,1,0,0:0:0:0:
64,192,164400,1,0,0:0:0:0:
192,192,164550,1,0,0:0:0:0:
320,192,164550,1,0,0:0:0:0:
448,192,164550,1,0,0:0:0:0:
64,192,164700,1,0,0:0:0:0:
192,192,164700,1,0,0:0:0:0:
448,192,164775,1,0,0:0:0:0:
320,192,164775,1,0,0:0:0:0:
192,192,164850,1,0,0:0:0:0:
64,192,164850,1,0,0:0:0:0:
448,192,164925,1,0,0:0:0:0:
320,192,164925,1,0,0:0:0:0:
192,192,165000,1,0,0:0:0:0:
64,192,165000,1,0,0:0:0:0:
448,192,165150,1,0,0:0:0:0:
320,192,165150,1,0,0:0:0:0:
192,192,165150,1,0,0:0:0:0:
320,192,165300,1,0,0:0:0:0:
192,192,165300,1,0,0:0:0:0:
64,192,165300,1,0,0:0:0:0:
448,192,165600,1,0,0:0:0:0:
320,192,165600,1,0,0:0:0:0:
64,192,165600,1,0,0:0:0:0:
192,192,165675,1,0,0:0:0:0:
320,192,165750,1,0,0:0:0:0:
448,192,165750,1,0,0:0:0:0:
64,192,165825,1,0,0:0:0:0:
192,192,165900,1,0,0:0:0:0:
448,192,165900,1,0,0:0:0:0:
320,192,165975,1,0,0:0:0:0:
192,192,166050,1,0,0:0:0:0:
64,192,166050,1,0,0:0:0:0:
448,192,166125,1,0,0:0:0:0:
320,192,166200,1,0,0:0:0:0:
64,192,166200,1,0,0:0:0:0:
192,192,166275,1,0,0:0:0:0:
320,192,166350,1,0,0:0:0:0:
448,192,166350,1,0,0:0:0:0:
64,192,166425,1,0,0:0:0:0:
192,192,166500,1,0,0:0:0:0:
448,192,166500,1,0,0:0:0:0:
320,192,166575,1,0,0:0:0:0:
192,192,166650,1,0,0:0:0:0:
64,192,166650,1,0,0:0:0:0:
320,192,166725,1,0,0:0:0:0:
448,192,166800,1,0,0:0:0:0:
64,192,166800,1,0,0:0:0:0:
192,192,166875,1,0,0:0:0:0:
320,192,166950,1,0,0:0:0:0:
448,192,166950,1,0,0:0:0:0:
64,192,167025,1,0,0:0:0:0:
192,192,167100,1,0,0:0:0:0:
448,192,167100,1,0,0:0:0:0:
320,192,167175,1,0,0:0:0:0:
192,192,167250,1,0,0:0:0:0:
64,192,167250,1,0,0:0:0:0:
320,192,167325,1,0,0:0:0:0:
448,192,167400,128,0,167625:0:0:0:0:
192,192,167400,1,0,0:0:0:0:
64,192,167475,1,0,0:0:0:0:
320,192,167550,1,0,0:0:0:0:
192,192,167625,1,0,0:0:0:0:
448,192,167700,1,0,0:0:0:0:
320,192,167700,1,0,0:0:0:0:
64,192,167700,1,0,0:0:0:0:
192,192,167775,1,0,0:0:0:0:
320,192,167850,1,0,0:0:0:0:
448,192,167925,1,0,0:0:0:0:
64,192,167925,1,0,0:0:0:0:
192,192,168000,1,0,0:0:0:0:
320,192,168000,1,0,0:0:0:0:
448,192,168075,1,0,0:0:0:0:
64,192,168150,1,0,0:0:0:0:
192,192,168150,1,0,0:0:0:0:
320,192,168225,1,0,0:0:0:0:
192,192,168300,1,0,0:0:0:0:
64,192,168300,1,0,0:0:0:0:
448,192,168375,1,0,0:0:0:0:
320,192,168450,1,0,0:0:0:0:
64,192,168450,1,0,0:0:0:0:
192,192,168525,1,0,0:0:0:0:
320,192,168600,1,0,0:0:0:0:
448,192,168600,1,0,0:0:0:0:
64,192,168675,1,0,0:0:0:0:
192,192,168750,1,0,0:0:0:0:
320,192,168750,1,0,0:0:0:0:
448,192,168825,1,0,0:0:0:0:
320,192,168900,1,0,0:0:0:0:
64,192,168900,1,0,0:0:0:0:
192,192,168975,1,0,0:0:0:0:
320,192,169050,1,0,0:0:0:0:
448,192,169050,1,0,0:0:0:0:
64,192,169125,1,0,0:0:0:0:
448,192,169200,1,0,0:0:0:0:
192,192,169200,1,0,0:0:0:0:
320,192,169275,1,0,0:0:0:0:
448,192,169350,1,0,0:0:0:0:
64,192,169350,1,0,0:0:0:0:
192,192,169425,1,0,0:0:0:0:
448,192,169500,1,0,0:0:0:0:
64,192,169500,1,0,0:0:0:0:
320,192,169575,1,0,0:0:0:0:
448,192,169650,1,0,0:0:0:0:
192,192,169650,1,0,0:0:0:0:
64,192,169725,1,0,0:0:0:0:
448,192,169800,1,0,0:0:0:0:
192,192,169800,1,0,0:0:0:0:
320,192,169875,1,0,0:0:0:0:
448,192,169950,1,0,0:0:0:0:
64,192,169950,1,0,0:0:0:0:
192,192,170025,1,0,0:0:0:0:
448,192,170100,1,0,0:0:0:0:
320,192,170100,1,0,0:0:0:0:
64,192,170175,1,0,0:0:0:0:
192,192,170250,1,0,0:0:0:0:
320,192,170325,1,0,0:0:0:0:
448,192,170400,1,0,0:0:0:0:
64,192,170400,1,0,0:0:0:0:
192,192,170400,1,0,0:0:0:0:
320,192,170475,1,0,0:0:0:0:
448,192,170550,1,0,0:0:0:0:
64,192,170550,1,0,0:0:0:0:
192,192,170625,1,0,0:0:0:0:
320,192,170700,1,0,0:0:0:0:
448,192,170700,1,0,0:0:0:0:
192,192,170775,1,0,0:0:0:0:
64,192,170850,1,0,0:0:0:0:
320,192,170850,1,0,0:0:0:0:
448,192,170925,1,0,0:0:0:0:
64,192,171000,1,0,0:0:0:0:
192,192,171000,1,0,0:0:0:0:
320,192,171075,1,0,0:0:0:0:
448,192,171150,1,0,0:0:0:0:
64,192,171150,1,0,0:0:0:0:
192,192,171225,1,0,0:0:0:0:
320,192,171300,1,0,0:0:0:0:
64,192,171300,1,0,0:0:0:0:
192,192,171375,1,0,0:0:0:0:
320,192,171450,1,0,0:0:0:0:
448,192,171450,1,0,0:0:0:0:
192,192,171525,1,0,0:0:0:0:
64,192,171600,1,0,0:0:0:0:
320,192,171600,1,0,0:0:0:0:
448,192,171675,1,0,0:0:0:0:
64,192,171750,1,0,0:0:0:0:
192,192,171750,1,0,0:0:0:0:
320,192,171825,1,0,0:0:0:0:
448,192,171900,1,0,0:0:0:0:
64,192,171900,1,0,0:0:0:0:
192,192,171975,1,0,0:0:0:0:
64,192,172050,1,0,0:0:0:0:
320,192,172050,1,0,0:0:0:0:
192,192,172125,1,0,0:0:0:0:
64,192,172200,128,0,172425:0:0:0:0:
320,192,172200,1,0,0:0:0:0:
448,192,172275,1,0,0:0:0:0:
192,192,172350,1,0,0:0:0:0:
320,192,172425,1,0,0:0:0:0:
192,192,172500,1,0,0:0:0:0:
64,192,172500,1,0,0:0:0:0:
448,192,172500,1,0,0:0:0:0:
320,192,172575,1,0,0:0:0:0:
192,192,172650,1,0,0:0:0:0:
64,192,172650,1,0,0:0:0:0:
320,192,172725,1,0,0:0:0:0:
448,192,172800,1,0,0:0:0:0:
64,192,172800,1,0,0:0:0:0:
192,192,172875,1,0,0:0:0:0:
320,192,172950,1,0,0:0:0:0:
448,192,172950,1,0,0:0:0:0:
192,192,173025,1,0,0:0:0:0:
64,192,173100,1,0,0:0:0:0:
320,192,173100,1,0,0:0:0:0:
192,192,173175,1,0,0:0:0:0:
448,192,173250,1,0,0:0:0:0:
320,192,173250,1,0,0:0:0:0:
64,192,173325,1,0,0:0:0:0:
192,192,173400,1,0,0:0:0:0:
320,192,173400,1,0,0:0:0:0:
448,192,173475,1,0,0:0:0:0:
64,192,173550,1,0,0:0:0:0:
320,192,173550,1,0,0:0:0:0:
192,192,173625,1,0,0:0:0:0:
64,192,173700,1,0,0:0:0:0:
448,192,173700,1,0,0:0:0:0:
320,192,173775,1,0,0:0:0:0:
192,192,173850,1,0,0:0:0:0:
64,192,173850,1,0,0:0:0:0:
320,192,173925,1,0,0:0:0:0:
192,192,174000,1,0,0:0:0:0:
448,192,174000,1,0,0:0:0:0:
64,192,174000,1,0,0:0:0:0:
448,192,174150,1,0,0:0:0:0:
320,192,174150,1,0,0:0:0:0:
192,192,174150,1,0,0:0:0:0:
64,192,174300,1,0,0:0:0:0:
192,192,174300,1,0,0:0:0:0:
448,192,174375,1,0,0:0:0:0:
320,192,174375,1,0,0:0:0:0:
192,192,174450,1,0,0:0:0:0:
64,192,174450,1,0,0:0:0:0:
320,192,174600,1,0,0:0:0:0:
192,192,174600,1,0,0:0:0:0:
64,192,174600,1,0,0:0:0:0:
192,192,174750,1,0,0:0:0:0:
320,192,174750,1,0,0:0:0:0:
64,192,174750,1,0,0:0:0:0:
320,192,174900,1,0,0:0:0:0:
192,192,174900,1,0,0:0:0:0:
64,192,174900,1,0,0:0:0:0:
448,192,175200,1,0,0:0:0:0:
320,192,175200,1,0,0:0:0:0:
64,192,175200,1,0,0:0:0:0:
192,192,175275,1,0,0:0:0:0:
64,192,175350,1,0,0:0:0:0:
448,192,175350,1,0,0:0:0:0:
320,192,175425,1,0,0:0:0:0:
64,192,175500,1,0,0:0:0:0:
192,192,175500,1,0,0:0:0:0:
448,192,175575,1,0,0:0:0:0:
320,192,175650,1,0,0:0:0:0:
64,192,175650,1,0,0:0:0:0:
192,192,175725,1,0,0:0:0:0:
320,192,175800,1,0,0:0:0:0:
448,192,175800,1,0,0:0:0:0:
64,192,175875,1,0,0:0:0:0:
320,192,175950,1,0,0:0:0:0:
192,192,175950,1,0,0:0:0:0:
448,192,176025,1,0,0:0:0:0:
320,192,176100,1,0,0:0:0:0:
64,192,176100,1,0,0:0:0:0:
192,192,176175,1,0,0:0:0:0:
448,192,176250,1,0,0:0:0:0:
320,192,176250,1,0,0:0:0:0:
64,192,176325,128,0,176400:0:0:0:0:
192,192,176400,128,0,176550:0:0:0:0:
320,192,176400,128,0,176550:0:0:0:0:
448,192,176400,128,0,176550:0:0:0:0:
64,192,176550,128,0,176625:0:0:0:0:
192,192,176625,128,0,176775:0:0:0:0:
320,192,176625,128,0,176775:0:0:0:0:
448,192,176625,128,0,176775:0:0:0:0:
64,192,176775,128,0,176850:0:0:0:0:
192,192,176850,128,0,177000:0:0:0:0:
320,192,176850,128,0,177000:0:0:0:0:
448,192,176850,128,0,177000:0:0:0:0:
64,192,177000,128,0,177075:0:0:0:0:
192,192,177075,128,0,177225:0:0:0:0:
320,192,177075,128,0,177225:0:0:0:0:
448,192,177075,128,0,177225:0:0:0:0:
64,192,177225,128,0,177300:0:0:0:0:
320,192,177300,1,0,0:0:0:0:
448,192,177300,1,0,0:0:0:0:
192,192,177300,1,0,0:0:0:0:
64,192,177375,1,0,0:0:0:0:
192,192,177450,1,0,0:0:0:0:
448,192,177450,1,0,0:0:0:0:
320,192,177525,1,0,0:0:0:0:
192,192,177600,1,0,0:0:0:0:
64,192,177600,1,0,0:0:0:0:
320,192,177675,1,0,0:0:0:0:
448,192,177750,1,0,0:0:0:0:
64,192,177750,1,0,0:0:0:0:
192,192,177825,1,0,0:0:0:0:
64,192,177900,1,0,0:0:0:0:
320,192,177900,1,0,0:0:0:0:
448,192,177975,1,0,0:0:0:0:
192,192,178050,1,0,0:0:0:0:
64,192,178050,1,0,0:0:0:0:
320,192,178125,1,0,0:0:0:0:
448,192,178200,1,0,0:0:0:0:
64,192,178200,1,0,0:0:0:0:
192,192,178275,1,0,0:0:0:0:
320,192,178350,1,0,0:0:0:0:
448,192,178350,1,0,0:0:0:0:
64,192,178425,1,0,0:0:0:0:
192,192,178500,1,0,0:0:0:0:
448,192,178500,1,0,0:0:0:0:
64,192,178575,1,0,0:0:0:0:
320,192,178650,1,0,0:0:0:0:
448,192,178650,1,0,0:0:0:0:
192,192,178725,1,0,0:0:0:0:
64,192,178800,1,0,0:0:0:0:
448,192,178800,1,0,0:0:0:0:
320,192,178875,1,0,0:0:0:0:
64,192,178950,1,0,0:0:0:0:
448,192,178950,1,0,0:0:0:0:
192,192,179025,1,0,0:0:0:0:
320,192,179100,1,0,0:0:0:0:
448,192,179100,1,0,0:0:0:0:
64,192,179175,1,0,0:0:0:0:
192,192,179250,1,0,0:0:0:0:
448,192,179250,1,0,0:0:0:0:
320,192,179325,1,0,0:0:0:0:
448,192,179400,128,0,179625:0:0:0:0:
192,192,179400,1,0,0:0:0:0:
64,192,179475,1,0,0:0:0:0:
320,192,179550,1,0,0:0:0:0:
192,192,179625,1,0,0:0:0:0:
448,192,179700,1,0,0:0:0:0:
320,192,179700,1,0,0:0:0:0:
64,192,179700,1,0,0:0:0:0:
192,192,179775,1,0,0:0:0:0:
320,192,179850,1,0,0:0:0:0:
448,192,179925,1,0,0:0:0:0:
64,192,180000,1,0,0:0:0:0:
192,192,180000,1,0,0:0:0:0:
320,192,180000,1,0,0:0:0:0:
448,192,180075,1,0,0:0:0:0:
192,192,180150,1,0,0:0:0:0:
64,192,180150,1,0,0:0:0:0:
320,192,180225,1,0,0:0:0:0:
192,192,180300,1,0,0:0:0:0:
448,192,180300,1,0,0:0:0:0:
64,192,180375,1,0,0:0:0:0:
320,192,180450,1,0,0:0:0:0:
448,192,180450,1,0,0:0:0:0:
192,192,180525,1,0,0:0:0:0:
320,192,180600,1,0,0:0:0:0:
448,192,180675,1,0,0:0:0:0:
64,192,180675,1,0,0:0:0:0:
192,192,180750,1,0,0:0:0:0:
320,192,180750,1,0,0:0:0:0:
64,192,180825,1,0,0:0:0:0:
320,192,180900,1,0,0:0:0:0:
448,192,180900,1,0,0:0:0:0:
192,192,180975,1,0,0:0:0:0:
64,192,181050,1,0,0:0:0:0:
448,192,181050,1,0,0:0:0:0:
320,192,181125,1,0,0:0:0:0:
192,192,181200,1,0,0:0:0:0:
64,192,181200,1,0,0:0:0:0:
320,192,181275,1,0,0:0:0:0:
448,192,181350,1,0,0:0:0:0:
64,192,181350,1,0,0:0:0:0:
320,192,181425,1,0,0:0:0:0:
192,192,181500,1,0,0:0:0:0:
64,192,181500,1,0,0:0:0:0:
320,192,181575,1,0,0:0:0:0:
64,192,181650,1,0,0:0:0:0:
448,192,181650,1,0,0:0:0:0:
192,192,181725,1,0,0:0:0:0:
64,192,181800,128,0,182025:0:0:0:0:
320,192,181800,1,0,0:0:0:0:
448,192,181875,1,0,0:0:0:0:
192,192,181950,1,0,0:0:0:0:
320,192,182025,1,0,0:0:0:0:
64,192,182100,1,0,0:0:0:0:
192,192,182100,1,0,0:0:0:0:
448,192,182100,1,0,0:0:0:0:
320,192,182175,1,0,0:0:0:0:
192,192,182250,1,0,0:0:0:0:
64,192,182325,1,0,0:0:0:0:
448,192,182400,1,0,0:0:0:0:
320,192,182400,1,0,0:0:0:0:
192,192,182400,1,0,0:0:0:0:
320,192,182550,1,0,0:0:0:0:
192,192,182550,1,0,0:0:0:0:
64,192,182550,1,0,0:0:0:0:
320,192,182700,1,0,0:0:0:0:
448,192,182700,1,0,0:0:0:0:
64,192,182700,1,0,0:0:0:0:
192,192,182850,1,0,0:0:0:0:
320,192,182850,1,0,0:0:0:0:
448,192,182850,1,0,0:0:0:0:
192,192,183000,1,0,0:0:0:0:
64,192,183000,1,0,0:0:0:0:
448,192,183075,1,0,0:0:0:0:
320,192,183075,1,0,0:0:0:0:
192,192,183150,1,0,0:0:0:0:
64,192,183150,1,0,0:0:0:0:
448,192,183225,1,0,0:0:0:0:
320,192,183225,1,0,0:0:0:0:
192,192,183300,1,0,0:0:0:0:
64,192,183300,1,0,0:0:0:0:
448,192,183375,1,0,0:0:0:0:
320,192,183375,1,0,0:0:0:0:
192,192,183450,1,0,0:0:0:0:
64,192,183450,1,0,0:0:0:0:
448,192,183525,1,0,0:0:0:0:
320,192,183525,1,0,0:0:0:0:
192,192,183600,1,0,0:0:0:0:
64,192,183600,1,0,0:0:0:0:
192,192,183750,1,0,0:0:0:0:
320,192,183750,1,0,0:0:0:0:
448,192,183750,1,0,0:0:0:0:
64,192,183900,1,0,0:0:0:0:
192,192,183900,1,0,0:0:0:0:
448,192,183975,1,0,0:0:0:0:
320,192,183975,1,0,0:0:0:0:
192,192,184050,1,0,0:0:0:0:
64,192,184050,1,0,0:0:0:0:
448,192,184125,1,0,0:0:0:0:
320,192,184125,1,0,0:0:0:0:
192,192,184200,1,0,0:0:0:0:
64,192,184200,1,0,0:0:0:0:
448,192,184350,1,0,0:0:0:0:
320,192,184350,1,8,0:0:0:0:
192,192,184350,1,0,0:0:0:0:
320,192,184500,1,0,0:0:0:0:
192,192,184500,1,0,0:0:0:0:
64,192,184500,1,0,0:0:0:0:
192,192,184800,1,0,0:0:0:0:
448,192,184800,1,0,0:0:0:0:
64,192,184800,1,0,0:0:0:0:
320,192,184875,1,0,0:0:0:0:
192,192,184950,1,0,0:0:0:0:
64,192,185025,1,0,0:0:0:0:
448,192,185100,1,0,0:0:0:0:
192,192,185100,1,0,0:0:0:0:
320,192,185175,1,0,0:0:0:0:
192,192,185250,1,0,0:0:0:0:
64,192,185325,1,0,0:0:0:0:
448,192,185400,1,0,0:0:0:0:
192,192,185400,1,0,0:0:0:0:
320,192,185475,1,0,0:0:0:0:
192,192,185550,1,0,0:0:0:0:
64,192,185625,1,0,0:0:0:0:
448,192,185700,1,0,0:0:0:0:
192,192,185700,1,0,0:0:0:0:
320,192,185775,1,0,0:0:0:0:
192,192,185850,1,0,0:0:0:0:
64,192,185925,1,0,0:0:0:0:
448,192,186000,1,0,0:0:0:0:
192,192,186000,1,0,0:0:0:0:
320,192,186075,1,0,0:0:0:0:
192,192,186150,1,0,0:0:0:0:
64,192,186225,1,0,0:0:0:0:
192,192,186300,1,0,0:0:0:0:
448,192,186300,1,0,0:0:0:0:
320,192,186375,1,0,0:0:0:0:
192,192,186450,1,0,0:0:0:0:
64,192,186525,1,0,0:0:0:0:
448,192,186600,1,0,0:0:0:0:
192,192,186600,1,0,0:0:0:0:
320,192,186675,1,0,0:0:0:0:
192,192,186750,1,0,0:0:0:0:
64,192,186825,1,0,0:0:0:0:
192,192,186900,1,0,0:0:0:0:
448,192,186900,1,0,0:0:0:0:
320,192,186975,1,0,0:0:0:0:
192,192,187050,1,0,0:0:0:0:
64,192,187125,1,0,0:0:0:0:
448,192,187200,1,0,0:0:0:0:
192,192,187200,1,0,0:0:0:0:
320,192,187275,1,0,0:0:0:0:
192,192,187350,1,0,0:0:0:0:
64,192,187425,1,0,0:0:0:0:
448,192,187500,1,0,0:0:0:0:
192,192,187500,1,0,0:0:0:0:
320,192,187575,1,0,0:0:0:0:
192,192,187650,1,0,0:0:0:0:
64,192,187725,1,0,0:0:0:0:
448,192,187800,1,0,0:0:0:0:
192,192,187800,1,0,0:0:0:0:
320,192,187875,1,0,0:0:0:0:
192,192,187950,1,0,0:0:0:0:
64,192,188025,1,0,0:0:0:0:
448,192,188100,1,0,0:0:0:0:
192,192,188100,1,0,0:0:0:0:
320,192,188175,1,0,0:0:0:0:
192,192,188250,1,0,0:0:0:0:
64,192,188325,1,0,0:0:0:0:
192,192,188400,1,0,0:0:0:0:
448,192,188400,1,0,0:0:0:0:
320,192,188400,1,0,0:0:0:0:
64,192,188475,1,0,0:0:0:0:
320,192,188550,1,0,0:0:0:0:
192,192,188625,1,0,0:0:0:0:
320,192,188700,1,0,0:0:0:0:
448,192,188700,1,0,0:0:0:0:
64,192,188700,1,0,0:0:0:0:
192,192,188775,1,0,0:0:0:0:
320,192,188850,1,0,0:0:0:0:
64,192,188850,1,0,0:0:0:0:
448,192,188925,1,0,0:0:0:0:
320,192,189000,1,0,0:0:0:0:
64,192,189000,1,0,0:0:0:0:
192,192,189000,1,0,0:0:0:0:
448,192,189075,1,0,0:0:0:0:
192,192,189150,1,0,0:0:0:0:
64,192,189150,1,0,0:0:0:0:
320,192,189225,1,0,0:0:0:0:
192,192,189300,1,0,0:0:0:0:
448,192,189300,1,0,0:0:0:0:
64,192,189300,1,0,0:0:0:0:
320,192,189375,1,0,0:0:0:0:
64,192,189450,1,0,0:0:0:0:
448,192,189450,1,0,0:0:0:0:
192,192,189525,1,0,0:0:0:0:
64,192,189600,1,0,0:0:0:0:
320,192,189600,1,0,0:0:0:0:
448,192,189600,1,0,0:0:0:0:
192,192,189675,1,0,0:0:0:0:
320,192,189750,1,0,0:0:0:0:
448,192,189825,1,0,0:0:0:0:
320,192,189900,1,0,0:0:0:0:
64,192,189900,1,0,0:0:0:0:
192,192,189975,1,0,0:0:0:0:
320,192,190050,1,0,0:0:0:0:
448,192,190125,1,0,0:0:0:0:
320,192,190200,1,0,0:0:0:0:
64,192,190200,1,0,0:0:0:0:
192,192,190275,1,0,0:0:0:0:
320,192,190350,1,0,0:0:0:0:
448,192,190425,1,0,0:0:0:0:
320,192,190500,1,0,0:0:0:0:
64,192,190500,1,0,0:0:0:0:
192,192,190575,1,0,0:0:0:0:
320,192,190650,1,0,0:0:0:0:
448,192,190725,1,0,0:0:0:0:
320,192,190800,1,0,0:0:0:0:
64,192,190800,1,0,0:0:0:0:
192,192,190875,1,0,0:0:0:0:
320,192,190950,1,0,0:0:0:0:
448,192,191025,1,0,0:0:0:0:
320,192,191100,1,0,0:0:0:0:
64,192,191100,1,0,0:0:0:0:
192,192,191175,1,0,0:0:0:0:
320,192,191250,1,0,0:0:0:0:
448,192,191325,1,0,0:0:0:0:
320,192,191400,1,0,0:0:0:0:
64,192,191400,1,0,0:0:0:0:
192,192,191475,1,0,0:0:0:0:
320,192,191550,1,0,0:0:0:0:
448,192,191625,1,0,0:0:0:0:
320,192,191700,1,0,0:0:0:0:
64,192,191700,1,0,0:0:0:0:
192,192,191775,1,0,0:0:0:0:
320,192,191850,1,0,0:0:0:0:
448,192,191925,1,0,0:0:0:0:
320,192,192000,1,0,0:0:0:0:
64,192,192000,1,0,0:0:0:0:
192,192,192075,1,0,0:0:0:0:
320,192,192150,1,0,0:0:0:0:
448,192,192225,1,0,0:0:0:0:
320,192,192300,1,0,0:0:0:0:
64,192,192300,1,0,0:0:0:0:
192,192,192375,1,0,0:0:0:0:
320,192,192450,1,0,0:0:0:0:
448,192,192525,1,0,0:0:0:0:
64,192,192600,1,0,0:0:0:0:
320,192,192600,1,0,0:0:0:0:
192,192,192675,1,0,0:0:0:0:
320,192,192750,1,0,0:0:0:0:
448,192,192825,1,0,0:0:0:0:
64,192,192900,1,0,0:0:0:0:
320,192,192900,1,0,0:0:0:0:
192,192,192975,1,0,0:0:0:0:
320,192,193050,1,0,0:0:0:0:
448,192,193125,1,0,0:0:0:0:
64,192,193200,1,0,0:0:0:0:
320,192,193275,1,0,0:0:0:0:
192,192,193350,1,0,0:0:0:0:
448,192,193425,1,0,0:0:0:0:
64,192,193500,1,0,0:0:0:0:
320,192,193575,1,0,0:0:0:0:
192,192,193650,1,0,0:0:0:0:
448,192,193725,1,0,0:0:0:0:
64,192,193800,1,0,0:0:0:0:
320,192,193875,1,0,0:0:0:0:
192,192,193950,1,0,0:0:0:0:
448,192,194025,1,0,0:0:0:0:
192,192,194100,1,0,0:0:0:0:
320,192,194175,1,0,0:0:0:0:
64,192,194250,1,0,0:0:0:0:
448,192,194400,1,0,0:0:0:0:
192,192,194400,1,0,0:0:0:0:
64,192,194400,1,0,0:0:0:0:
320,192,194400,1,0,0:0:0:0:
448,192,194550,1,0,0:0:0:0:
64,192,194550,128,0,194700:0:0:0:0:
320,192,194700,1,0,0:0:0:0:
192,192,194700,1,0,0:0:0:0:
448,192,194850,1,0,0:0:0:0:
64,192,194850,128,0,195000:0:0:0:0:
320,192,195000,1,0,0:0:0:0:
192,192,195000,1,0,0:0:0:0:
448,192,195150,1,0,0:0:0:0:
64,192,195150,128,0,195300:0:0:0:0:
192,192,195300,1,0,0:0:0:0:
320,192,195300,1,0,0:0:0:0:
448,192,195450,1,0,0:0:0:0:
64,192,195450,128,0,195600:0:0:0:0:
192,192,195600,1,0,0:0:0:0:
320,192,195600,1,0,0:0:0:0:
448,192,195750,1,0,0:0:0:0:
64,192,195750,128,0,195900:0:0:0:0:
320,192,195900,1,0,0:0:0:0:
192,192,195900,1,0,0:0:0:0:
448,192,196050,1,0,0:0:0:0:
64,192,196050,128,0,196200:0:0:0:0:
320,192,196200,1,0,0:0:0:0:
192,192,196200,1,0,0:0:0:0:
448,192,196275,1,0,0:0:0:0:
64,192,196350,1,0,0:0:0:0:
320,192,196350,1,0,0:0:0:0:
192,192,196425,1,0,0:0:0:0:
448,192,196500,1,0,0:0:0:0:
320,192,196500,1,0,0:0:0:0:
64,192,196575,1,0,0:0:0:0:
448,192,196650,1,0,0:0:0:0:
192,192,196650,1,0,0:0:0:0:
320,192,196725,1,0,0:0:0:0:
64,192,196800,1,0,0:0:0:0:
192,192,196800,1,0,0:0:0:0:
448,192,196950,128,0,197100:0:0:0:0:
320,192,196950,1,0,0:0:0:0:
64,192,197100,1,0,0:0:0:0:
192,192,197100,1,0,0:0:0:0:
448,192,197250,128,0,197400:0:0:0:0:
320,192,197250,1,0,0:0:0:0:
64,192,197400,1,0,0:0:0:0:
192,192,197400,1,0,0:0:0:0:
448,192,197550,128,0,197700:0:0:0:0:
320,192,197550,1,0,0:0:0:0:
64,192,197700,1,0,0:0:0:0:
192,192,197700,1,0,0:0:0:0:
448,192,197850,128,0,198000:0:0:0:0:
320,192,197850,1,0,0:0:0:0:
64,192,198000,1,0,0:0:0:0:
192,192,198000,1,0,0:0:0:0:
320,192,198075,1,0,0:0:0:0:
64,192,198150,1,0,0:0:0:0:
448,192,198150,1,0,0:0:0:0:
192,192,198225,1,0,0:0:0:0:
448,192,198300,1,0,0:0:0:0:
320,192,198300,1,0,0:0:0:0:
192,192,198375,1,0,0:0:0:0:
64,192,198450,1,0,0:0:0:0:
448,192,198450,1,0,0:0:0:0:
320,192,198525,1,0,0:0:0:0:
64,192,198600,1,0,0:0:0:0:
192,192,198600,1,0,0:0:0:0:
320,192,198675,1,0,0:0:0:0:
448,192,198750,1,0,0:0:0:0:
64,192,198825,1,0,0:0:0:0:
448,192,198900,1,0,0:0:0:0:
192,192,198900,1,0,0:0:0:0:
320,192,198975,1,0,0:0:0:0:
192,192,199050,1,0,0:0:0:0:
64,192,199125,1,0,0:0:0:0:
320,192,199200,1,0,0:0:0:0:
192,192,199200,1,0,0:0:0:0:
448,192,199200,1,0,0:0:0:0:
192,192,199350,1,0,0:0:0:0:
64,192,199350,128,0,199500:0:0:0:0:
320,192,199500,1,0,0:0:0:0:
448,192,199500,1,0,0:0:0:0:
192,192,199650,1,0,0:0:0:0:
64,192,199650,128,0,199800:0:0:0:0:
448,192,199800,1,0,0:0:0:0:
320,192,199800,1,0,0:0:0:0:
192,192,199950,1,0,0:0:0:0:
64,192,199950,128,0,200100:0:0:0:0:
448,192,200100,1,0,0:0:0:0:
320,192,200100,1,0,0:0:0:0:
192,192,200250,1,0,0:0:0:0:
64,192,200250,128,0,200400:0:0:0:0:
448,192,200400,1,0,0:0:0:0:
320,192,200400,1,0,0:0:0:0:
320,192,200550,1,0,0:0:0:0:
64,192,200550,1,0,0:0:0:0:
320,192,200700,1,0,0:0:0:0:
64,192,200700,1,0,0:0:0:0:
448,192,200850,1,0,0:0:0:0:
192,192,200850,1,0,0:0:0:0:
448,192,201000,1,0,0:0:0:0:
192,192,201000,1,0,0:0:0:0:
320,192,201150,1,0,0:0:0:0:
64,192,201150,1,0,0:0:0:0:
320,192,201300,1,0,0:0:0:0:
64,192,201300,1,0,0:0:0:0:
448,192,201450,1,0,0:0:0:0:
192,192,201450,1,0,0:0:0:0:
448,192,201600,1,0,0:0:0:0:
192,192,201600,1,0,0:0:0:0:
64,192,201750,1,0,0:0:0:0:
448,192,201750,128,0,201900:0:0:0:0:
192,192,201825,1,0,0:0:0:0:
320,192,201900,1,0,0:0:0:0:
64,192,202050,1,0,0:0:0:0:
448,192,202050,128,0,202200:0:0:0:0:
192,192,202125,1,0,0:0:0:0:
320,192,202200,1,0,0:0:0:0:
64,192,202350,1,0,0:0:0:0:
448,192,202350,128,0,202500:0:0:0:0:
192,192,202425,1,0,0:0:0:0:
320,192,202500,1,0,0:0:0:0:
64,192,202650,1,0,0:0:0:0:
448,192,202650,128,0,202800:0:0:0:0:
192,192,202725,1,0,0:0:0:0:
320,192,202800,1,0,0:0:0:0:
64,192,202875,1,0,0:0:0:0:
448,192,202950,1,0,0:0:0:0:
192,192,203025,1,0,0:0:0:0:
320,192,203100,1,0,0:0:0:0:
64,192,203175,1,0,0:0:0:0:
448,192,203250,1,0,0:0:0:0:
192,192,203325,1,0,0:0:0:0:
320,192,203400,1,0,0:0:0:0:
64,192,203475,1,0,0:0:0:0:
448,192,203550,1,0,0:0:0:0:
192,192,203625,1,0,0:0:0:0:
320,192,203700,1,0,0:0:0:0:
64,192,203775,1,0,0:0:0:0:
448,192,203850,1,0,0:0:0:0:
320,192,204000,1,0,0:0:0:0:
448,192,204000,1,0,0:0:0:0:
64,192,204000,1,0,0:0:0:0:
192,192,204000,1,0,0:0:0:0:
448,192,204150,1,0,0:0:0:0:
64,192,204150,1,0,0:0:0:0:
192,192,204300,1,0,0:0:0:0:
448,192,204300,1,0,0:0:0:0:
64,192,204525,1,0,0:0:0:0:
192,192,204600,1,0,0:0:0:0:
320,192,204675,1,0,0:0:0:0:
448,192,204750,1,0,0:0:0:0:
64,192,204900,1,0,0:0:0:0:
320,192,204900,1,0,0:0:0:0:
192,192,205050,1,0,0:0:0:0:
320,192,205125,1,0,0:0:0:0:
448,192,205200,1,0,0:0:0:0:
64,192,205350,1,0,0:0:0:0:
192,192,205500,1,0,0:0:0:0:
320,192,205650,1,0,0:0:0:0:
448,192,205800,1,0,0:0:0:0:
192,192,205800,1,0,0:0:0:0:
64,192,205950,1,0,0:0:0:0:
320,192,205950,1,0,0:0:0:0:
192,192,206100,1,0,0:0:0:0:
448,192,206100,1,0,0:0:0:0:
64,192,206250,1,0,0:0:0:0:
192,192,206325,1,0,0:0:0:0:
448,192,206400,1,0,0:0:0:0:
320,192,206400,1,0,0:0:0:0:
192,192,206550,1,0,0:0:0:0:
64,192,206700,1,0,0:0:0:0:
64,192,206925,1,0,0:0:0:0:
192,192,207000,1,0,0:0:0:0:
320,192,207075,1,0,0:0:0:0:
64,192,207150,1,0,0:0:0:0:
448,192,207150,1,0,0:0:0:0:
192,192,207225,1,0,0:0:0:0:
448,192,207300,1,0,0:0:0:0:
320,192,207300,1,0,0:0:0:0:
448,192,207450,1,0,0:0:0:0:
320,192,207525,1,0,0:0:0:0:
192,192,207600,1,0,0:0:0:0:
320,192,207750,1,0,0:0:0:0:
64,192,207750,1,0,0:0:0:0:
320,192,207900,1,0,0:0:0:0:
64,192,207900,1,0,0:0:0:0:
448,192,208050,1,0,0:0:0:0:
64,192,208050,1,0,0:0:0:0:
448,192,208200,1,0,0:0:0:0:
64,192,208200,1,0,0:0:0:0:
320,192,208350,1,0,0:0:0:0:
64,192,208350,1,0,0:0:0:0:
320,192,208500,1,0,0:0:0:0:
64,192,208500,1,0,0:0:0:0:
448,192,208650,1,0,0:0:0:0:
64,192,208650,1,0,0:0:0:0:
448,192,208800,1,0,0:0:0:0:
64,192,208800,1,0,0:0:0:0:
320,192,208950,1,0,0:0:0:0:
64,192,209100,1,0,0:0:0:0:
192,192,209100,1,0,0:0:0:0:
448,192,209325,1,0,0:0:0:0:
320,192,209400,1,0,0:0:0:0:
192,192,209475,1,0,0:0:0:0:
64,192,209550,1,0,0:0:0:0:
192,192,209700,1,0,0:0:0:0:
448,192,209700,1,0,0:0:0:0:
64,192,209850,1,0,0:0:0:0:
192,192,209925,1,0,0:0:0:0:
448,192,210000,1,0,0:0:0:0:
320,192,210000,1,0,0:0:0:0:
192,192,210150,1,0,0:0:0:0:
448,192,210150,1,0,0:0:0:0:
192,192,210300,1,0,0:0:0:0:
448,192,210300,1,0,0:0:0:0:
64,192,210450,1,0,0:0:0:0:
448,192,210450,1,0,0:0:0:0:
64,192,210600,1,0,0:0:0:0:
448,192,210600,1,0,0:0:0:0:
192,192,210750,1,0,0:0:0:0:
448,192,210750,1,0,0:0:0:0:
192,192,210900,1,0,0:0:0:0:
448,192,210900,1,0,0:0:0:0:
64,192,211050,1,0,0:0:0:0:
448,192,211050,1,0,0:0:0:0:
64,192,211200,1,0,0:0:0:0:
448,192,211200,1,0,0:0:0:0:
192,192,211350,1,0,0:0:0:0:
320,192,211500,1,0,0:0:0:0:
448,192,211500,1,0,0:0:0:0:
64,192,211725,1,0,0:0:0:0:
192,192,211800,1,0,0:0:0:0:
320,192,211875,1,0,0:0:0:0:
64,192,211950,1,0,0:0:0:0:
448,192,211950,1,0,0:0:0:0:
192,192,212100,1,0,0:0:0:0:
320,192,212250,1,0,0:0:0:0:
192,192,212325,1,0,0:0:0:0:
448,192,212400,1,0,0:0:0:0:
64,192,212400,1,0,0:0:0:0:
320,192,212550,1,0,0:0:0:0:
64,192,212550,1,0,0:0:0:0:
320,192,212700,1,0,0:0:0:0:
64,192,212700,1,0,0:0:0:0:
448,192,212850,1,0,0:0:0:0:
192,192,212850,1,0,0:0:0:0:
448,192,213000,1,0,0:0:0:0:
192,192,213000,1,0,0:0:0:0:
64,192,213150,1,0,0:0:0:0:
320,192,213150,1,0,0:0:0:0:
64,192,213300,1,0,0:0:0:0:
320,192,213300,1,0,0:0:0:0:
192,192,213450,1,0,0:0:0:0:
448,192,213450,1,0,0:0:0:0:
64,192,213600,1,0,0:0:0:0:
448,192,213600,1,0,0:0:0:0:
320,192,213600,1,0,0:0:0:0:
192,192,213600,1,0,0:0:0:0:
320,192,213750,1,0,0:0:0:0:
448,192,213900,1,0,0:0:0:0:
192,192,213900,1,0,0:0:0:0:
320,192,214050,1,0,0:0:0:0:
448,192,214200,1,0,0:0:0:0:
192,192,214200,1,0,0:0:0:0:
320,192,214350,1,0,0:0:0:0:
448,192,214500,1,0,0:0:0:0:
64,192,214500,1,0,0:0:0:0:
192,192,214650,1,0,0:0:0:0:
448,192,214800,1,0,0:0:0:0:
320,192,214800,1,0,0:0:0:0:
192,192,214950,1,0,0:0:0:0:
448,192,215100,1,0,0:0:0:0:
64,192,215100,1,0,0:0:0:0:
320,192,215250,1,0,0:0:0:0:
448,192,215400,1,0,0:0:0:0:
192,192,215400,1,0,0:0:0:0:
320,192,215550,1,0,0:0:0:0:
192,192,215700,1,0,0:0:0:0:
64,192,215700,1,0,0:0:0:0:
320,192,215850,1,0,0:0:0:0:
448,192,216000,1,0,0:0:0:0:
64,192,216000,1,0,0:0:0:0:
192,192,216150,1,0,0:0:0:0:
64,192,216300,1,0,0:0:0:0:
320,192,216300,1,0,0:0:0:0:
192,192,216450,1,0,0:0:0:0:
320,192,216600,1,0,0:0:0:0:
64,192,216600,1,0,0:0:0:0:
192,192,216750,1,0,0:0:0:0:
64,192,216900,1,0,0:0:0:0:
448,192,216900,1,0,0:0:0:0:
320,192,217050,1,0,0:0:0:0:
64,192,217200,1,0,0:0:0:0:
448,192,217200,1,0,0:0:0:0:
192,192,217350,1,0,0:0:0:0:
448,192,217500,1,0,0:0:0:0:
64,192,217500,1,0,0:0:0:0:
320,192,217650,1,0,0:0:0:0:
64,192,217800,1,0,0:0:0:0:
192,192,217800,1,0,0:0:0:0:
320,192,217950,1,0,0:0:0:0:
448,192,218100,1,0,0:0:0:0:
192,192,218100,1,0,0:0:0:0:
64,192,218250,1,0,0:0:0:0:
320,192,218250,1,0,0:0:0:0:
192,192,218400,1,0,0:0:0:0:
320,192,218400,1,0,0:0:0:0:
448,192,218400,1,0,0:0:0:0:
320,192,218550,1,0,0:0:0:0:
192,192,218550,1,0,0:0:0:0:
64,192,218700,1,0,0:0:0:0:
192,192,218700,1,0,0:0:0:0:
64,192,218850,1,0,0:0:0:0:
192,192,218850,1,0,0:0:0:0:
192,192,219000,1,0,0:0:0:0:
320,192,219000,1,0,0:0:0:0:
320,192,219150,1,0,0:0:0:0:
448,192,219150,1,0,0:0:0:0:
320,192,219300,1,0,0:0:0:0:
448,192,219300,1,0,0:0:0:0:
64,192,219375,1,0,0:0:0:0:
192,192,219375,1,0,0:0:0:0:
320,192,219450,1,0,0:0:0:0:
448,192,219450,1,0,0:0:0:0:
64,192,219525,1,0,0:0:0:0:
192,192,219525,1,0,0:0:0:0:
320,192,219600,1,0,0:0:0:0:
448,192,219600,1,0,0:0:0:0:
448,192,219750,1,0,0:0:0:0:
64,192,219750,1,0,0:0:0:0:
192,192,219750,1,0,0:0:0:0:
448,192,219900,1,0,0:0:0:0:
64,192,219900,1,0,0:0:0:0:
192,192,219900,1,0,0:0:0:0:
64,192,220050,1,0,0:0:0:0:
320,192,220050,1,0,0:0:0:0:
448,192,220050,1,0,0:0:0:0:
64,192,220200,1,0,0:0:0:0:
448,192,220200,1,0,0:0:0:0:
320,192,220200,1,0,0:0:0:0:
448,192,220350,1,0,0:0:0:0:
64,192,220350,1,0,0:0:0:0:
192,192,220350,1,0,0:0:0:0:
448,192,220500,1,0,0:0:0:0:
320,192,220537,1,0,0:0:0:0:
64,192,220575,1,0,0:0:0:0:
192,192,220612,1,0,0:0:0:0:
448,192,220650,1,0,0:0:0:0:
320,192,220687,1,0,0:0:0:0:
64,192,220725,1,0,0:0:0:0:
192,192,220762,1,0,0:0:0:0:
320,192,220800,1,0,0:0:0:0:
448,192,220800,1,0,0:0:0:0:
64,192,220875,1,0,0:0:0:0:
192,192,220875,1,0,0:0:0:0:
320,192,220950,1,0,0:0:0:0:
448,192,220950,1,0,0:0:0:0:
64,192,221025,1,0,0:0:0:0:
192,192,221025,1,0,0:0:0:0:
320,192,221100,1,0,0:0:0:0:
448,192,221100,1,0,0:0:0:0:
64,192,221175,1,0,0:0:0:0:
192,192,221175,1,0,0:0:0:0:
320,192,221250,1,0,0:0:0:0:
448,192,221250,1,0,0:0:0:0:
64,192,221325,1,0,0:0:0:0:
192,192,221325,1,0,0:0:0:0:
320,192,221400,1,0,0:0:0:0:
448,192,221400,1,0,0:0:0:0:
64,192,221475,1,0,0:0:0:0:
192,192,221475,1,0,0:0:0:0:
320,192,221550,1,0,0:0:0:0:
448,192,221550,1,0,0:0:0:0:
64,192,221625,1,0,0:0:0:0:
192,192,221625,1,0,0:0:0:0:
320,192,221700,1,0,0:0:0:0:
448,192,221700,1,0,0:0:0:0:
192,192,221775,1,0,0:0:0:0:
64,192,221775,1,0,0:0:0:0:
320,192,221850,1,0,0:0:0:0:
448,192,221850,1,0,0:0:0:0:
64,192,221925,1,0,0:0:0:0:
192,192,221925,1,0,0:0:0:0:
192,192,222000,1,0,0:0:0:0:
448,192,222000,1,0,0:0:0:0:
320,192,222000,1,0,0:0:0:0:
64,192,222150,1,0,0:0:0:0:
192,192,222150,1,0,0:0:0:0:
320,192,222150,1,0,0:0:0:0:
64,192,222300,1,0,0:0:0:0:
192,192,222300,1,0,0:0:0:0:
448,192,222300,1,0,0:0:0:0:
448,192,222450,1,0,0:0:0:0:
64,192,222450,1,0,0:0:0:0:
320,192,222450,1,0,0:0:0:0:
320,192,222600,1,0,0:0:0:0:
192,192,222600,1,0,0:0:0:0:
64,192,222600,1,0,0:0:0:0:
448,192,222750,1,0,0:0:0:0:
320,192,222750,1,0,0:0:0:0:
64,192,222750,1,0,0:0:0:0:
448,192,222900,1,0,0:0:0:0:
64,192,222900,1,0,0:0:0:0:
192,192,222900,1,0,0:0:0:0:
192,192,223200,1,0,0:0:0:0:
64,192,223200,1,0,0:0:0:0:
448,192,223200,1,0,0:0:0:0:
320,192,223200,1,0,0:0:0:0:
64,192,223350,1,0,0:0:0:0:
192,192,223425,1,0,0:0:0:0:
448,192,223500,1,0,0:0:0:0:
320,192,223500,1,0,0:0:0:0:
64,192,223500,128,0,223725:0:0:0:0:
448,192,223800,1,0,0:0:0:0:
64,192,223800,1,0,0:0:0:0:
192,192,223875,1,0,0:0:0:0:
320,192,223950,1,0,0:0:0:0:
448,192,224025,1,0,0:0:0:0:
64,192,224100,1,0,0:0:0:0:
192,192,224100,1,0,0:0:0:0:
320,192,224175,1,0,0:0:0:0:
192,192,224250,1,0,0:0:0:0:
64,192,224325,1,0,0:0:0:0:
448,192,224400,1,0,0:0:0:0:
320,192,224400,1,0,0:0:0:0:
192,192,224475,1,0,0:0:0:0:
320,192,224550,1,0,0:0:0:0:
192,192,224625,1,0,0:0:0:0:
320,192,224700,1,0,0:0:0:0:
64,192,224700,1,0,0:0:0:0:
448,192,224775,1,0,0:0:0:0:
64,192,224850,1,0,0:0:0:0:
192,192,224850,1,0,0:0:0:0:
448,192,224925,1,0,0:0:0:0:
192,192,225000,1,0,0:0:0:0:
320,192,225000,1,0,0:0:0:0:
64,192,225075,1,0,0:0:0:0:
448,192,225150,1,0,0:0:0:0:
64,192,225225,1,0,0:0:0:0:
320,192,225225,1,0,0:0:0:0:
448,192,225300,1,0,0:0:0:0:
192,192,225300,1,0,0:0:0:0:
320,192,225450,1,0,0:0:0:0:
192,192,225525,1,0,0:0:0:0:
448,192,225600,1,0,0:0:0:0:
64,192,225600,1,0,0:0:0:0:
320,192,225675,1,0,0:0:0:0:
192,192,225750,1,0,0:0:0:0:
320,192,225825,1,0,0:0:0:0:
448,192,225900,1,0,0:0:0:0:
192,192,225900,1,0,0:0:0:0:
64,192,225900,128,0,226125:0:0:0:0:
448,192,226125,1,0,0:0:0:0:
64,192,226200,1,0,0:0:0:0:
320,192,226200,1,0,0:0:0:0:
192,192,226275,1,0,0:0:0:0:
64,192,226350,1,0,0:0:0:0:
320,192,226350,1,0,0:0:0:0:
192,192,226425,1,0,0:0:0:0:
448,192,226425,1,0,0:0:0:0:
64,192,226500,1,0,0:0:0:0:
320,192,226500,1,0,0:0:0:0:
192,192,226650,1,0,0:0:0:0:
448,192,226650,1,0,0:0:0:0:
320,192,226725,1,0,0:0:0:0:
64,192,226800,1,0,0:0:0:0:
192,192,226800,1,0,0:0:0:0:
64,192,226950,1,0,0:0:0:0:
320,192,226950,1,0,0:0:0:0:
448,192,226950,1,0,0:0:0:0:
64,192,227100,1,0,0:0:0:0:
320,192,227100,1,0,0:0:0:0:
448,192,227100,1,0,0:0:0:0:
320,192,227250,1,0,0:0:0:0:
64,192,227250,1,0,0:0:0:0:
192,192,227250,1,0,0:0:0:0:
64,192,227400,1,0,0:0:0:0:
192,192,227400,1,0,0:0:0:0:
320,192,227400,1,0,0:0:0:0:
64,192,227550,1,0,0:0:0:0:
320,192,227550,1,0,0:0:0:0:
448,192,227550,1,0,0:0:0:0:
64,192,227700,1,0,0:0:0:0:
320,192,227700,1,0,0:0:0:0:
448,192,227700,1,0,0:0:0:0:
448,192,227850,1,0,0:0:0:0:
64,192,227850,1,0,0:0:0:0:
192,192,227850,1,0,0:0:0:0:
192,192,228000,1,0,0:0:0:0:
64,192,228000,1,0,0:0:0:0:
320,192,228000,1,0,0:0:0:0:
448,192,228000,1,0,0:0:0:0:
448,192,228150,1,0,0:0:0:0:
320,192,228225,1,0,0:0:0:0:
192,192,228300,1,0,0:0:0:0:
64,192,228300,1,0,0:0:0:0:
448,192,228300,128,0,228525:0:0:0:0:
64,192,228525,1,0,0:0:0:0:
192,192,228600,1,0,0:0:0:0:
448,192,228600,1,0,0:0:0:0:
320,192,228675,1,0,0:0:0:0:
64,192,228750,1,0,0:0:0:0:
448,192,228750,1,0,0:0:0:0:
192,192,228825,1,0,0:0:0:0:
64,192,228900,1,0,0:0:0:0:
448,192,228900,1,0,0:0:0:0:
320,192,228975,1,0,0:0:0:0:
64,192,229050,1,0,0:0:0:0:
192,192,229125,1,0,0:0:0:0:
320,192,229200,1,0,0:0:0:0:
448,192,229200,1,0,0:0:0:0:
192,192,229350,1,0,0:0:0:0:
64,192,229425,1,0,0:0:0:0:
448,192,229500,1,0,0:0:0:0:
320,192,229500,1,0,0:0:0:0:
192,192,229575,1,0,0:0:0:0:
64,192,229650,1,0,0:0:0:0:
320,192,229725,1,0,0:0:0:0:
192,192,229800,1,0,0:0:0:0:
64,192,229800,1,0,0:0:0:0:
320,192,229875,1,0,0:0:0:0:
64,192,229950,1,0,0:0:0:0:
448,192,229950,1,0,0:0:0:0:
320,192,230025,1,0,0:0:0:0:
64,192,230100,1,0,0:0:0:0:
192,192,230100,1,0,0:0:0:0:
448,192,230175,1,0,0:0:0:0:
64,192,230250,1,0,0:0:0:0:
192,192,230325,1,0,0:0:0:0:
448,192,230400,1,0,0:0:0:0:
320,192,230400,1,0,0:0:0:0:
192,192,230475,1,0,0:0:0:0:
448,192,230550,1,0,0:0:0:0:
320,192,230625,1,0,0:0:0:0:
192,192,230700,1,0,0:0:0:0:
64,192,230700,1,0,0:0:0:0:
448,192,230700,128,0,230925:0:0:0:0:
64,192,230925,1,0,0:0:0:0:
448,192,231000,1,0,0:0:0:0:
192,192,231000,1,0,0:0:0:0:
320,192,231075,1,0,0:0:0:0:
448,192,231150,1,0,0:0:0:0:
192,192,231150,1,0,0:0:0:0:
64,192,231225,1,0,0:0:0:0:
320,192,231225,1,0,0:0:0:0:
192,192,231300,1,0,0:0:0:0:
64,192,231375,1,0,0:0:0:0:
448,192,231375,1,0,0:0:0:0:
320,192,231450,1,0,0:0:0:0:
192,192,231525,1,0,0:0:0:0:
64,192,231600,1,0,0:0:0:0:
320,192,231600,1,0,0:0:0:0:
448,192,231600,1,0,0:0:0:0:
64,192,231750,1,0,0:0:0:0:
448,192,231750,1,0,0:0:0:0:
320,192,231900,1,0,0:0:0:0:
192,192,231900,1,0,0:0:0:0:
192,192,232050,1,0,0:0:0:0:
320,192,232050,1,0,0:0:0:0:
192,192,232200,1,0,0:0:0:0:
64,192,232200,1,0,0:0:0:0:
320,192,232275,1,0,0:0:0:0:
448,192,232275,1,0,0:0:0:0:
64,192,232350,1,0,0:0:0:0:
192,192,232350,1,0,0:0:0:0:
320,192,232500,1,0,0:0:0:0:
448,192,232500,1,0,0:0:0:0:
192,192,232650,1,0,0:0:0:0:
320,192,232650,1,0,0:0:0:0:
64,192,232800,1,0,0:0:0:0:
192,192,232800,1,0,0:0:0:0:
448,192,232800,1,0,0:0:0:0:
64,192,232950,1,0,0:0:0:0:
192,192,233025,1,0,0:0:0:0:
448,192,233100,1,0,0:0:0:0:
320,192,233100,1,0,0:0:0:0:
64,192,233100,128,0,233325:0:0:0:0:
448,192,233400,1,0,0:0:0:0:
64,192,233400,1,0,0:0:0:0:
192,192,233475,1,0,0:0:0:0:
320,192,233550,1,0,0:0:0:0:
448,192,233625,1,0,0:0:0:0:
64,192,233700,1,0,0:0:0:0:
192,192,233700,1,0,0:0:0:0:
320,192,233775,1,0,0:0:0:0:
192,192,233850,1,0,0:0:0:0:
64,192,233925,1,0,0:0:0:0:
448,192,234000,1,0,0:0:0:0:
320,192,234000,1,0,0:0:0:0:
192,192,234075,1,0,0:0:0:0:
320,192,234150,1,0,0:0:0:0:
192,192,234225,1,0,0:0:0:0:
320,192,234300,1,0,0:0:0:0:
64,192,234300,1,0,0:0:0:0:
448,192,234375,1,0,0:0:0:0:
64,192,234450,1,0,0:0:0:0:
192,192,234450,1,0,0:0:0:0:
448,192,234525,1,0,0:0:0:0:
192,192,234600,1,0,0:0:0:0:
320,192,234600,1,0,0:0:0:0:
64,192,234675,1,0,0:0:0:0:
448,192,234750,1,0,0:0:0:0:
64,192,234825,1,0,0:0:0:0:
320,192,234825,1,0,0:0:0:0:
448,192,234900,1,0,0:0:0:0:
192,192,234900,1,0,0:0:0:0:
320,192,235050,1,0,0:0:0:0:
192,192,235125,1,0,0:0:0:0:
448,192,235200,1,0,0:0:0:0:
64,192,235200,1,0,0:0:0:0:
320,192,235275,1,0,0:0:0:0:
192,192,235350,1,0,0:0:0:0:
320,192,235425,1,0,0:0:0:0:
448,192,235500,1,0,0:0:0:0:
192,192,235500,1,0,0:0:0:0:
64,192,235500,128,0,235725:0:0:0:0:
448,192,235725,1,0,0:0:0:0:
64,192,235800,1,0,0:0:0:0:
320,192,235800,1,0,0:0:0:0:
192,192,235875,1,0,0:0:0:0:
64,192,235950,1,0,0:0:0:0:
320,192,235950,1,0,0:0:0:0:
192,192,236025,1,0,0:0:0:0:
448,192,236025,1,0,0:0:0:0:
64,192,236100,1,0,0:0:0:0:
320,192,236100,1,0,0:0:0:0:
192,192,236250,1,0,0:0:0:0:
448,192,236250,1,0,0:0:0:0:
320,192,236325,1,0,0:0:0:0:
64,192,236400,1,0,0:0:0:0:
192,192,236400,1,0,0:0:0:0:
64,192,236550,1,0,0:0:0:0:
320,192,236550,1,0,0:0:0:0:
448,192,236550,1,0,0:0:0:0:
64,192,236700,1,0,0:0:0:0:
320,192,236700,1,0,0:0:0:0:
448,192,236700,1,0,0:0:0:0:
320,192,236850,1,0,0:0:0:0:
64,192,236850,1,0,0:0:0:0:
192,192,236850,1,0,0:0:0:0:
64,192,237000,1,0,0:0:0:0:
192,192,237000,1,0,0:0:0:0:
320,192,237000,1,0,0:0:0:0:
64,192,237150,1,0,0:0:0:0:
320,192,237150,1,0,0:0:0:0:
448,192,237150,1,0,0:0:0:0:
64,192,237300,1,0,0:0:0:0:
320,192,237300,1,0,0:0:0:0:
448,192,237300,1,0,0:0:0:0:
448,192,237450,1,0,0:0:0:0:
64,192,237450,1,0,0:0:0:0:
192,192,237450,1,0,0:0:0:0:
192,192,237600,1,0,0:0:0:0:
64,192,237600,1,0,0:0:0:0:
320,192,237600,1,0,0:0:0:0:
448,192,237600,1,0,0:0:0:0:
448,192,237750,1,0,0:0:0:0:
320,192,237825,1,0,0:0:0:0:
192,192,237900,1,0,0:0:0:0:
64,192,237900,1,0,0:0:0:0:
448,192,237900,128,0,238125:0:0:0:0:
64,192,238125,1,0,0:0:0:0:
192,192,238200,1,0,0:0:0:0:
448,192,238200,1,0,0:0:0:0:
320,192,238275,1,0,0:0:0:0:
64,192,238350,1,0,0:0:0:0:
448,192,238350,1,0,0:0:0:0:
192,192,238425,1,0,0:0:0:0:
64,192,238500,1,0,0:0:0:0:
448,192,238500,1,0,0:0:0:0:
320,192,238575,1,0,0:0:0:0:
64,192,238650,1,0,0:0:0:0:
192,192,238725,1,0,0:0:0:0:
320,192,238800,1,0,0:0:0:0:
448,192,238800,1,0,0:0:0:0:
192,192,238950,1,0,0:0:0:0:
64,192,239025,1,0,0:0:0:0:
448,192,239100,1,0,0:0:0:0:
320,192,239100,1,0,0:0:0:0:
192,192,239175,1,0,0:0:0:0:
64,192,239250,1,0,0:0:0:0:
320,192,239325,1,0,0:0:0:0:
192,192,239400,1,0,0:0:0:0:
64,192,239400,1,0,0:0:0:0:
320,192,239475,1,0,0:0:0:0:
64,192,239550,1,0,0:0:0:0:
448,192,239550,1,0,0:0:0:0:
320,192,239625,1,0,0:0:0:0:
64,192,239700,1,0,0:0:0:0:
192,192,239700,1,0,0:0:0:0:
448,192,239775,1,0,0:0:0:0:
64,192,239850,1,0,0:0:0:0:
192,192,239925,1,0,0:0:0:0:
448,192,240000,1,0,0:0:0:0:
320,192,240000,1,0,0:0:0:0:
192,192,240075,1,0,0:0:0:0:
448,192,240150,1,0,0:0:0:0:
320,192,240225,1,0,0:0:0:0:
192,192,240300,1,0,0:0:0:0:
64,192,240300,1,0,0:0:0:0:
448,192,240300,128,0,240525:0:0:0:0:
64,192,240525,1,0,0:0:0:0:
448,192,240600,1,0,0:0:0:0:
192,192,240600,1,0,0:0:0:0:
320,192,240675,1,0,0:0:0:0:
448,192,240750,1,0,0:0:0:0:
192,192,240750,1,0,0:0:0:0:
64,192,240825,1,0,0:0:0:0:
320,192,240825,1,0,0:0:0:0:
192,192,240900,1,0,0:0:0:0:
64,192,240975,1,0,0:0:0:0:
448,192,240975,1,0,0:0:0:0:
320,192,241050,1,0,0:0:0:0:
192,192,241125,1,0,0:0:0:0:
64,192,241200,1,0,0:0:0:0:
320,192,241200,1,0,0:0:0:0:
448,192,241200,1,0,0:0:0:0:
64,192,241350,1,0,0:0:0:0:
448,192,241350,1,0,0:0:0:0:
448,192,241500,1,0,0:0:0:0:
320,192,241500,1,0,0:0:0:0:
192,192,241500,1,0,0:0:0:0:
64,192,241650,1,0,0:0:0:0:
320,192,241650,1,0,0:0:0:0:
192,192,241800,1,0,0:0:0:0:
64,192,241800,1,0,0:0:0:0:
320,192,241875,1,0,0:0:0:0:
448,192,241875,1,0,0:0:0:0:
64,192,241950,1,0,0:0:0:0:
192,192,241950,1,0,0:0:0:0:
448,192,242100,1,0,0:0:0:0:
320,192,242100,1,0,0:0:0:0:
192,192,242250,1,0,0:0:0:0:
320,192,242250,1,0,0:0:0:0:
64,192,242400,1,0,0:0:0:0:
448,192,242400,128,0,242700:0:0:0:0:
192,192,242400,1,0,0:0:0:0:
192,192,242700,1,0,0:0:0:0:
320,192,242700,128,0,243000:0:0:0:0:
192,192,243000,1,0,0:0:0:0:
64,192,243000,128,0,244200:0:0:0:0:
448,192,243075,1,0,0:0:0:0:
192,192,243150,1,0,0:0:0:0:
320,192,243225,1,0,0:0:0:0:
448,192,243300,1,0,0:0:0:0:
192,192,243375,1,0,0:0:0:0:
320,192,243450,1,0,0:0:0:0:
448,192,243525,1,0,0:0:0:0:
192,192,243600,1,0,0:0:0:0:
320,192,243675,1,0,0:0:0:0:
448,192,243750,1,0,0:0:0:0:
192,192,243825,1,0,0:0:0:0:
320,192,243900,1,0,0:0:0:0:
448,192,243975,1,0,0:0:0:0:
192,192,244050,1,0,0:0:0:0:
320,192,244125,1,0,0:0:0:0:
448,192,244200,1,0,0:0:0:0:
320,192,244200,128,0,244800:0:0:0:0:
192,192,244275,1,0,0:0:0:0:
64,192,244350,1,0,0:0:0:0:
448,192,244425,1,0,0:0:0:0:
192,192,244500,1,0,0:0:0:0:
64,192,244575,1,0,0:0:0:0:
448,192,244650,1,0,0:0:0:0:
192,192,244725,1,0,0:0:0:0:
448,192,244800,1,0,0:0:0:0:
64,192,244800,128,0,246000:0:0:0:0:
192,192,244875,1,0,0:0:0:0:
320,192,244950,1,0,0:0:0:0:
448,192,245025,1,0,0:0:0:0:
192,192,245100,1,0,0:0:0:0:
320,192,245175,1,0,0:0:0:0:
448,192,245250,1,0,0:0:0:0:
192,192,245325,1,0,0:0:0:0:
320,192,245400,1,0,0:0:0:0:
448,192,245475,1,0,0:0:0:0:
192,192,245550,1,0,0:0:0:0:
320,192,245625,1,0,0:0:0:0:
448,192,245700,1,0,0:0:0:0:
192,192,245775,1,0,0:0:0:0:
320,192,245850,1,0,0:0:0:0:
448,192,245925,1,0,0:0:0:0:
192,192,246000,128,0,246300:0:0:0:0:
320,192,246000,1,0,0:0:0:0:
448,192,246075,1,0,0:0:0:0:
320,192,246150,1,0,0:0:0:0:
64,192,246225,1,0,0:0:0:0:
448,192,246300,1,0,0:0:0:0:
320,192,246300,128,0,246600:0:0:0:0:
64,192,246375,1,0,0:0:0:0:
192,192,246450,1,0,0:0:0:0:
64,192,246525,1,0,0:0:0:0:
192,192,246600,1,0,0:0:0:0:
448,192,246600,128,0,246900:0:0:0:0:
64,192,246675,1,0,0:0:0:0:
320,192,246750,1,0,0:0:0:0:
192,192,246825,1,0,0:0:0:0:
64,192,246900,1,0,0:0:0:0:
320,192,246900,128,0,247200:0:0:0:0:
192,192,246975,1,0,0:0:0:0:
64,192,247050,1,0,0:0:0:0:
192,192,247125,1,0,0:0:0:0:
64,192,247200,1,0,0:0:0:0:
448,192,247200,128,0,247500:0:0:0:0:
192,192,247275,1,0,0:0:0:0:
320,192,247350,1,0,0:0:0:0:
64,192,247425,1,0,0:0:0:0:
192,192,247500,1,0,0:0:0:0:
320,192,247500,128,0,247800:0:0:0:0:
448,192,247575,1,0,0:0:0:0:
64,192,247650,1,0,0:0:0:0:
192,192,247725,1,0,0:0:0:0:
448,192,247800,1,0,0:0:0:0:
64,192,247800,128,0,249000:0:0:0:0:
192,192,247875,1,0,0:0:0:0:
320,192,247950,1,0,0:0:0:0:
448,192,248025,1,0,0:0:0:0:
192,192,248100,1,0,0:0:0:0:
320,192,248175,1,0,0:0:0:0:
448,192,248250,1,0,0:0:0:0:
192,192,248325,1,0,0:0:0:0:
320,192,248400,1,0,0:0:0:0:
448,192,248475,1,0,0:0:0:0:
192,192,248550,1,0,0:0:0:0:
320,192,248625,1,0,0:0:0:0:
448,192,248700,1,0,0:0:0:0:
192,192,248775,1,0,0:0:0:0:
320,192,248850,1,0,0:0:0:0:
448,192,248925,1,0,0:0:0:0:
192,192,249000,1,0,0:0:0:0:
320,192,249000,128,0,249600:0:0:0:0:
448,192,249075,1,0,0:0:0:0:
192,192,249150,1,0,0:0:0:0:
64,192,249225,1,0,0:0:0:0:
448,192,249300,1,0,0:0:0:0:
192,192,249375,1,0,0:0:0:0:
64,192,249450,1,0,0:0:0:0:
448,192,249525,1,0,0:0:0:0:
192,192,249600,1,0,0:0:0:0:
64,192,249600,128,0,250800:0:0:0:0:
448,192,249675,1,0,0:0:0:0:
320,192,249750,1,0,0:0:0:0:
192,192,249825,1,0,0:0:0:0:
448,192,249900,1,0,0:0:0:0:
320,192,249975,1,0,0:0:0:0:
192,192,250050,1,0,0:0:0:0:
448,192,250125,1,0,0:0:0:0:
320,192,250200,1,0,0:0:0:0:
192,192,250275,1,0,0:0:0:0:
448,192,250350,1,0,0:0:0:0:
320,192,250425,1,0,0:0:0:0:
192,192,250500,1,0,0:0:0:0:
448,192,250575,1,0,0:0:0:0:
320,192,250650,1,0,0:0:0:0:
192,192,250725,1,0,0:0:0:0:
448,192,250800,1,0,0:0:0:0:
192,192,250875,1,0,0:0:0:0:
320,192,250950,1,0,0:0:0:0:
64,192,251025,1,0,0:0:0:0:
448,192,251100,1,0,0:0:0:0:
192,192,251175,1,0,0:0:0:0:
320,192,251250,1,0,0:0:0:0:
64,192,251325,1,0,0:0:0:0:
448,192,251400,1,0,0:0:0:0:
192,192,251475,1,0,0:0:0:0:
320,192,251550,1,0,0:0:0:0:
64,192,251625,1,0,0:0:0:0:
448,192,251700,1,0,0:0:0:0:
320,192,251775,1,0,0:0:0:0:
64,192,251850,1,0,0:0:0:0:
192,192,251925,1,0,0:0:0:0:
64,192,252000,1,0,0:0:0:0:
448,192,252000,1,0,0:0:0:0:
320,192,252000,1,0,0:0:0:0:
192,192,252075,1,0,0:0:0:0:
320,192,252150,1,0,0:0:0:0:
448,192,252225,1,0,0:0:0:0:
320,192,252300,1,0,0:0:0:0:
64,192,252300,1,0,0:0:0:0:
192,192,252375,1,0,0:0:0:0:
320,192,252450,1,0,0:0:0:0:
448,192,252525,1,0,0:0:0:0:
320,192,252600,1,0,0:0:0:0:
64,192,252600,1,0,0:0:0:0:
192,192,252675,1,0,0:0:0:0:
320,192,252750,1,0,0:0:0:0:
448,192,252825,1,0,0:0:0:0:
320,192,252900,1,0,0:0:0:0:
64,192,252900,1,0,0:0:0:0:
192,192,252975,1,0,0:0:0:0:
320,192,253050,1,0,0:0:0:0:
448,192,253125,1,0,0:0:0:0:
320,192,253200,1,0,0:0:0:0:
64,192,253200,1,0,0:0:0:0:
192,192,253275,1,0,0:0:0:0:
320,192,253350,1,0,0:0:0:0:
448,192,253425,1,0,0:0:0:0:
64,192,253500,1,0,0:0:0:0:
320,192,253500,1,0,0:0:0:0:
192,192,253575,1,0,0:0:0:0:
320,192,253650,1,0,0:0:0:0:
448,192,253725,1,0,0:0:0:0:
320,192,253800,1,0,0:0:0:0:
64,192,253800,1,0,0:0:0:0:
192,192,253875,1,0,0:0:0:0:
320,192,253950,1,0,0:0:0:0:
448,192,254025,1,0,0:0:0:0:
320,192,254100,1,0,0:0:0:0:
64,192,254100,1,0,0:0:0:0:
192,192,254175,1,0,0:0:0:0:
320,192,254250,1,0,0:0:0:0:
448,192,254325,1,0,0:0:0:0:
320,192,254400,1,0,0:0:0:0:
64,192,254400,1,0,0:0:0:0:
192,192,254475,1,0,0:0:0:0:
320,192,254550,1,0,0:0:0:0:
448,192,254625,1,0,0:0:0:0:
320,192,254700,1,0,0:0:0:0:
64,192,254700,1,0,0:0:0:0:
192,192,254775,1,0,0:0:0:0:
320,192,254850,1,0,0:0:0:0:
448,192,254925,1,0,0:0:0:0:
320,192,255000,1,0,0:0:0:0:
64,192,255000,1,0,0:0:0:0:
192,192,255075,1,0,0:0:0:0:
320,192,255150,1,0,0:0:0:0:
448,192,255225,1,0,0:0:0:0:
320,192,255300,1,0,0:0:0:0:
64,192,255300,1,0,0:0:0:0:
192,192,255375,1,0,0:0:0:0:
64,192,255450,1,0,0:0:0:0:
320,192,255525,1,0,0:0:0:0:
192,192,255600,1,0,0:0:0:0:
448,192,255675,1,0,0:0:0:0:
320,192,255750,1,0,0:0:0:0:
64,192,255825,1,0,0:0:0:0:
448,192,255900,1,0,0:0:0:0:
192,192,255975,1,0,0:0:0:0:
320,192,256050,1,0,0:0:0:0:
64,192,256125,1,0,0:0:0:0:
448,192,256200,1,0,0:0:0:0:
192,192,256275,1,0,0:0:0:0:
320,192,256350,1,0,0:0:0:0:
64,192,256425,1,0,0:0:0:0:
448,192,256500,1,0,0:0:0:0:
192,192,256575,1,0,0:0:0:0:
320,192,256650,1,0,0:0:0:0:
64,192,256725,1,0,0:0:0:0:
448,192,256800,1,0,0:0:0:0:
192,192,256800,1,0,0:0:0:0:
320,192,256875,1,0,0:0:0:0:
192,192,256950,1,0,0:0:0:0:
64,192,257025,1,0,0:0:0:0:
448,192,257100,1,0,0:0:0:0:
192,192,257100,1,0,0:0:0:0:
320,192,257175,1,0,0:0:0:0:
192,192,257250,1,0,0:0:0:0:
64,192,257325,1,0,0:0:0:0:
192,192,257400,1,0,0:0:0:0:
448,192,257400,1,0,0:0:0:0:
320,192,257475,1,0,0:0:0:0:
192,192,257550,1,0,0:0:0:0:
64,192,257625,1,0,0:0:0:0:
448,192,257700,1,0,0:0:0:0:
192,192,257700,1,0,0:0:0:0:
320,192,257775,1,0,0:0:0:0:
192,192,257850,1,0,0:0:0:0:
64,192,257925,1,0,0:0:0:0:
448,192,258000,1,0,0:0:0:0:
192,192,258000,1,0,0:0:0:0:
320,192,258075,1,0,0:0:0:0:
192,192,258150,1,0,0:0:0:0:
64,192,258225,1,0,0:0:0:0:
448,192,258300,1,0,0:0:0:0:
192,192,258300,1,0,0:0:0:0:
320,192,258375,1,0,0:0:0:0:
192,192,258450,1,0,0:0:0:0:
64,192,258525,1,0,0:0:0:0:
448,192,258600,1,0,0:0:0:0:
192,192,258600,1,0,0:0:0:0:
320,192,258675,1,0,0:0:0:0:
192,192,258750,1,0,0:0:0:0:
64,192,258825,1,0,0:0:0:0:
448,192,258900,1,0,0:0:0:0:
192,192,258900,1,0,0:0:0:0:
320,192,258975,1,0,0:0:0:0:
192,192,259050,1,0,0:0:0:0:
64,192,259125,1,0,0:0:0:0:
448,192,259200,1,0,0:0:0:0:
192,192,259200,1,0,0:0:0:0:
320,192,259275,1,0,0:0:0:0:
192,192,259350,1,0,0:0:0:0:
64,192,259425,1,0,0:0:0:0:
448,192,259500,1,0,0:0:0:0:
192,192,259500,1,0,0:0:0:0:
320,192,259575,1,0,0:0:0:0:
192,192,259650,1,0,0:0:0:0:
64,192,259725,1,0,0:0:0:0:
448,192,259800,1,0,0:0:0:0:
192,192,259800,1,0,0:0:0:0:
320,192,259875,1,0,0:0:0:0:
192,192,259950,1,0,0:0:0:0:
64,192,260025,1,0,0:0:0:0:
448,192,260100,1,0,0:0:0:0:
192,192,260100,1,0,0:0:0:0:
320,192,260175,1,0,0:0:0:0:
192,192,260250,1,0,0:0:0:0:
448,192,260325,1,0,0:0:0:0:
192,192,260400,1,0,0:0:0:0:
64,192,260475,1,0,0:0:0:0:
320,192,260550,1,0,0:0:0:0:
448,192,260625,1,0,0:0:0:0:
192,192,260700,1,0,0:0:0:0:
64,192,260775,1,0,0:0:0:0:
320,192,260850,1,0,0:0:0:0:
448,192,260925,1,0,0:0:0:0:
192,192,261000,1,0,0:0:0:0:
64,192,261075,1,0,0:0:0:0:
320,192,261150,1,0,0:0:0:0:
448,192,261225,1,0,0:0:0:0:
192,192,261300,1,0,0:0:0:0:
64,192,261375,1,0,0:0:0:0:
320,192,261450,1,0,0:0:0:0:
448,192,261525,1,0,0:0:0:0:
320,192,261600,1,0,0:0:0:0:
64,192,261600,1,0,0:0:0:0:
192,192,261675,1,0,0:0:0:0:
320,192,261750,1,0,0:0:0:0:
448,192,261825,1,0,0:0:0:0:
320,192,261900,1,0,0:0:0:0:
64,192,261900,1,0,0:0:0:0:
192,192,261975,1,0,0:0:0:0:
320,192,262050,1,0,0:0:0:0:
448,192,262125,1,0,0:0:0:0:
320,192,262200,1,0,0:0:0:0:
64,192,262200,1,0,0:0:0:0:
192,192,262275,1,0,0:0:0:0:
320,192,262350,1,0,0:0:0:0:
448,192,262425,1,0,0:0:0:0:
320,192,262500,1,0,0:0:0:0:
64,192,262500,1,0,0:0:0:0:
192,192,262575,1,0,0:0:0:0:
320,192,262650,1,0,0:0:0:0:
448,192,262725,1,0,0:0:0:0:
320,192,262800,1,0,0:0:0:0:
64,192,262800,1,0,0:0:0:0:
192,192,262875,1,0,0:0:0:0:
320,192,262950,1,0,0:0:0:0:
448,192,263025,1,0,0:0:0:0:
64,192,263100,1,0,0:0:0:0:
320,192,263100,1,0,0:0:0:0:
192,192,263175,1,0,0:0:0:0:
320,192,263250,1,0,0:0:0:0:
448,192,263325,1,0,0:0:0:0:
320,192,263400,1,0,0:0:0:0:
64,192,263400,1,0,0:0:0:0:
192,192,263475,1,0,0:0:0:0:
320,192,263550,1,0,0:0:0:0:
448,192,263625,1,0,0:0:0:0:
320,192,263700,1,0,0:0:0:0:
64,192,263700,1,0,0:0:0:0:
192,192,263775,1,0,0:0:0:0:
320,192,263850,1,0,0:0:0:0:
448,192,263925,1,0,0:0:0:0:
320,192,264000,1,0,0:0:0:0:
64,192,264000,1,0,0:0:0:0:
192,192,264075,1,0,0:0:0:0:
320,192,264150,1,0,0:0:0:0:
448,192,264225,1,0,0:0:0:0:
320,192,264300,1,0,0:0:0:0:
64,192,264300,1,0,0:0:0:0:
192,192,264375,1,0,0:0:0:0:
320,192,264450,1,0,0:0:0:0:
448,192,264525,1,0,0:0:0:0:
320,192,264600,1,0,0:0:0:0:
64,192,264600,1,0,0:0:0:0:
192,192,264675,1,0,0:0:0:0:
320,192,264750,1,0,0:0:0:0:
448,192,264825,1,0,0:0:0:0:
320,192,264900,1,0,0:0:0:0:
64,192,264900,1,0,0:0:0:0:
192,192,264975,1,0,0:0:0:0:
64,192,265050,1,0,0:0:0:0:
448,192,265125,1,0,0:0:0:0:
192,192,265200,1,0,0:0:0:0:
64,192,265275,1,0,0:0:0:0:
448,192,265350,1,0,0:0:0:0:
320,192,265425,1,0,0:0:0:0:
64,192,265500,1,0,0:0:0:0:
192,192,265575,1,0,0:0:0:0:
448,192,265650,1,0,0:0:0:0:
320,192,265725,1,0,0:0:0:0:
192,192,265800,1,0,0:0:0:0:
64,192,265875,1,0,0:0:0:0:
320,192,265950,1,0,0:0:0:0:
448,192,266025,1,0,0:0:0:0:
192,192,266100,1,0,0:0:0:0:
64,192,266175,1,0,0:0:0:0:
448,192,266250,1,0,0:0:0:0:
320,192,266325,1,0,0:0:0:0:
448,192,266400,1,0,0:0:0:0:
192,192,266400,1,0,0:0:0:0:
320,192,266475,1,0,0:0:0:0:
192,192,266550,1,0,0:0:0:0:
64,192,266625,1,0,0:0:0:0:
448,192,266700,1,0,0:0:0:0:
192,192,266700,1,0,0:0:0:0:
320,192,266775,1,0,0:0:0:0:
192,192,266850,1,0,0:0:0:0:
64,192,266925,1,0,0:0:0:0:
192,192,267000,1,0,0:0:0:0:
448,192,267000,1,0,0:0:0:0:
320,192,267075,1,0,0:0:0:0:
192,192,267150,1,0,0:0:0:0:
64,192,267225,1,0,0:0:0:0:
448,192,267300,1,0,0:0:0:0:
192,192,267300,1,0,0:0:0:0:
320,192,267375,1,0,0:0:0:0:
192,192,267450,1,0,0:0:0:0:
64,192,267525,1,0,0:0:0:0:
448,192,267600,1,0,0:0:0:0:
192,192,267600,1,0,0:0:0:0:
320,192,267675,1,0,0:0:0:0:
192,192,267750,1,0,0:0:0:0:
64,192,267825,1,0,0:0:0:0:
448,192,267900,1,0,0:0:0:0:
192,192,267900,1,0,0:0:0:0:
320,192,267975,1,0,0:0:0:0:
192,192,268050,1,0,0:0:0:0:
64,192,268125,1,0,0:0:0:0:
448,192,268200,1,0,0:0:0:0:
192,192,268200,1,0,0:0:0:0:
320,192,268275,1,0,0:0:0:0:
192,192,268350,1,0,0:0:0:0:
64,192,268425,1,0,0:0:0:0:
448,192,268500,1,0,0:0:0:0:
192,192,268500,1,0,0:0:0:0:
320,192,268575,1,0,0:0:0:0:
192,192,268650,1,0,0:0:0:0:
64,192,268725,1,0,0:0:0:0:
448,192,268800,1,0,0:0:0:0:
192,192,268800,1,0,0:0:0:0:
320,192,268875,1,0,0:0:0:0:
192,192,268950,1,0,0:0:0:0:
64,192,269025,1,0,0:0:0:0:
448,192,269100,1,0,0:0:0:0:
192,192,269100,1,0,0:0:0:0:
320,192,269175,1,0,0:0:0:0:
192,192,269250,1,0,0:0:0:0:
64,192,269325,1,0,0:0:0:0:
448,192,269400,1,0,0:0:0:0:
192,192,269400,1,0,0:0:0:0:
320,192,269475,1,0,0:0:0:0:
192,192,269550,1,0,0:0:0:0:
64,192,269625,1,0,0:0:0:0:
448,192,269700,1,0,0:0:0:0:
192,192,269700,1,0,0:0:0:0:
320,192,269775,1,0,0:0:0:0:
192,192,269850,1,0,0:0:0:0:
448,192,269925,1,0,0:0:0:0:
320,192,270000,1,0,0:0:0:0:
64,192,270075,1,0,0:0:0:0:
320,192,270150,1,0,0:0:0:0:
64,192,270225,1,0,0:0:0:0:
448,192,270300,1,0,0:0:0:0:
192,192,270375,1,0,0:0:0:0:
448,192,270450,1,0,0:0:0:0:
192,192,270525,1,0,0:0:0:0:
320,192,270600,1,0,0:0:0:0:
64,192,270675,1,0,0:0:0:0:
320,192,270750,1,0,0:0:0:0:
64,192,270825,1,0,0:0:0:0:
448,192,270900,1,0,0:0:0:0:
192,192,270975,1,0,0:0:0:0:
448,192,271050,1,0,0:0:0:0:
192,192,271125,1,0,0:0:0:0:
448,192,271200,128,0,276000:0:0:0:0:
320,192,271200,1,0,0:0:0:0:
64,192,271200,1,0,0:0:0:0:
64,192,274800,1,0,0:0:0:0:
192,192,274950,1,0,0:0:0:0:
320,192,275100,1,0,0:0:0:0:
320,192,275250,1,0,0:0:0:0:
192,192,275400,1,0,0:0:0:0:
192,192,275550,1,0,0:0:0:0:
64,192,275700,1,0,0:0:0:0:
192,192,275850,1,0,0:0:0:0:
64,192,276000,1,0,0:0:0:0:
320,192,276000,1,0,0:0:0:0:
448,192,276450,1,0,0:0:0:0:
320,192,276450,1,0,0:0:0:0:
192,192,276450,1,0,0:0:0:0:
320,192,276900,1,0,0:0:0:0:
64,192,276900,1,0,0:0:0:0:
192,192,276900,1,0,0:0:0:0:
448,192,277050,1,0,0:0:0:0:
320,192,277200,1,0,0:0:0:0:
64,192,277200,1,0,0:0:0:0:
192,192,277275,1,0,0:0:0:0:
448,192,277350,1,0,0:0:0:0:
320,192,277425,1,0,0:0:0:0:
64,192,277500,1,0,0:0:0:0:
192,192,277575,1,0,0:0:0:0:
448,192,277650,1,0,0:0:0:0:
320,192,277725,1,0,0:0:0:0:
64,192,277800,1,0,0:0:0:0:
192,192,277800,1,0,0:0:0:0:
320,192,277875,1,0,0:0:0:0:
448,192,277950,1,0,0:0:0:0:
64,192,278025,1,0,0:0:0:0:
192,192,278100,1,0,0:0:0:0:
448,192,278175,1,0,0:0:0:0:
320,192,278250,1,0,0:0:0:0:
192,192,278325,1,0,0:0:0:0:
320,192,278400,1,0,0:0:0:0:
448,192,278400,1,0,0:0:0:0:
64,192,278400,1,0,0:0:0:0:
448,192,278850,1,0,0:0:0:0:
320,192,278850,1,0,0:0:0:0:
192,192,278850,1,0,0:0:0:0:
448,192,279300,1,0,0:0:0:0:
64,192,279300,1,0,0:0:0:0:
320,192,279300,1,0,0:0:0:0:
192,192,279450,1,0,0:0:0:0:
448,192,279600,1,0,0:0:0:0:
320,192,279600,1,0,0:0:0:0:
192,192,279675,1,0,0:0:0:0:
64,192,279750,1,0,0:0:0:0:
320,192,279825,1,0,0:0:0:0:
448,192,279900,1,0,0:0:0:0:
192,192,279975,1,0,0:0:0:0:
320,192,280050,1,0,0:0:0:0:
64,192,280125,1,0,0:0:0:0:
448,192,280200,1,0,0:0:0:0:
192,192,280200,1,0,0:0:0:0:
320,192,280275,1,0,0:0:0:0:
192,192,280350,1,0,0:0:0:0:
64,192,280425,1,0,0:0:0:0:
448,192,280500,1,0,0:0:0:0:
320,192,280500,1,0,0:0:0:0:
192,192,280575,1,0,0:0:0:0:
320,192,280650,1,0,0:0:0:0:
64,192,280725,1,0,0:0:0:0:
448,192,280800,1,0,0:0:0:0:
320,192,280800,1,0,0:0:0:0:
192,192,280800,1,0,0:0:0:0:
192,192,281250,1,0,0:0:0:0:
64,192,281250,1,0,0:0:0:0:
320,192,281250,1,0,0:0:0:0:
64,192,281700,1,0,0:0:0:0:
448,192,281700,1,0,0:0:0:0:
320,192,281700,1,0,0:0:0:0:
192,192,281850,1,0,0:0:0:0:
64,192,282000,1,0,0:0:0:0:
448,192,282000,1,0,0:0:0:0:
192,192,282075,1,0,0:0:0:0:
320,192,282150,1,0,0:0:0:0:
64,192,282225,1,0,0:0:0:0:
192,192,282300,1,0,0:0:0:0:
448,192,282375,1,0,0:0:0:0:
320,192,282450,1,0,0:0:0:0:
192,192,282525,1,0,0:0:0:0:
448,192,282600,1,0,0:0:0:0:
64,192,282600,1,0,0:0:0:0:
320,192,282675,1,0,0:0:0:0:
64,192,282750,1,0,0:0:0:0:
192,192,282825,1,0,0:0:0:0:
320,192,282900,1,0,0:0:0:0:
64,192,282975,1,0,0:0:0:0:
192,192,283050,1,0,0:0:0:0:
448,192,283125,1,0,0:0:0:0:
64,192,283200,1,0,0:0:0:0:
192,192,283200,1,0,0:0:0:0:
320,192,283200,1,0,0:0:0:0:
192,192,283650,1,0,0:0:0:0:
320,192,283650,1,0,0:0:0:0:
448,192,283650,1,0,0:0:0:0:
64,192,284100,1,0,0:0:0:0:
192,192,284100,1,0,0:0:0:0:
320,192,284100,1,0,0:0:0:0:
448,192,284250,1,0,0:0:0:0:
320,192,284400,1,0,0:0:0:0:
64,192,284400,1,0,0:0:0:0:
448,192,284550,1,0,0:0:0:0:
320,192,284625,1,0,0:0:0:0:
192,192,284700,1,0,0:0:0:0:
64,192,284700,1,0,0:0:0:0:
448,192,284850,1,0,0:0:0:0:
320,192,284925,1,0,0:0:0:0:
192,192,285000,1,0,0:0:0:0:
64,192,285000,1,0,0:0:0:0:
448,192,285150,1,0,0:0:0:0:
320,192,285225,1,0,0:0:0:0:
192,192,285300,1,0,0:0:0:0:
64,192,285300,1,0,0:0:0:0:
448,192,285450,1,0,0:0:0:0:
320,192,285525,1,0,0:0:0:0:
448,192,285600,1,0,0:0:0:0:
192,192,285600,1,0,0:0:0:0:
64,192,285600,1,0,0:0:0:0:
320,192,285675,1,0,0:0:0:0:
192,192,285750,1,0,0:0:0:0:
448,192,285825,1,0,0:0:0:0:
320,192,285900,1,0,0:0:0:0:
64,192,285900,1,0,0:0:0:0:
192,192,285975,1,0,0:0:0:0:
320,192,286050,1,0,0:0:0:0:
448,192,286125,1,0,0:0:0:0:
192,192,286200,1,0,0:0:0:0:
64,192,286200,1,0,0:0:0:0:
448,192,286275,1,0,0:0:0:0:
320,192,286350,1,0,0:0:0:0:
192,192,286425,1,0,0:0:0:0:
320,192,286500,1,0,0:0:0:0:
64,192,286500,1,0,0:0:0:0:
448,192,286575,1,0,0:0:0:0:
192,192,286650,1,0,0:0:0:0:
320,192,286725,1,0,0:0:0:0:
448,192,286800,1,0,0:0:0:0:
64,192,286800,1,0,0:0:0:0:
64,192,287100,1,0,0:0:0:0:
64,192,287400,1,0,0:0:0:0:
192,192,287550,1,0,0:0:0:0:
320,192,287700,1,0,0:0:0:0:
320,192,288000,1,0,0:0:0:0:
320,192,288150,1,0,0:0:0:0:
192,192,288300,1,0,0:0:0:0:
64,192,288450,1,0,0:0:0:0:
64,192,288600,1,0,0:0:0:0:
64,192,288900,1,0,0:0:0:0:
320,192,289050,1,0,0:0:0:0:
192,192,289200,1,0,0:0:0:0:
448,192,289500,1,0,0:0:0:0:
320,192,289800,1,0,0:0:0:0:
192,192,289950,1,0,0:0:0:0:
320,192,290100,1,0,0:0:0:0:
192,192,290250,1,0,0:0:0:0:
64,192,290400,1,0,0:0:0:0:
64,192,290550,1,0,0:0:0:0:
320,192,290700,1,0,0:0:0:0:
64,192,290850,1,0,0:0:0:0:
64,192,291000,1,0,0:0:0:0:
192,192,291300,1,0,0:0:0:0:
320,192,291450,1,0,0:0:0:0:
192,192,291600,1,0,0:0:0:0:
64,192,291600,1,0,0:0:0:0:
448,192,291600,1,0,0:0:0:0:
192,192,291900,1,0,0:0:0:0:
448,192,292200,1,0,0:0:0:0:
320,192,292350,1,0,0:0:0:0:
192,192,292500,1,0,0:0:0:0:
64,192,292650,1,0,0:0:0:0:
320,192,292800,1,0,0:0:0:0:
320,192,292950,1,0,0:0:0:0:
192,192,293100,1,0,0:0:0:0:
320,192,293250,1,0,0:0:0:0:
320,192,293400,1,0,0:0:0:0:
64,192,293700,1,0,0:0:0:0:
192,192,293850,1,0,0:0:0:0:
320,192,294000,1,0,0:0:0:0:
320,192,294300,1,0,0:0:0:0:
320,192,294600,1,0,0:0:0:0:
192,192,294750,1,0,0:0:0:0:
320,192,294900,1,0,0:0:0:0:
448,192,295050,1,0,0:0:0:0:
448,192,295200,1,0,0:0:0:0:
448,192,295350,1,0,0:0:0:0:
192,192,295500,1,0,0:0:0:0:
320,192,295650,1,0,0:0:0:0:
320,192,295800,1,0,0:0:0:0:
64,192,295950,1,0,0:0:0:0:
192,192,296100,1,0,0:0:0:0:
192,192,296250,1,0,0:0:0:0:
64,192,296400,1,0,0:0:0:0:
448,192,296400,1,0,0:0:0:0:
320,192,296400,1,0,0:0:0:0:
192,192,296700,1,0,0:0:0:0:
320,192,297000,1,0,0:0:0:0:
448,192,297150,1,0,0:0:0:0:
192,192,297300,1,0,0:0:0:0:
64,192,297450,1,0,0:0:0:0:
320,192,297600,1,0,0:0:0:0:
320,192,297750,1,0,0:0:0:0:
64,192,297900,1,0,0:0:0:0:
192,192,298050,1,0,0:0:0:0:
192,192,298200,1,0,0:0:0:0:
448,192,298500,1,0,0:0:0:0:
320,192,298650,1,0,0:0:0:0:
64,192,298800,1,0,0:0:0:0:
192,192,299100,1,0,0:0:0:0:
448,192,299400,1,0,0:0:0:0:
320,192,299550,1,0,0:0:0:0:
64,192,299700,1,0,0:0:0:0:
192,192,299850,1,0,0:0:0:0:
64,192,300000,1,0,0:0:0:0:
64,192,300150,1,0,0:0:0:0:
320,192,300300,1,0,0:0:0:0:
192,192,300450,1,0,0:0:0:0:
192,192,300600,1,0,0:0:0:0:
320,192,300900,1,0,0:0:0:0:
192,192,301050,1,0,0:0:0:0:
64,192,301200,1,0,0:0:0:0:
320,192,301200,1,0,0:0:0:0:
448,192,301200,1,0,0:0:0:0:
448,192,301350,1,0,0:0:0:0:
64,192,301350,1,0,0:0:0:0:
192,192,301350,1,0,0:0:0:0:
64,192,301500,1,0,0:0:0:0:
448,192,301500,1,0,0:0:0:0:
320,192,301500,1,0,0:0:0:0:
448,192,301650,1,0,0:0:0:0:
320,192,301650,1,0,0:0:0:0:
192,192,301650,1,0,0:0:0:0:
448,192,301800,1,0,0:0:0:0:
64,192,301800,1,0,0:0:0:0:
192,192,301875,1,0,0:0:0:0:
320,192,301875,1,0,0:0:0:0:
448,192,301950,1,0,0:0:0:0:
64,192,301950,1,0,0:0:0:0:
192,192,302025,1,0,0:0:0:0:
320,192,302025,1,0,0:0:0:0:
448,192,302100,1,0,0:0:0:0:
64,192,302100,1,0,0:0:0:0:
192,192,302175,1,0,0:0:0:0:
320,192,302175,1,0,0:0:0:0:
448,192,302250,1,0,0:0:0:0:
64,192,302250,1,0,0:0:0:0:
192,192,302325,1,0,0:0:0:0:
320,192,302325,1,0,0:0:0:0:
448,192,302400,1,0,0:0:0:0:
64,192,302400,1,0,0:0:0:0:
320,192,302550,1,0,0:0:0:0:
64,192,302550,1,0,0:0:0:0:
192,192,302550,1,0,0:0:0:0:
64,192,302700,1,0,0:0:0:0:
448,192,302700,1,0,0:0:0:0:
192,192,302700,1,0,0:0:0:0:
448,192,302850,1,0,0:0:0:0:
320,192,302850,1,0,0:0:0:0:
192,192,302850,1,0,0:0:0:0:
320,192,303000,1,0,0:0:0:0:
192,192,303000,1,0,0:0:0:0:
448,192,303075,1,0,0:0:0:0:
64,192,303075,1,0,0:0:0:0:
192,192,303150,1,0,0:0:0:0:
320,192,303150,1,0,0:0:0:0:
448,192,303225,1,0,0:0:0:0:
64,192,303225,1,0,0:0:0:0:
192,192,303300,1,0,0:0:0:0:
320,192,303300,1,0,0:0:0:0:
448,192,303375,1,0,0:0:0:0:
64,192,303375,1,0,0:0:0:0:
192,192,303450,1,0,0:0:0:0:
320,192,303450,1,0,0:0:0:0:
448,192,303525,1,0,0:0:0:0:
64,192,303525,1,0,0:0:0:0:
192,192,303600,1,0,0:0:0:0:
320,192,303600,1,0,0:0:0:0:
192,192,303750,1,0,0:0:0:0:
64,192,303750,1,0,0:0:0:0:
320,192,303825,1,0,0:0:0:0:
448,192,303825,1,0,0:0:0:0:
192,192,303900,1,0,0:0:0:0:
64,192,303900,1,0,0:0:0:0:
320,192,304050,1,0,0:0:0:0:
448,192,304050,1,0,0:0:0:0:
64,192,304125,1,0,0:0:0:0:
192,192,304125,1,0,0:0:0:0:
448,192,304200,1,0,0:0:0:0:
320,192,304200,1,0,0:0:0:0:
64,192,304350,1,0,0:0:0:0:
192,192,304350,1,0,0:0:0:0:
320,192,304425,1,0,0:0:0:0:
448,192,304425,1,0,0:0:0:0:
64,192,304500,1,0,0:0:0:0:
192,192,304500,1,0,0:0:0:0:
320,192,304650,1,0,0:0:0:0:
448,192,304650,1,0,0:0:0:0:
64,192,304725,1,0,0:0:0:0:
192,192,304725,1,0,0:0:0:0:
320,192,304800,1,0,0:0:0:0:
448,192,304800,1,0,0:0:0:0:
192,192,304950,1,0,0:0:0:0:
448,192,305100,1,0,0:0:0:0:
64,192,305250,1,0,0:0:0:0:
64,192,305400,1,0,0:0:0:0:
64,192,306900,1,0,0:0:0:0:
192,192,306937,1,0,0:0:0:0:
320,192,306975,1,0,0:0:0:0:
448,192,307012,1,0,0:0:0:0:
64,192,307050,1,0,0:0:0:0:
192,192,307087,1,0,0:0:0:0:
320,192,307125,1,0,0:0:0:0:
448,192,307162,1,0,0:0:0:0:
192,192,307200,1,0,0:0:0:0:
64,192,307200,1,0,0:0:0:0:
64,192,307425,1,0,0:0:0:0:
448,192,307500,1,0,0:0:0:0:
192,192,307500,1,0,0:0:0:0:
320,192,307575,1,0,0:0:0:0:
64,192,307650,1,0,0:0:0:0:
192,192,307650,1,0,0:0:0:0:
448,192,307725,1,0,0:0:0:0:
64,192,307800,1,0,0:0:0:0:
320,192,307800,1,0,0:0:0:0:
192,192,307875,1,0,0:0:0:0:
448,192,307950,1,0,0:0:0:0:
320,192,307950,1,0,0:0:0:0:
64,192,308025,1,0,0:0:0:0:
448,192,308100,1,0,0:0:0:0:
192,192,308100,1,0,0:0:0:0:
320,192,308175,1,0,0:0:0:0:
64,192,308250,1,0,0:0:0:0:
192,192,308250,1,0,0:0:0:0:
320,192,308325,1,0,0:0:0:0:
64,192,308400,1,0,0:0:0:0:
448,192,308400,1,0,0:0:0:0:
192,192,308475,1,0,0:0:0:0:
448,192,308550,1,0,0:0:0:0:
320,192,308550,1,0,0:0:0:0:
64,192,308625,1,0,0:0:0:0:
448,192,308700,1,0,0:0:0:0:
192,192,308700,1,0,0:0:0:0:
320,192,308775,1,0,0:0:0:0:
64,192,308850,1,0,0:0:0:0:
192,192,308850,1,0,0:0:0:0:
320,192,308925,1,0,0:0:0:0:
192,192,309000,1,0,0:0:0:0:
448,192,309000,128,0,309225:0:0:0:0:
64,192,309075,1,0,0:0:0:0:
320,192,309150,1,0,0:0:0:0:
192,192,309225,1,0,0:0:0:0:
64,192,309300,1,0,0:0:0:0:
320,192,309300,1,0,0:0:0:0:
448,192,309300,1,0,0:0:0:0:
192,192,309375,1,0,0:0:0:0:
320,192,309450,1,0,0:0:0:0:
64,192,309525,1,0,0:0:0:0:
448,192,309525,1,0,0:0:0:0:
320,192,309600,1,0,0:0:0:0:
192,192,309600,1,0,0:0:0:0:
448,192,309675,1,0,0:0:0:0:
192,192,309750,1,0,0:0:0:0:
64,192,309750,1,0,0:0:0:0:
320,192,309825,1,0,0:0:0:0:
64,192,309900,1,0,0:0:0:0:
192,192,309900,1,0,0:0:0:0:
448,192,309975,1,0,0:0:0:0:
64,192,310050,1,0,0:0:0:0:
320,192,310050,1,0,0:0:0:0:
192,192,310125,1,0,0:0:0:0:
448,192,310200,1,0,0:0:0:0:
320,192,310200,1,0,0:0:0:0:
64,192,310275,1,0,0:0:0:0:
320,192,310350,1,0,0:0:0:0:
192,192,310350,1,0,0:0:0:0:
448,192,310425,1,0,0:0:0:0:
64,192,310500,1,0,0:0:0:0:
320,192,310500,1,0,0:0:0:0:
192,192,310575,1,0,0:0:0:0:
448,192,310650,1,0,0:0:0:0:
320,192,310650,1,0,0:0:0:0:
64,192,310725,1,0,0:0:0:0:
192,192,310800,1,0,0:0:0:0:
448,192,310800,1,0,0:0:0:0:
320,192,310875,1,0,0:0:0:0:
64,192,310950,1,0,0:0:0:0:
448,192,310950,1,0,0:0:0:0:
192,192,311025,1,0,0:0:0:0:
64,192,311100,1,0,0:0:0:0:
448,192,311100,1,0,0:0:0:0:
320,192,311175,1,0,0:0:0:0:
192,192,311250,1,0,0:0:0:0:
448,192,311250,1,0,0:0:0:0:
64,192,311325,1,0,0:0:0:0:
192,192,311400,1,0,0:0:0:0:
448,192,311400,1,0,0:0:0:0:
320,192,311475,1,0,0:0:0:0:
64,192,311550,1,0,0:0:0:0:
448,192,311550,1,0,0:0:0:0:
192,192,311625,1,0,0:0:0:0:
320,192,311700,1,0,0:0:0:0:
448,192,311700,1,0,0:0:0:0:
64,192,311775,1,0,0:0:0:0:
192,192,311850,1,0,0:0:0:0:
320,192,311925,1,0,0:0:0:0:
192,192,312000,1,0,0:0:0:0:
64,192,312000,1,0,0:0:0:0:
448,192,312000,1,0,0:0:0:0:
320,192,312075,1,0,0:0:0:0:
64,192,312150,1,0,0:0:0:0:
448,192,312150,1,0,0:0:0:0:
192,192,312225,1,0,0:0:0:0:
448,192,312300,1,0,0:0:0:0:
320,192,312300,1,0,0:0:0:0:
192,192,312375,1,0,0:0:0:0:
320,192,312450,1,0,0:0:0:0:
64,192,312450,1,0,0:0:0:0:
448,192,312525,1,0,0:0:0:0:
192,192,312600,1,0,0:0:0:0:
64,192,312600,1,0,0:0:0:0:
320,192,312675,1,0,0:0:0:0:
64,192,312750,1,0,0:0:0:0:
448,192,312750,1,0,0:0:0:0:
192,192,312825,1,0,0:0:0:0:
64,192,312900,1,0,0:0:0:0:
320,192,312900,1,0,0:0:0:0:
192,192,312975,1,0,0:0:0:0:
448,192,313050,1,0,0:0:0:0:
320,192,313050,1,0,0:0:0:0:
192,192,313125,1,0,0:0:0:0:
320,192,313200,1,0,0:0:0:0:
64,192,313200,1,0,0:0:0:0:
448,192,313275,1,0,0:0:0:0:
192,192,313350,1,0,0:0:0:0:
64,192,313350,1,0,0:0:0:0:
320,192,313425,1,0,0:0:0:0:
64,192,313500,1,0,0:0:0:0:
448,192,313500,1,0,0:0:0:0:
192,192,313575,1,0,0:0:0:0:
320,192,313650,1,0,0:0:0:0:
64,192,313650,1,0,0:0:0:0:
192,192,313725,1,0,0:0:0:0:
320,192,313800,1,0,0:0:0:0:
64,192,313800,128,0,314025:0:0:0:0:
448,192,313875,1,0,0:0:0:0:
192,192,313950,1,0,0:0:0:0:
320,192,314025,1,0,0:0:0:0:
448,192,314100,1,0,0:0:0:0:
64,192,314100,1,0,0:0:0:0:
192,192,314100,1,0,0:0:0:0:
320,192,314175,1,0,0:0:0:0:
64,192,314250,1,0,0:0:0:0:
192,192,314250,1,0,0:0:0:0:
320,192,314325,1,0,0:0:0:0:
64,192,314400,1,0,0:0:0:0:
448,192,314400,1,0,0:0:0:0:
192,192,314475,1,0,0:0:0:0:
448,192,314550,1,0,0:0:0:0:
320,192,314550,1,0,0:0:0:0:
192,192,314625,1,0,0:0:0:0:
320,192,314700,1,0,0:0:0:0:
64,192,314700,1,0,0:0:0:0:
192,192,314775,1,0,0:0:0:0:
320,192,314850,1,0,0:0:0:0:
448,192,314850,1,0,0:0:0:0:
64,192,314925,1,0,0:0:0:0:
320,192,315000,1,0,0:0:0:0:
192,192,315000,1,0,0:0:0:0:
448,192,315075,1,0,0:0:0:0:
320,192,315150,1,0,0:0:0:0:
64,192,315150,1,0,0:0:0:0:
192,192,315225,1,0,0:0:0:0:
448,192,315300,1,0,0:0:0:0:
64,192,315300,1,0,0:0:0:0:
320,192,315375,1,0,0:0:0:0:
64,192,315450,1,0,0:0:0:0:
192,192,315450,1,0,0:0:0:0:
320,192,315525,1,0,0:0:0:0:
64,192,315600,1,0,0:0:0:0:
448,192,315600,1,0,0:0:0:0:
192,192,315600,1,0,0:0:0:0:
192,192,315750,1,0,0:0:0:0:
320,192,315750,1,0,0:0:0:0:
448,192,315750,1,0,0:0:0:0:
192,192,315900,1,0,0:0:0:0:
64,192,315900,1,0,0:0:0:0:
320,192,315975,1,0,0:0:0:0:
448,192,315975,1,0,0:0:0:0:
64,192,316050,1,0,0:0:0:0:
192,192,316050,1,0,0:0:0:0:
64,192,316200,1,0,0:0:0:0:
192,192,316200,1,0,0:0:0:0:
320,192,316200,1,0,0:0:0:0:
64,192,316350,1,0,0:0:0:0:
320,192,316350,1,0,0:0:0:0:
192,192,316350,1,0,0:0:0:0:
64,192,316500,1,0,0:0:0:0:
192,192,316500,1,0,0:0:0:0:
320,192,316500,1,0,0:0:0:0:
64,192,316800,1,0,0:0:0:0:
320,192,316800,1,0,0:0:0:0:
448,192,316800,1,0,0:0:0:0:
192,192,316875,1,0,0:0:0:0:
448,192,316950,1,0,0:0:0:0:
64,192,316950,1,0,0:0:0:0:
320,192,317025,1,0,0:0:0:0:
192,192,317100,1,0,0:0:0:0:
64,192,317100,1,0,0:0:0:0:
448,192,317175,1,0,0:0:0:0:
64,192,317250,1,0,0:0:0:0:
320,192,317250,1,0,0:0:0:0:
192,192,317325,1,0,0:0:0:0:
448,192,317400,1,0,0:0:0:0:
320,192,317400,1,0,0:0:0:0:
64,192,317475,1,0,0:0:0:0:
192,192,317550,1,0,0:0:0:0:
320,192,317550,1,0,0:0:0:0:
448,192,317625,1,0,0:0:0:0:
64,192,317700,1,0,0:0:0:0:
320,192,317700,1,0,0:0:0:0:
192,192,317775,1,0,0:0:0:0:
320,192,317850,1,0,0:0:0:0:
448,192,317850,1,0,0:0:0:0:
64,192,317925,128,0,318000:0:0:0:0:
448,192,318000,128,0,318150:0:0:0:0:
320,192,318000,128,0,318150:0:0:0:0:
192,192,318000,128,0,318150:0:0:0:0:
64,192,318150,128,0,318225:0:0:0:0:
448,192,318225,128,0,318375:0:0:0:0:
320,192,318225,128,0,318375:0:0:0:0:
192,192,318225,128,0,318375:0:0:0:0:
64,192,318375,128,0,318450:0:0:0:0:
448,192,318450,128,0,318600:0:0:0:0:
320,192,318450,128,0,318600:0:0:0:0:
192,192,318450,128,0,318600:0:0:0:0:
64,192,318600,128,0,318675:0:0:0:0:
448,192,318675,128,0,318825:0:0:0:0:
320,192,318675,128,0,318825:0:0:0:0:
192,192,318675,128,0,318825:0:0:0:0:
64,192,318825,128,0,318900:0:0:0:0:
192,192,318900,1,0,0:0:0:0:
448,192,318900,1,0,0:0:0:0:
320,192,318900,1,0,0:0:0:0:
64,192,318975,1,0,0:0:0:0:
448,192,319050,1,0,0:0:0:0:
192,192,319050,1,0,0:0:0:0:
320,192,319125,1,0,0:0:0:0:
64,192,319200,1,0,0:0:0:0:
192,192,319200,1,0,0:0:0:0:
320,192,319275,1,0,0:0:0:0:
64,192,319350,1,0,0:0:0:0:
448,192,319350,1,0,0:0:0:0:
192,192,319425,1,0,0:0:0:0:
320,192,319500,1,0,0:0:0:0:
64,192,319500,1,0,0:0:0:0:
448,192,319575,1,0,0:0:0:0:
64,192,319650,1,0,0:0:0:0:
192,192,319650,1,0,0:0:0:0:
320,192,319725,1,0,0:0:0:0:
64,192,319800,1,0,0:0:0:0:
448,192,319800,1,0,0:0:0:0:
192,192,319875,1,0,0:0:0:0:
448,192,319950,1,0,0:0:0:0:
320,192,319950,1,0,0:0:0:0:
64,192,320025,1,0,0:0:0:0:
448,192,320100,1,0,0:0:0:0:
192,192,320100,1,0,0:0:0:0:
64,192,320175,1,0,0:0:0:0:
448,192,320250,1,0,0:0:0:0:
320,192,320250,1,0,0:0:0:0:
192,192,320325,1,0,0:0:0:0:
448,192,320400,1,0,0:0:0:0:
64,192,320400,1,0,0:0:0:0:
320,192,320475,1,0,0:0:0:0:
448,192,320550,1,0,0:0:0:0:
64,192,320550,1,0,0:0:0:0:
192,192,320625,1,0,0:0:0:0:
448,192,320700,1,0,0:0:0:0:
320,192,320700,1,0,0:0:0:0:
64,192,320775,1,0,0:0:0:0:
448,192,320850,1,0,0:0:0:0:
192,192,320850,1,0,0:0:0:0:
320,192,320925,1,0,0:0:0:0:
192,192,321000,1,0,0:0:0:0:
448,192,321000,128,0,321225:0:0:0:0:
64,192,321075,1,0,0:0:0:0:
320,192,321150,1,0,0:0:0:0:
192,192,321225,1,0,0:0:0:0:
64,192,321300,1,0,0:0:0:0:
320,192,321300,1,0,0:0:0:0:
448,192,321300,1,0,0:0:0:0:
192,192,321375,1,0,0:0:0:0:
320,192,321450,1,0,0:0:0:0:
448,192,321525,1,0,0:0:0:0:
320,192,321600,1,0,0:0:0:0:
192,192,321600,1,0,0:0:0:0:
64,192,321600,1,0,0:0:0:0:
448,192,321675,1,0,0:0:0:0:
64,192,321750,1,0,0:0:0:0:
192,192,321750,1,0,0:0:0:0:
320,192,321825,1,0,0:0:0:0:
448,192,321900,1,0,0:0:0:0:
192,192,321900,1,0,0:0:0:0:
64,192,321975,1,0,0:0:0:0:
448,192,322050,1,0,0:0:0:0:
320,192,322050,1,0,0:0:0:0:
192,192,322125,1,0,0:0:0:0:
320,192,322200,1,0,0:0:0:0:
64,192,322275,1,0,0:0:0:0:
448,192,322275,1,0,0:0:0:0:
320,192,322350,1,0,0:0:0:0:
192,192,322350,1,0,0:0:0:0:
64,192,322425,1,0,0:0:0:0:
448,192,322500,1,0,0:0:0:0:
320,192,322500,1,0,0:0:0:0:
192,192,322575,1,0,0:0:0:0:
448,192,322650,1,0,0:0:0:0:
64,192,322650,1,0,0:0:0:0:
320,192,322725,1,0,0:0:0:0:
64,192,322800,1,0,0:0:0:0:
192,192,322800,1,0,0:0:0:0:
320,192,322875,1,0,0:0:0:0:
64,192,322950,1,0,0:0:0:0:
448,192,322950,1,0,0:0:0:0:
320,192,323025,1,0,0:0:0:0:
64,192,323100,1,0,0:0:0:0:
192,192,323100,1,0,0:0:0:0:
320,192,323175,1,0,0:0:0:0:
448,192,323250,1,0,0:0:0:0:
64,192,323250,1,0,0:0:0:0:
192,192,323325,1,0,0:0:0:0:
320,192,323400,1,0,0:0:0:0:
64,192,323400,128,0,323625:0:0:0:0:
448,192,323475,1,0,0:0:0:0:
192,192,323550,1,0,0:0:0:0:
320,192,323625,1,0,0:0:0:0:
448,192,323700,1,0,0:0:0:0:
192,192,323700,1,0,0:0:0:0:
64,192,323700,1,0,0:0:0:0:
320,192,323775,1,0,0:0:0:0:
192,192,323850,1,0,0:0:0:0:
64,192,323925,1,0,0:0:0:0:
192,192,324000,1,0,0:0:0:0:
320,192,324000,1,0,0:0:0:0:
448,192,324000,1,0,0:0:0:0:
64,192,324150,1,0,0:0:0:0:
192,192,324150,1,0,0:0:0:0:
320,192,324150,1,0,0:0:0:0:
64,192,324300,1,0,0:0:0:0:
448,192,324300,1,0,0:0:0:0:
320,192,324300,1,0,0:0:0:0:
448,192,324450,1,0,0:0:0:0:
320,192,324450,1,0,0:0:0:0:
192,192,324450,1,0,0:0:0:0:
64,192,324600,1,0,0:0:0:0:
192,192,324600,1,0,0:0:0:0:
320,192,324675,1,0,0:0:0:0:
448,192,324675,1,0,0:0:0:0:
64,192,324750,1,0,0:0:0:0:
192,192,324750,1,0,0:0:0:0:
320,192,324825,1,0,0:0:0:0:
448,192,324825,1,0,0:0:0:0:
64,192,324900,1,0,0:0:0:0:
192,192,324900,1,0,0:0:0:0:
320,192,324975,1,0,0:0:0:0:
448,192,324975,1,0,0:0:0:0:
64,192,325050,1,0,0:0:0:0:
192,192,325050,1,0,0:0:0:0:
320,192,325125,1,0,0:0:0:0:
448,192,325125,1,0,0:0:0:0:
64,192,325200,1,0,0:0:0:0:
192,192,325200,1,0,0:0:0:0:
448,192,325350,1,0,0:0:0:0:
320,192,325350,1,0,0:0:0:0:
192,192,325350,1,0,0:0:0:0:
192,192,325500,1,0,0:0:0:0:
64,192,325500,1,0,0:0:0:0:
320,192,325575,1,0,0:0:0:0:
448,192,325575,1,0,0:0:0:0:
64,192,325650,1,0,0:0:0:0:
192,192,325650,1,0,0:0:0:0:
320,192,325725,1,0,0:0:0:0:
448,192,325725,1,0,0:0:0:0:
64,192,325800,1,0,0:0:0:0:
192,192,325800,1,0,0:0:0:0:
192,192,325950,1,0,0:0:0:0:
320,192,325950,1,0,0:0:0:0:
448,192,325950,1,0,0:0:0:0:
64,192,326100,1,0,0:0:0:0:
192,192,326100,1,0,0:0:0:0:
320,192,326100,1,0,0:0:0:0:
64,192,326400,1,0,0:0:0:0:
320,192,326400,1,0,0:0:0:0:
448,192,326400,1,0,0:0:0:0:
192,192,326475,1,0,0:0:0:0:
448,192,326550,1,0,0:0:0:0:
320,192,326550,1,0,0:0:0:0:
64,192,326625,1,0,0:0:0:0:
448,192,326700,1,0,0:0:0:0:
192,192,326700,1,0,0:0:0:0:
320,192,326775,1,0,0:0:0:0:
64,192,326850,1,0,0:0:0:0:
192,192,326850,1,0,0:0:0:0:
448,192,326925,1,0,0:0:0:0:
64,192,327000,1,0,0:0:0:0:
320,192,327000,1,0,0:0:0:0:
192,192,327075,1,0,0:0:0:0:
448,192,327150,1,0,0:0:0:0:
320,192,327150,1,0,0:0:0:0:
64,192,327225,1,0,0:0:0:0:
448,192,327300,1,0,0:0:0:0:
192,192,327300,1,0,0:0:0:0:
320,192,327375,1,0,0:0:0:0:
64,192,327450,1,0,0:0:0:0:
192,192,327450,1,0,0:0:0:0:
320,192,327525,1,0,0:0:0:0:
64,192,327600,1,0,0:0:0:0:
448,192,327600,1,0,0:0:0:0:
192,192,327675,1,0,0:0:0:0:
448,192,327750,1,0,0:0:0:0:
320,192,327750,1,0,0:0:0:0:
64,192,327825,1,0,0:0:0:0:
448,192,327900,1,0,0:0:0:0:
192,192,327900,1,0,0:0:0:0:
320,192,327975,1,0,0:0:0:0:
64,192,328050,1,0,0:0:0:0:
192,192,328050,1,0,0:0:0:0:
320,192,328125,1,0,0:0:0:0:
192,192,328200,1,0,0:0:0:0:
448,192,328200,128,0,328425:0:0:0:0:
64,192,328275,1,0,0:0:0:0:
320,192,328350,1,0,0:0:0:0:
192,192,328425,1,0,0:0:0:0:
64,192,328500,1,0,0:0:0:0:
320,192,328500,1,0,0:0:0:0:
448,192,328500,1,0,0:0:0:0:
192,192,328575,1,0,0:0:0:0:
320,192,328650,1,0,0:0:0:0:
64,192,328725,1,0,0:0:0:0:
448,192,328725,1,0,0:0:0:0:
320,192,328800,1,0,0:0:0:0:
192,192,328800,1,0,0:0:0:0:
448,192,328875,1,0,0:0:0:0:
192,192,328950,1,0,0:0:0:0:
64,192,328950,1,0,0:0:0:0:
320,192,329025,1,0,0:0:0:0:
64,192,329100,1,0,0:0:0:0:
192,192,329100,1,0,0:0:0:0:
448,192,329175,1,0,0:0:0:0:
64,192,329250,1,0,0:0:0:0:
320,192,329250,1,0,0:0:0:0:
192,192,329325,1,0,0:0:0:0:
448,192,329400,1,0,0:0:0:0:
320,192,329400,1,0,0:0:0:0:
64,192,329475,1,0,0:0:0:0:
320,192,329550,1,0,0:0:0:0:
192,192,329550,1,0,0:0:0:0:
448,192,329625,1,0,0:0:0:0:
64,192,329700,1,0,0:0:0:0:
320,192,329700,1,0,0:0:0:0:
192,192,329775,1,0,0:0:0:0:
448,192,329850,1,0,0:0:0:0:
320,192,329850,1,0,0:0:0:0:
64,192,329925,1,0,0:0:0:0:
192,192,330000,1,0,0:0:0:0:
448,192,330000,1,0,0:0:0:0:
320,192,330075,1,0,0:0:0:0:
64,192,330150,1,0,0:0:0:0:
448,192,330150,1,0,0:0:0:0:
192,192,330225,1,0,0:0:0:0:
64,192,330300,1,0,0:0:0:0:
448,192,330300,1,0,0:0:0:0:
320,192,330375,1,0,0:0:0:0:
192,192,330450,1,0,0:0:0:0:
448,192,330450,1,0,0:0:0:0:
64,192,330525,1,0,0:0:0:0:
192,192,330600,1,0,0:0:0:0:
448,192,330600,1,0,0:0:0:0:
320,192,330675,1,0,0:0:0:0:
64,192,330750,1,0,0:0:0:0:
448,192,330750,1,0,0:0:0:0:
192,192,330825,1,0,0:0:0:0:
320,192,330900,1,0,0:0:0:0:
448,192,330900,1,0,0:0:0:0:
64,192,330975,1,0,0:0:0:0:
192,192,331050,1,0,0:0:0:0:
320,192,331125,1,0,0:0:0:0:
192,192,331200,1,0,0:0:0:0:
64,192,331200,1,0,0:0:0:0:
448,192,331200,1,0,0:0:0:0:
320,192,331275,1,0,0:0:0:0:
64,192,331350,1,0,0:0:0:0:
448,192,331350,1,0,0:0:0:0:
192,192,331425,1,0,0:0:0:0:
448,192,331500,1,0,0:0:0:0:
320,192,331500,1,0,0:0:0:0:
192,192,331575,1,0,0:0:0:0:
320,192,331650,1,0,0:0:0:0:
64,192,331650,1,0,0:0:0:0:
448,192,331725,1,0,0:0:0:0:
192,192,331800,1,0,0:0:0:0:
64,192,331800,1,0,0:0:0:0:
320,192,331875,1,0,0:0:0:0:
64,192,331950,1,0,0:0:0:0:
448,192,331950,1,0,0:0:0:0:
192,192,332025,1,0,0:0:0:0:
64,192,332100,1,0,0:0:0:0:
320,192,332100,1,0,0:0:0:0:
192,192,332175,1,0,0:0:0:0:
448,192,332250,1,0,0:0:0:0:
320,192,332250,1,0,0:0:0:0:
192,192,332325,1,0,0:0:0:0:
320,192,332400,1,0,0:0:0:0:
64,192,332400,1,0,0:0:0:0:
448,192,332475,1,0,0:0:0:0:
192,192,332550,1,0,0:0:0:0:
64,192,332550,1,0,0:0:0:0:
320,192,332625,1,0,0:0:0:0:
64,192,332700,1,0,0:0:0:0:
448,192,332700,1,0,0:0:0:0:
192,192,332775,1,0,0:0:0:0:
320,192,332850,1,0,0:0:0:0:
64,192,332850,1,0,0:0:0:0:
192,192,332925,1,0,0:0:0:0:
320,192,333000,1,0,0:0:0:0:
64,192,333000,128,0,333225:0:0:0:0:
448,192,333075,1,0,0:0:0:0:
192,192,333150,1,0,0:0:0:0:
320,192,333225,1,0,0:0:0:0:
448,192,333300,1,0,0:0:0:0:
64,192,333300,1,0,0:0:0:0:
192,192,333300,1,0,0:0:0:0:
320,192,333375,1,0,0:0:0:0:
64,192,333450,1,0,0:0:0:0:
192,192,333450,1,0,0:0:0:0:
320,192,333525,1,0,0:0:0:0:
64,192,333600,1,0,0:0:0:0:
448,192,333600,1,0,0:0:0:0:
192,192,333675,1,0,0:0:0:0:
448,192,333750,1,0,0:0:0:0:
320,192,333750,1,0,0:0:0:0:
192,192,333825,1,0,0:0:0:0:
320,192,333900,1,0,0:0:0:0:
64,192,333900,1,0,0:0:0:0:
192,192,333975,1,0,0:0:0:0:
320,192,334050,1,0,0:0:0:0:
448,192,334050,1,0,0:0:0:0:
64,192,334125,1,0,0:0:0:0:
320,192,334200,1,0,0:0:0:0:
192,192,334200,1,0,0:0:0:0:
448,192,334275,1,0,0:0:0:0:
320,192,334350,1,0,0:0:0:0:
64,192,334350,1,0,0:0:0:0:
192,192,334425,1,0,0:0:0:0:
448,192,334500,1,0,0:0:0:0:
64,192,334500,1,0,0:0:0:0:
320,192,334575,1,0,0:0:0:0:
64,192,334650,1,0,0:0:0:0:
192,192,334650,1,0,0:0:0:0:
320,192,334725,1,0,0:0:0:0:
64,192,334800,1,0,0:0:0:0:
448,192,334800,1,0,0:0:0:0:
192,192,334800,1,0,0:0:0:0:
192,192,334950,1,0,0:0:0:0:
320,192,334950,1,0,0:0:0:0:
448,192,334950,1,0,0:0:0:0:
192,192,335100,1,0,0:0:0:0:
64,192,335100,1,0,0:0:0:0:
320,192,335175,1,0,0:0:0:0:
448,192,335175,1,0,0:0:0:0:
64,192,335250,1,0,0:0:0:0:
192,192,335250,1,0,0:0:0:0:
64,192,335400,1,0,0:0:0:0:
192,192,335400,1,0,0:0:0:0:
320,192,335400,1,0,0:0:0:0:
64,192,335550,1,0,0:0:0:0:
320,192,335550,1,0,0:0:0:0:
192,192,335550,1,0,0:0:0:0:
64,192,335700,1,0,0:0:0:0:
192,192,335700,1,0,0:0:0:0:
320,192,335700,1,0,0:0:0:0:
64,192,336000,1,0,0:0:0:0:
320,192,336000,1,0,0:0:0:0:
448,192,336000,1,0,0:0:0:0:
192,192,336075,1,0,0:0:0:0:
448,192,336150,1,0,0:0:0:0:
64,192,336150,1,0,0:0:0:0:
320,192,336225,1,0,0:0:0:0:
192,192,336300,1,0,0:0:0:0:
64,192,336300,1,0,0:0:0:0:
448,192,336375,1,0,0:0:0:0:
64,192,336450,1,0,0:0:0:0:
320,192,336450,1,0,0:0:0:0:
192,192,336525,1,0,0:0:0:0:
448,192,336600,1,0,0:0:0:0:
320,192,336600,1,0,0:0:0:0:
64,192,336675,1,0,0:0:0:0:
192,192,336750,1,0,0:0:0:0:
320,192,336750,1,0,0:0:0:0:
448,192,336825,1,0,0:0:0:0:
64,192,336900,1,0,0:0:0:0:
320,192,336900,1,0,0:0:0:0:
192,192,336975,1,0,0:0:0:0:
320,192,337050,1,0,0:0:0:0:
448,192,337050,1,0,0:0:0:0:
64,192,337125,128,0,337200:0:0:0:0:
448,192,337200,128,0,337350:0:0:0:0:
320,192,337200,128,0,337350:0:0:0:0:
192,192,337200,128,0,337350:0:0:0:0:
64,192,337350,128,0,337425:0:0:0:0:
448,192,337425,128,0,337575:0:0:0:0:
320,192,337425,128,0,337575:0:0:0:0:
192,192,337425,128,0,337575:0:0:0:0:
64,192,337575,128,0,337650:0:0:0:0:
448,192,337650,128,0,337800:0:0:0:0:
320,192,337650,128,0,337800:0:0:0:0:
192,192,337650,128,0,337800:0:0:0:0:
64,192,337800,128,0,337875:0:0:0:0:
448,192,337875,128,0,338025:0:0:0:0:
320,192,337875,128,0,338025:0:0:0:0:
192,192,337875,128,0,338025:0:0:0:0:
64,192,338025,128,0,338100:0:0:0:0:
192,192,338100,1,0,0:0:0:0:
448,192,338100,1,0,0:0:0:0:
320,192,338100,1,0,0:0:0:0:
64,192,338175,1,0,0:0:0:0:
448,192,338250,1,0,0:0:0:0:
192,192,338250,1,0,0:0:0:0:
320,192,338325,1,0,0:0:0:0:
64,192,338400,1,0,0:0:0:0:
192,192,338400,1,0,0:0:0:0:
320,192,338475,1,0,0:0:0:0:
64,192,338550,1,0,0:0:0:0:
448,192,338550,1,0,0:0:0:0:
192,192,338625,1,0,0:0:0:0:
320,192,338700,1,0,0:0:0:0:
64,192,338700,1,0,0:0:0:0:
448,192,338775,1,0,0:0:0:0:
64,192,338850,1,0,0:0:0:0:
192,192,338850,1,0,0:0:0:0:
320,192,338925,1,0,0:0:0:0:
64,192,339000,1,0,0:0:0:0:
448,192,339000,1,0,0:0:0:0:
192,192,339075,1,0,0:0:0:0:
448,192,339150,1,0,0:0:0:0:
320,192,339150,1,0,0:0:0:0:
64,192,339225,1,0,0:0:0:0:
448,192,339300,1,0,0:0:0:0:
192,192,339300,1,0,0:0:0:0:
64,192,339375,1,0,0:0:0:0:
448,192,339450,1,0,0:0:0:0:
320,192,339450,1,0,0:0:0:0:
192,192,339525,1,0,0:0:0:0:
448,192,339600,1,0,0:0:0:0:
64,192,339600,1,0,0:0:0:0:
320,192,339675,1,0,0:0:0:0:
448,192,339750,1,0,0:0:0:0:
64,192,339750,1,0,0:0:0:0:
192,192,339825,1,0,0:0:0:0:
448,192,339900,1,0,0:0:0:0:
320,192,339900,1,0,0:0:0:0:
64,192,339975,1,0,0:0:0:0:
448,192,340050,1,0,0:0:0:0:
192,192,340050,1,0,0:0:0:0:
320,192,340125,1,0,0:0:0:0:
192,192,340200,1,0,0:0:0:0:
448,192,340200,128,0,340425:0:0:0:0:
64,192,340275,1,0,0:0:0:0:
320,192,340350,1,0,0:0:0:0:
192,192,340425,1,0,0:0:0:0:
64,192,340500,1,0,0:0:0:0:
320,192,340500,1,0,0:0:0:0:
448,192,340500,1,0,0:0:0:0:
192,192,340575,1,0,0:0:0:0:
320,192,340650,1,0,0:0:0:0:
448,192,340725,1,0,0:0:0:0:
320,192,340800,1,0,0:0:0:0:
192,192,340800,1,0,0:0:0:0:
64,192,340800,1,0,0:0:0:0:
448,192,340875,1,0,0:0:0:0:
64,192,340950,1,0,0:0:0:0:
192,192,340950,1,0,0:0:0:0:
320,192,341025,1,0,0:0:0:0:
448,192,341100,1,0,0:0:0:0:
192,192,341100,1,0,0:0:0:0:
64,192,341175,1,0,0:0:0:0:
448,192,341250,1,0,0:0:0:0:
320,192,341250,1,0,0:0:0:0:
192,192,341325,1,0,0:0:0:0:
320,192,341400,1,0,0:0:0:0:
64,192,341475,1,0,0:0:0:0:
448,192,341475,1,0,0:0:0:0:
320,192,341550,1,0,0:0:0:0:
192,192,341550,1,0,0:0:0:0:
64,192,341625,1,0,0:0:0:0:
448,192,341700,1,0,0:0:0:0:
320,192,341700,1,0,0:0:0:0:
192,192,341775,1,0,0:0:0:0:
448,192,341850,1,0,0:0:0:0:
64,192,341850,1,0,0:0:0:0:
320,192,341925,1,0,0:0:0:0:
64,192,342000,1,0,0:0:0:0:
192,192,342000,1,0,0:0:0:0:
320,192,342075,1,0,0:0:0:0:
64,192,342150,1,0,0:0:0:0:
448,192,342150,1,0,0:0:0:0:
320,192,342225,1,0,0:0:0:0:
64,192,342300,1,0,0:0:0:0:
192,192,342300,1,0,0:0:0:0:
320,192,342375,1,0,0:0:0:0:
448,192,342450,1,0,0:0:0:0:
64,192,342450,1,0,0:0:0:0:
192,192,342525,1,0,0:0:0:0:
320,192,342600,1,0,0:0:0:0:
64,192,342600,128,0,342825:0:0:0:0:
448,192,342675,1,0,0:0:0:0:
192,192,342750,1,0,0:0:0:0:
320,192,342825,1,0,0:0:0:0:
448,192,342900,1,0,0:0:0:0:
192,192,342900,1,0,0:0:0:0:
64,192,342900,1,0,0:0:0:0:
320,192,342975,1,0,0:0:0:0:
192,192,343050,1,0,0:0:0:0:
64,192,343125,1,0,0:0:0:0:
192,192,343200,1,0,0:0:0:0:
320,192,343200,1,0,0:0:0:0:
448,192,343200,1,0,0:0:0:0:
64,192,343350,1,0,0:0:0:0:
192,192,343350,1,0,0:0:0:0:
320,192,343350,1,0,0:0:0:0:
64,192,343500,1,0,0:0:0:0:
448,192,343500,1,0,0:0:0:0:
320,192,343500,1,0,0:0:0:0:
448,192,343650,1,0,0:0:0:0:
320,192,343650,1,0,0:0:0:0:
192,192,343650,1,0,0:0:0:0:
64,192,343800,1,0,0:0:0:0:
192,192,343800,1,0,0:0:0:0:
320,192,343875,1,0,0:0:0:0:
448,192,343875,1,0,0:0:0:0:
64,192,343950,1,0,0:0:0:0:
192,192,343950,1,0,0:0:0:0:
320,192,344025,1,0,0:0:0:0:
448,192,344025,1,0,0:0:0:0:
64,192,344100,1,0,0:0:0:0:
192,192,344100,1,0,0:0:0:0:
320,192,344175,1,0,0:0:0:0:
448,192,344175,1,0,0:0:0:0:
64,192,344250,1,0,0:0:0:0:
192,192,344250,1,0,0:0:0:0:
320,192,344325,1,0,0:0:0:0:
448,192,344325,1,0,0:0:0:0:
64,192,344400,1,0,0:0:0:0:
192,192,344400,1,0,0:0:0:0:
448,192,344550,1,0,0:0:0:0:
320,192,344550,1,0,0:0:0:0:
192,192,344550,1,0,0:0:0:0:
192,192,344700,1,0,0:0:0:0:
64,192,344700,1,0,0:0:0:0:
320,192,344775,1,0,0:0:0:0:
448,192,344775,1,0,0:0:0:0:
64,192,344850,1,0,0:0:0:0:
192,192,344850,1,0,0:0:0:0:
320,192,344925,1,0,0:0:0:0:
448,192,344925,1,0,0:0:0:0:
64,192,345000,1,0,0:0:0:0:
192,192,345000,1,0,0:0:0:0:
192,192,345150,1,0,0:0:0:0:
320,192,345150,1,0,0:0:0:0:
448,192,345150,1,0,0:0:0:0:
64,192,345300,1,0,0:0:0:0:
192,192,345300,1,0,0:0:0:0:
320,192,345300,1,0,0:0:0:0:
64,192,345600,128,0,349200:0:0:0:0:
192,192,345600,128,0,349200:0:0:0:0:
320,192,345600,128,0,349200:0:0:0:0:
448,192,347550,128,0,349200:0:0:0:0:
