osu file format v14

[General]
AudioFilename: audio.mp3
AudioLeadIn: 1500
PreviewTime: 28537
Countdown: 0
SampleSet: Soft
StackLeniency: 0.2
Mode: 0
LetterboxInBreaks: 1
WidescreenStoryboard: 1

[Editor]
Bookmarks: 228,12949,15439,28960,42481,56002,69523,83044,96566,110087,116847,130368,143889,155720,165861
DistanceSpacing: 1.4
BeatDivisor: 4
GridSize: 8
TimelineZoom: 1.6

[Metadata]
Title:Rondo Alla Turca (Ryu* Remix)
TitleUnicode:Rondo Alla Turca (Ryu☆Remix)
Artist:Ryu*
ArtistUnicode:Ryu☆
Creator:-Tynamo
Version:Normal
Source:
Tags:Kischer Marsch AGEHA Streams Turkish March Mozart Sonata electronic instrumental exit tunes
BeatmapID:2825916
BeatmapSetID:1364962

[Difficulty]
HPDrainRate:4
CircleSize:4
OverallDifficulty:5
ApproachRate:5.5
SliderMultiplier:1.24
SliderTickRate:1

[Events]
//Background and Video events
0,0,"green_triangle.png",0,0
//Break Periods
2,110332,115632
//Storyboard Layer 0 (Background)
//Storyboard Layer 1 (Fail)
//Storyboard Layer 2 (Pass)
//Storyboard Layer 3 (Foreground)
//Storyboard Layer 4 (Overlay)
//Storyboard Sound Samples

[TimingPoints]
273,422.535211267606,4,2,1,50,1,0
273,-100,4,2,1,50,0,0
28582,-100,4,2,1,65,0,0
56047,-100,4,2,1,75,0,1
66188,-100,4,2,1,75,0,0
69568,-100,4,2,1,65,0,0
83089,-100,4,2,1,70,0,1
96188,-100,4,2,1,70,0,0
96611,-100,4,2,1,70,0,1
106751,-100,4,2,1,70,0,1
109287,-100,4,2,1,70,0,1
110132,-100,4,2,1,50,0,0
123653,-100,4,2,1,60,0,0
127033,-100,4,2,1,65,0,0
130413,-100,4,2,1,75,0,1
140554,-100,4,2,1,75,0,0
143934,-100,4,2,1,50,0,0

[Colours]
Combo1 : 169,245,164
Combo2 : 56,247,42
Combo3 : 41,181,33
Combo4 : 97,247,88

[HitObjects]
256,192,273,21,12,0:0:0:0:
234,45,1963,22,0,L|177:184,1,124,12|0,3:2|3:2,0:0:0:0:
264,259,2808,2,0,L|320:121,1,124,0|0,3:2|3:2,0:0:0:0:
186,159,3653,2,0,L|129:299,1,124,0|0,3:2|3:2,0:0:0:0:
264,259,4498,2,0,L|394:241,1,124,0|0,3:2|3:2,0:0:0:0:
310,143,5343,2,0,L|233:44,1,124,0|0,3:2|3:2,0:0:0:0:
186,159,6188,2,0,L|262:258,1,124,0|0,3:2|3:2,0:0:0:0:
387,242,7033,2,0,L|309:143,2,124,0|0|0,3:2|3:2|3:0,0:0:0:0:
139,275,8723,54,0,L|186:159,1,124,4|8,3:2|3:1,0:0:0:0:
234,46,9568,2,0,L|311:144,1,124,0|8,3:2|3:1,0:0:0:0:
264,259,10413,2,0,L|134:277,1,124,0|8,3:2|3:1,0:0:0:0:
186,159,11258,2,0,L|309:143,1,124,0|8,3:2|3:1,0:0:0:0:
387,242,12103,2,0,L|257:260,1,124,0|8,3:2|3:1,0:0:0:0:
139,275,12949,2,0,L|186:159,1,124,0|8,3:2|3:1,0:0:0:0:
234,46,13794,1,0,3:2:0:0:
309,143,14216,1,0,3:2:0:0:
387,242,14639,1,0,3:2:0:0:
139,275,15484,22,0,L|186:159,1,124,4|8,3:2|3:1,0:0:0:0:
235,47,16329,2,0,L|312:145,1,124,0|8,3:2|3:1,0:0:0:0:
387,242,17174,1,0,3:2:0:0:
264,259,17596,1,8,3:1:0:0:
188,161,18019,2,0,L|317:143,1,124,0|8,3:2|3:1,0:0:0:0:
265,260,18864,2,0,L|141:277,1,124,0|8,3:2|3:1,0:0:0:0:
189,163,19709,2,0,L|235:47,1,124,0|8,3:2|3:1,0:0:0:0:
311,144,20554,1,4,3:2:0:0:
388,243,20977,1,8,3:1:0:0:
265,260,21399,1,0,3:2:0:0:
141,277,21822,1,8,3:1:0:0:
188,161,22244,54,0,L|321:142,1,124,4|8,3:2|3:1,0:0:0:0:
388,243,23089,2,0,L|265:260,1,124,0|8,3:2|3:1,0:0:0:0:
141,277,23934,2,0,L|188:161,1,124,0|8,3:2|3:1,0:0:0:0:
234,45,24780,2,0,L|310:143,1,124,0|8,3:2|3:1,0:0:0:0:
387,242,25625,1,0,3:2:0:0:
264,259,26047,1,8,3:1:0:0:
140,276,26470,1,0,3:2:0:0:
187,160,26892,1,8,3:1:0:0:
310,143,27315,1,12,3:2:0:0:
141,277,28582,22,0,L|228:264,1,62,2|2,0:0|0:0,0:0:0:0:
264,259,29005,1,10,3:2:0:0:
388,243,29427,54,0,L|345:187,1,62,2|2,3:2|0:0,0:0:0:0:
309,143,29850,1,10,3:2:0:0:
235,47,30273,22,0,L|208:110,1,62,2|2,3:2|0:0,0:0:0:0:
188,163,30695,2,0,B|141:277|141:277|278:257,1,248,10|10,3:2|3:2,0:0:0:0:
388,243,31963,2,0,L|344:185,1,62,0|0,3:0|0:0,0:0:0:0:
311,144,32385,2,0,L|262:264,1,124,10|0,3:2|3:0,0:0:0:0:
141,277,33230,2,0,L|187:160,1,124,10|0,3:2|3:0,0:0:0:0:
235,47,34075,2,0,L|279:105,1,62,10|0,3:2|0:0,0:0:0:0:
311,144,34498,2,0,L|354:202,1,62,0|0,3:0|0:0,0:0:0:0:
388,243,34920,1,8,3:2:0:0:
265,260,35343,54,0,L|197:270,1,62,2|2,3:2|0:0,0:0:0:0:
141,277,35765,1,10,3:2:0:0:
188,163,36188,2,0,L|213:101,1,62,10|2,3:1|0:0,0:0:0:0:
235,47,36610,1,10,3:2:0:0:
311,144,37033,2,0,L|355:197,1,62,10|2,3:1|0:0,0:0:0:0:
387,242,37456,22,0,L|127:279,1,248,10|10,3:2|3:2,0:0:0:0:
188,163,38723,2,0,L|220:83,1,62,8|0,3:1|0:0,0:0:0:0:
235,47,39146,1,10,3:2:0:0:
309,142,39568,1,8,3:1:0:0:
388,243,39991,1,10,3:2:0:0:
265,260,40413,1,8,3:1:0:0:
141,277,40836,2,0,L|192:146,1,124,12|4,3:2|0:0,0:0:0:0:
309,142,41681,1,4,0:0:0:0:
235,47,42103,2,0,L|211:107,1,62,4|0,0:0|0:0,0:0:0:0:
186,160,42526,54,0,L|162:221,1,62,4|0,3:2|0:0,0:0:0:0:
141,277,42949,2,0,L|223:265,1,62,10|2,3:2|0:2,0:0:0:0:
265,260,43371,1,2,3:2:0:0:
309,142,43794,1,8,3:2:0:0:
388,243,44216,22,0,L|306:254,1,62,0|0,3:2|0:0,0:0:0:0:
265,260,44639,2,0,L|196:271,1,62,10|2,3:2|0:2,0:0:0:0:
141,277,45061,1,2,3:2:0:0:
187,160,45484,1,8,3:2:0:0:
310,143,45906,54,0,L|263:84,1,62,4|0,3:2|0:0,0:0:0:0:
235,47,46329,2,0,L|204:125,1,62,10|2,3:2|0:2,0:0:0:0:
187,160,46751,2,0,L|163:224,1,62,6|0,3:2|0:2,0:0:0:0:
141,277,47174,1,8,3:2:0:0:
265,260,47596,2,0,L|346:249,1,62,4|0,3:2|0:0,0:0:0:0:
388,243,48019,2,0,L|345:185,1,62,14|2,3:2|0:2,0:0:0:0:
313,144,48441,2,0,L|271:91,1,62,6|4,3:2|0:2,0:0:0:0:
235,47,48864,22,0,L|208:115,1,62,10|2,3:2|0:2,0:0:0:0:
188,163,49287,1,4,3:2:0:0:
141,278,49709,54,0,L|211:267,1,62,10|2,0:2|0:2,0:0:0:0:
267,259,50132,1,2,3:2:0:0:
388,243,50554,22,0,L|349:191,1,62,8|0,3:2|0:0,0:0:0:0:
313,144,50977,2,0,B|235:47|235:47|183:173,1,248,0|2,3:2|3:2,0:0:0:0:
141,277,52244,2,0,L|223:265,1,62,8|0,3:2|0:0,0:0:0:0:
265,260,52667,1,4,3:2:0:0:
313,144,53089,1,10,3:2:0:0:
186,161,53512,1,6,3:2:0:0:
235,47,53934,2,0,L|281:102,1,62,8|0,3:2|0:0,0:0:0:0:
313,144,54357,1,4,3:0:0:0:
388,243,56047,54,0,L|265:260,1,124,6|2,3:2|3:2,0:0:0:0:
203,268,56681,1,2,0:2:0:0:
141,277,56892,2,0,L|167:212,1,62,2|2,3:2|0:2,0:0:0:0:
186,161,57315,2,0,L|212:96,1,62,2|2,3:2|0:2,0:0:0:0:
235,47,57737,2,0,L|313:146,2,124,2|2|2,3:2|3:2|3:2,0:0:0:0:
186,161,59005,2,0,L|162:225,1,62,2|2,3:2|0:2,0:0:0:0:
141,277,59427,22,0,L|265:260,1,124,2|2,3:2|3:2,0:0:0:0:
326,251,60061,1,2,0:2:0:0:
388,243,60272,2,0,L|345:187,1,62,2|2,3:2|0:2,0:0:0:0:
313,144,60695,2,0,L|270:89,1,62,2|2,3:2|0:2,0:0:0:0:
235,47,61118,1,2,3:2:0:0:
186,161,61540,1,2,3:2:0:0:
141,277,61963,1,2,3:2:0:0:
313,144,62808,54,0,L|394:249,1,124,6|10,3:2|3:1,0:0:0:0:
326,251,63442,1,2,0:2:0:0:
265,260,63653,2,0,L|196:269,1,62,2|2,3:2|0:2,0:0:0:0:
141,277,64075,2,0,L|167:212,1,62,10|2,3:1|0:2,0:0:0:0:
186,162,64498,21,2,3:2:0:0:
313,144,64920,1,10,3:1:0:0:
235,47,65343,1,2,3:2:0:0:
186,162,65765,1,10,3:1:0:0:
264,259,66188,53,4,3:2:0:0:
235,47,67033,1,4,3:2:0:0:
140,276,67878,2,0,L|209:267,1,62,6|2,3:2|3:2,0:0:0:0:
264,259,68301,2,0,L|332:249,1,62,2|2,0:2|0:2,0:0:0:0:
387,242,68723,1,6,3:2:0:0:
236,46,69568,22,0,L|188:162,1,124,12|8,3:2|3:2,0:0:0:0:
142,276,70413,2,0,L|265:259,1,124,8|8,3:2|3:2,0:0:0:0:
389,242,71258,1,8,3:2:0:0:
313,145,71680,1,8,3:2:0:0:
236,46,72103,1,8,3:2:0:0:
389,242,72949,54,0,L|265:259,1,124,12|8,3:2|3:2,0:0:0:0:
142,276,73794,2,0,L|190:160,1,124,8|8,3:2|3:2,0:0:0:0:
236,46,74639,1,8,3:2:0:0:
313,145,75061,1,8,3:2:0:0:
389,242,75484,1,8,3:2:0:0:
236,46,76329,22,0,L|139:283,1,248,12|8,3:2|0:2,0:0:0:0:
390,241,78019,2,0,L|236:46,1,248,12|8,3:2|0:2,0:0:0:0:
142,276,79709,54,0,L|272:257,1,124,12|8,3:2|0:2,0:0:0:0:
389,242,80554,2,0,L|307:137,1,124,12|8,3:2|0:2,0:0:0:0:
235,47,81399,1,12,3:2:0:0:
186,161,81822,1,12,3:2:0:0:
313,144,82244,1,12,3:2:0:0:
141,277,83089,22,0,L|223:265,1,62,6|2,3:2|0:2,0:0:0:0:
265,260,83512,2,0,L|347:248,1,62,2|2,3:2|0:2,0:0:0:0:
388,243,83934,2,0,L|350:192,1,62,2|2,3:2|0:2,0:0:0:0:
313,144,84357,2,0,L|256:73,1,62,2|2,3:2|0:2,0:0:0:0:
235,47,84780,54,0,L|209:110,1,62,2|2,3:2|0:2,0:0:0:0:
186,161,85202,2,0,L|160:224,1,62,2|2,3:2|0:2,0:0:0:0:
141,277,85625,2,0,L|210:268,1,62,2|2,3:2|0:2,0:0:0:0:
265,260,86047,1,2,3:2:0:0:
313,144,86470,22,0,L|350:193,1,62,2|2,3:2|0:2,0:0:0:0:
388,243,86892,2,0,L|326:251,1,62,2|2,3:2|0:2,0:0:0:0:
265,260,87315,2,0,L|201:269,1,62,2|2,3:2|0:2,0:0:0:0:
141,277,87737,2,0,L|174:200,1,62,2|2,3:2|0:2,0:0:0:0:
186,161,88160,54,0,L|219:84,1,62,2|2,3:2|0:2,0:0:0:0:
235,47,88582,2,0,L|275:97,1,62,2|2,3:2|0:2,0:0:0:0:
312,145,89005,1,2,3:2:0:0:
187,160,89427,2,0,L|162:224,1,62,2|2,0:2|0:2,0:0:0:0:
141,277,89850,22,0,L|212:267,1,62,6|2,3:2|0:2,0:0:0:0:
265,260,90273,1,10,3:1:0:0:
312,145,90695,2,0,L|243:154,1,62,2|2,3:2|0:2,0:0:0:0:
187,160,91118,1,10,3:1:0:0:
235,47,91540,54,0,L|276:102,1,62,2|2,3:2|0:2,0:0:0:0:
312,145,91962,2,0,L|354:198,1,62,10|2,3:1|0:2,0:0:0:0:
388,243,92385,2,0,L|321:251,1,62,2|2,3:2|0:2,0:0:0:0:
264,259,92808,1,10,3:1:0:0:
141,277,93230,2,0,L|168:213,1,62,2|2,3:2|0:2,0:0:0:0:
188,162,93653,2,0,L|218:90,1,62,10|2,3:1|0:2,0:0:0:0:
273,96,94075,1,2,3:2:0:0:
312,145,94287,2,0,L|362:217,1,62,2|10,0:2|3:1,0:0:0:0:
264,259,94920,1,2,3:2:0:0:
188,162,95343,1,10,3:1:0:0:
140,276,95765,1,2,3:2:0:0:
388,243,96611,22,0,L|306:254,1,62,6|2,3:2|0:2,0:0:0:0:
265,260,97034,2,0,L|183:271,1,62,10|2,3:1|0:2,0:0:0:0:
141,277,97456,2,0,L|169:206,1,62,2|2,3:2|0:2,0:0:0:0:
186,161,97879,2,0,L|222:78,1,62,10|2,3:1|0:2,0:0:0:0:
235,47,98302,54,0,L|277:101,1,62,2|2,3:2|0:2,0:0:0:0:
313,144,98724,2,0,L|356:197,1,62,10|2,3:1|0:2,0:0:0:0:
388,243,99147,2,0,L|320:252,1,62,2|2,3:2|0:2,0:0:0:0:
265,260,99569,1,10,3:1:0:0:
186,161,99992,22,0,L|164:219,1,62,2|2,3:2|0:2,0:0:0:0:
141,277,100414,2,0,L|203:268,1,62,10|2,3:1|0:2,0:0:0:0:
265,260,100837,2,0,L|326:250,1,62,2|2,3:2|0:2,0:0:0:0:
388,243,101259,2,0,L|335:177,1,62,10|2,3:1|0:2,0:0:0:0:
313,144,101682,54,0,L|260:78,1,62,2|2,3:2|0:2,0:0:0:0:
235,47,102104,2,0,L|212:106,1,62,10|2,3:1|0:2,0:0:0:0:
188,162,102527,1,2,3:2:0:0:
312,143,102949,2,0,L|354:198,1,62,10|2,0:1|0:2,0:0:0:0:
388,243,103372,22,0,L|322:251,1,62,6|2,3:2|0:2,0:0:0:0:
265,260,103795,1,10,3:1:0:0:
188,162,104217,2,0,L|259:151,1,62,2|2,3:2|0:2,0:0:0:0:
312,145,104640,1,10,3:1:0:0:
235,47,105062,54,0,L|209:110,1,62,6|2,3:2|0:2,0:0:0:0:
188,162,105484,2,0,L|162:225,1,62,10|2,3:1|0:2,0:0:0:0:
141,277,105907,2,0,L|209:266,1,62,2|2,3:2|0:2,0:0:0:0:
265,259,106330,1,10,3:1:0:0:
388,243,106751,22,0,L|348:189,1,62,6|2,3:2|0:2,0:0:0:0:
312,145,107175,2,0,L|262:84,1,62,10|2,3:1|0:2,0:0:0:0:
235,47,107597,1,2,3:2:0:0:
211,105,107808,2,0,B|183:173,1,62,2|10,0:2|3:1,0:0:0:0:
164,219,108230,1,2,0:2:0:0:
141,277,108442,53,2,3:2:0:0:
256,192,108865,1,10,3:1:0:0:
388,243,109287,1,2,3:2:0:0:
235,47,110132,21,6,3:2:0:0:
234,46,116892,54,0,L|186:162,1,124,12|8,0:2|0:2,0:0:0:0:
140,276,117737,2,0,L|264:259,1,124,8|8,0:2|0:2,0:0:0:0:
387,242,118582,1,14,0:2:0:0:
312,145,119004,1,8,0:2:0:0:
234,46,119427,1,8,0:2:0:0:
187,160,119850,1,0,3:0:0:0:
140,276,120273,22,0,L|264:259,1,124,12|8,0:2|0:2,0:0:0:0:
387,242,121118,2,0,L|309:143,1,124,8|8,0:2|0:2,0:0:0:0:
234,46,121963,1,12,3:2:0:0:
187,160,122385,1,12,3:2:0:0:
140,276,122808,1,12,3:2:0:0:
234,46,123653,54,0,L|392:248,1,248,12|8,3:2|0:2,0:0:0:0:
140,276,125343,2,0,L|234:46,1,248,12|8,3:2|0:2,0:0:0:0:
387,242,127033,22,0,L|257:260,1,124,12|8,3:2|0:2,0:0:0:0:
140,276,127878,2,0,L|190:154,1,124,12|8,3:2|0:2,0:0:0:0:
235,47,128723,1,12,3:2:0:0:
313,144,129146,1,12,3:2:0:0:
186,161,129568,1,12,3:2:0:0:
265,260,129991,1,2,0:0:0:0:
388,243,130413,54,0,L|265:260,1,124,6|2,3:2|3:2,0:0:0:0:
203,268,131047,1,2,0:2:0:0:
141,277,131258,2,0,L|167:212,1,62,2|2,3:2|0:2,0:0:0:0:
186,161,131681,2,0,L|212:96,1,62,2|2,3:2|0:2,0:0:0:0:
235,47,132103,2,0,L|313:146,2,124,2|2|2,3:2|3:2|3:2,0:0:0:0:
186,161,133371,2,0,L|162:225,1,62,2|2,3:2|0:2,0:0:0:0:
141,277,133793,22,0,L|265:260,1,124,2|2,3:2|3:2,0:0:0:0:
326,251,134427,1,2,0:2:0:0:
388,243,134638,2,0,L|345:187,1,62,2|2,3:2|0:2,0:0:0:0:
313,144,135061,2,0,L|270:89,1,62,2|2,3:2|0:2,0:0:0:0:
235,47,135484,1,2,3:2:0:0:
186,161,135906,1,2,3:2:0:0:
141,277,136329,1,2,3:2:0:0:
313,144,137174,54,0,L|394:249,1,124,6|10,3:2|3:1,0:0:0:0:
326,251,137808,1,2,0:2:0:0:
265,260,138019,2,0,L|196:269,1,62,2|2,3:2|0:2,0:0:0:0:
141,277,138441,2,0,L|167:212,1,62,10|2,3:1|0:2,0:0:0:0:
186,162,138864,21,2,3:2:0:0:
313,144,139286,1,10,3:1:0:0:
235,47,139709,1,2,3:2:0:0:
186,162,140131,1,10,3:1:0:0:
265,260,140554,53,4,3:2:0:0:
234,46,141399,1,4,3:2:0:0:
140,276,142244,2,0,L|209:267,1,62,6|2,3:2|3:2,0:0:0:0:
264,259,142667,2,0,L|332:249,1,62,2|2,0:2|0:2,0:0:0:0:
387,242,143089,1,6,3:2:0:0:
387,242,143301,1,0,3:0:0:0:
234,46,143934,22,0,L|328:166,1,124,6|8,0:0|2:1,0:0:0:0:
264,259,144780,2,0,L|186:159,1,124,2|8,0:0|0:1,0:0:0:0:
140,276,145625,2,0,L|167:210,1,62,2|2,0:0|0:0,0:0:0:0:
186,160,146047,2,0,L|213:94,1,62,10|2,0:1|0:0,0:0:0:0:
234,46,146470,2,0,L|328:166,1,124,2|8,0:0|0:1,0:0:0:0:
387,242,147315,2,0,L|243:262,2,124,2|10|2,0:0|0:1|3:2,0:0:0:0:
234,46,149005,54,0,L|176:187,1,124,6|8,3:2|0:1,0:0:0:0:
264,259,149851,2,0,L|310:143,1,124,2|8,0:0|0:1,0:0:0:0:
389,242,150695,2,0,L|344:185,1,62
313,143,151117,2,0,L|268:86,1,62,8|0,0:1|0:0,0:0:0:0:
234,46,151541,2,0,L|176:187,1,124,0|8,0:0|0:1,0:0:0:0:
140,276,152385,21,4,0:0:0:0:
387,242,153230,2,0,L|335:168,2,62,2|2|2,0:0|0:0|0:0,0:0:0:0:
326,251,153864,1,2,0:0:0:0:
326,251,154075,2,0,L|265:260,1,62,4|0,3:2|3:2,0:0:0:0:
140,276,154709,1,2,0:0:0:0:
140,276,154920,2,0,L|166:209,1,62,4|0,3:2|3:2,0:0:0:0:
234,46,155765,1,4,3:2:0:0:
313,143,156188,1,0,0:0:0:0:
387,242,156611,2,0,L|264:259,2,124,2|2|2,3:2|3:2|3:2,0:0:0:0:
234,46,158301,54,0,L|209:111,1,62,6|2,0:0|0:0,0:0:0:0:
187,161,158723,2,0,L|162:226,1,62,10|2,0:1|0:0,0:0:0:0:
140,276,159146,1,2,0:0:0:0:
387,242,159991,2,0,L|304:132,1,124,6|8,0:0|0:1,0:0:0:0:
187,161,160836,2,0,L|138:276,1,124,2|8,0:0|0:1,0:0:0:0:
265,260,161681,2,0,L|340:249,1,62,2|2,0:0|0:0,0:0:0:0:
387,242,162103,2,0,L|342:184,1,62,2|2,0:0|0:0,0:0:0:0:
313,143,162526,1,6,0:0:0:0:
138,276,163371,21,2,0:0:0:0:
387,242,164216,2,0,L|308:137,2,124,2|2|4,0:0|0:0|3:0,0:0:0:0:
387,242,165273,1,0,3:0:0:0:
265,260,165695,1,0,0:0:0:0:
265,260,165906,1,4,3:2:0:0:
187,161,166329,2,0,L|213:99,1,62,0|2,0:0|3:2,0:0:0:0:
234,46,166751,1,6,3:2:0:0:
352,192,167385,1,2,3:2:0:0:
352,192,167596,2,0,L|328:249,1,62,6|2,3:2|3:2,0:0:0:0:
264,259,168019,2,0,L|192:268,1,62,6|2,3:2|3:2,0:0:0:0:
138,276,168442,53,6,3:2:0:0:
187,161,168864,1,2,0:0:0:0:
234,46,169287,1,6,0:0:0:0:
256,192,169709,12,6,170977,0:0:0:0:
