osu file format v14

[General]
AudioFilename: audio.mp3
AudioLeadIn: 1500
PreviewTime: 28537
Countdown: 0
SampleSet: Soft
StackLeniency: 0
Mode: 0
LetterboxInBreaks: 1
WidescreenStoryboard: 1

[Editor]
Bookmarks: 228,12949,15439,28960,42481,56002,69523,83044,96566,110087,116847,130368,143889,155720,165861
DistanceSpacing: 0.8
BeatDivisor: 4
GridSize: 4
TimelineZoom: 2.3

[Metadata]
Title:Rondo Alla Turca (Ryu* Remix)
TitleUnicode:Rondo Alla Turca (Ryu☆Remix)
Artist:Ryu*
ArtistUnicode:Ryu☆
Creator:-Tynamo
Version:Insane
Source:
Tags:Kischer Marsch AGEHA Streams Turkish March Mozart Sonata electronic instrumental exit tunes
BeatmapID:2891169
BeatmapSetID:1364962

[Difficulty]
HPDrainRate:4
CircleSize:5
OverallDifficulty:8.5
ApproachRate:6
SliderMultiplier:1.64
SliderTickRate:1

[Events]
//Background and Video events
0,0,"yellow_rhombus.png",0,0
//Break Periods
2,110332,115767
//Storyboard Layer 0 (Background)
//Storyboard Layer 1 (Fail)
//Storyboard Layer 2 (Pass)
//Storyboard Layer 3 (Foreground)
//Storyboard Layer 4 (Overlay)
//Storyboard Sound Samples

[TimingPoints]
273,422.535211267606,4,2,1,50,1,0
273,-109.89010989011,4,2,1,50,0,0
28582,-109.89010989011,4,2,1,65,0,0
30537,-109.89010989011,4,2,1,65,0,0
56047,-111.111111111111,4,2,1,75,0,1
66188,-109.89010989011,4,2,1,75,0,0
69568,-109.89010989011,4,2,1,65,0,0
83089,-109.89010989011,4,2,1,70,0,1
96188,-109.89010989011,4,2,1,70,0,0
96611,-109.89010989011,4,2,1,70,0,1
106751,-109.89010989011,4,2,1,70,0,1
109287,-109.89010989011,4,2,1,70,0,1
110132,-109.89010989011,4,2,1,50,0,0
123653,-109.89010989011,4,2,1,60,0,0
127033,-109.89010989011,4,2,1,65,0,0
130413,-109.89010989011,4,2,1,75,0,1
140554,-109.89010989011,4,2,1,75,0,0
143934,-109.89010989011,4,2,1,50,0,0

[Colours]
Combo1 : 245,242,164
Combo2 : 247,239,42
Combo3 : 181,178,33
Combo4 : 246,242,87

[HitObjects]
256,192,273,21,12,0:0:0:0:
117,137,1963,37,12,3:2:0:0:
141,286,2385,1,0,3:2:0:0:
279,342,2808,1,0,3:2:0:0:
394,246,3231,1,0,3:2:0:0:
370,97,3653,1,0,3:2:0:0:
232,41,4075,1,0,3:2:0:0:
256,192,4498,1,0,3:2:0:0:
279,342,4920,1,0,3:2:0:0:
141,286,5343,38,0,L|115:125,1,149.240005009888,0|0,3:2|3:2,0:0:0:0:
370,97,6188,2,0,L|394:246,1,149.240005009888,0|0,3:2|3:2,0:0:0:0:
198,239,7033,1,0,3:2:0:0:
325,219,7456,1,0,3:2:0:0:
244,120,7878,2,0,L|230:33,1,74.6200025049439,0|0,3:0|0:0,0:0:0:0:
233,46,8512,1,0,0:0:0:0:
244,120,8723,38,0,L|271:286,1,149.240005009888,4|8,3:2|3:1,0:0:0:0:
337,294,9568,2,0,B|279:343|279:343|194:308,1,149.240005009888,0|8,3:2|3:1,0:0:0:0:
370,96,10413,2,0,L|256:192,1,149.240005009888,0|8,3:2|3:1,0:0:0:0:
141,287,11258,2,0,L|256:192,1,149.240005009888,0|8,3:2|3:1,0:0:0:0:
255,191,11892,1,0,0:0:0:0:
394,247,12103,38,0,L|256:192,1,149.240005009888,0|8,3:2|3:1,0:0:0:0:
117,136,12948,2,0,L|256:192,1,149.240005009888,0|8,3:2|3:1,0:0:0:0:
279,342,13794,1,0,3:2:0:0:
198,239,14216,1,0,3:2:0:0:
325,219,14639,2,0,L|414:252,1,74.6200025049439,0|0,3:2|0:0,0:0:0:0:
394,245,15273,1,0,0:0:0:0:
450,197,15484,38,0,B|507:152|507:152|414:113,1,149.240005009888,4|8,3:2|3:1,0:0:0:0:
313,143,16329,2,0,B|256:192|256:192|170:156,1,149.240005009888,0|8,3:2|3:1,0:0:0:0:
61,182,17174,2,0,B|4:231|4:231|72:257,1,149.240005009888,0|8,3:2|3:1,0:0:0:0:
198,239,18019,2,0,B|256:192|256:192|325:220,1,149.240005009888,0|8,3:2|3:1,0:0:0:0:
279,342,18653,1,0,0:0:0:0:
198,239,18864,2,0,B|129:213|129:213|186:164,1,149.240005009888,0|8,3:2|3:1,0:0:0:0:
312,144,19709,2,0,B|382:173|382:173|325:219,1,149.240005009888,0|8,3:2|3:1,0:0:0:0:
232,41,20554,1,4,3:2:0:0:
117,137,20977,1,8,3:1:0:0:
141,286,21399,1,0,3:2:0:0:
279,342,21822,1,8,3:1:0:0:
394,246,22244,38,0,L|368:85,1,149.240005009888,4|8,3:2|3:1,0:0:0:0:
141,286,23089,2,0,L|292:345,1,149.240005009888,0|8,3:2|3:1,0:0:0:0:
232,41,23934,2,0,L|109:146,1,149.240005009888,0|8,3:2|3:1,0:0:0:0:
278,340,24780,2,0,L|394:246,1,149.240005009888,0|8,3:2|3:1,0:0:0:0:
256,192,25413,1,0,0:0:0:0:
232,41,25625,37,0,3:2:0:0:
141,286,26047,1,8,3:1:0:0:
394,246,26470,1,0,3:2:0:0:
232,41,26892,1,8,3:1:0:0:
256,192,27315,37,12,3:2:0:0:
371,95,28582,37,2,0:0:0:0:
341,119,28687,1,2,0:0:0:0:
313,143,28793,1,2,0:0:0:0:
284,167,28898,1,2,0:0:0:0:
255,191,29004,1,10,3:2:0:0:
255,191,29427,37,2,3:2:0:0:
221,177,29534,1,2,0:0:0:0:
186,163,29639,1,2,0:0:0:0:
152,149,29745,1,2,0:0:0:0:
117,135,29850,1,10,3:2:0:0:
117,135,30273,37,2,3:2:0:0:
146,112,30379,1,2,0:0:0:0:
174,88,30484,1,2,0:0:0:0:
203,64,30590,1,2,0:0:0:0:
232,41,30695,6,0,L|286:61,3,37.310001252472,10|2|2|2,3:2|0:0|0:0|0:0,0:0:0:0:
336,79,31118,2,0,L|371:95,3,37.310001252472,2|2|2|2,3:2|0:0|0:0|0:0,0:0:0:0:
313,143,31540,2,0,B|256:192|256:192|170:156,1,149.240005009888,10|0,3:2|3:0,0:0:0:0:
117,135,32174,1,0,0:0:0:0:
141,287,32385,38,0,L|208:229,1,74.6200025049439,10|0,3:2|0:0,0:0:0:0:
394,247,32808,2,0,L|313:213,1,74.6200025049439,0|0,3:0|0:0,0:0:0:0:
370,95,33230,2,0,L|313:144,1,74.6200025049439,10|0,3:2|0:0,0:0:0:0:
117,135,33653,2,0,L|185:164,1,74.6200025049439,0|0,3:0|0:0,0:0:0:0:
324,217,34075,37,10,3:2:0:0:
313,146,34287,1,0,0:0:0:0:
187,166,34498,1,0,3:0:0:0:
198,237,34710,1,0,0:0:0:0:
256,192,34920,1,8,3:2:0:0:
395,246,35343,37,2,3:2:0:0:
359,232,35448,1,2,0:0:0:0:
325,218,35554,1,2,0:0:0:0:
290,204,35659,1,2,0:0:0:0:
256,192,35765,1,10,3:2:0:0:
256,192,36188,37,10,3:1:0:0:
227,215,36295,1,2,0:0:0:0:
198,239,36400,1,2,0:0:0:0:
170,263,36506,1,2,0:0:0:0:
141,287,36611,1,10,3:2:0:0:
141,287,37034,37,10,3:1:0:0:
176,300,37140,1,2,0:0:0:0:
210,314,37245,1,2,0:0:0:0:
245,328,37351,1,2,0:0:0:0:
279,342,37456,6,0,L|316:313,3,37.310001252472,10|2|2|2,3:2|0:0|0:0|0:0,0:0:0:0:
364,270,37878,2,0,L|394:247,3,37.310001252472,10|2|2|2,3:1|0:0|0:0|0:0,0:0:0:0:
325,218,38301,2,0,B|256:192|256:192|184:249,1,149.240005009888,10|8,3:2|3:1,0:0:0:0:
141,287,38935,1,0,0:0:0:0:
117,135,39146,38,0,L|198:169,1,74.6200025049439,10|0,3:2|0:0,0:0:0:0:
370,95,39569,2,0,L|303:153,1,74.6200025049439,8|0,3:1|0:0,0:0:0:0:
394,247,39991,2,0,L|324:217,1,74.6200025049439,10|0,3:2|0:0,0:0:0:0:
141,287,40414,2,0,L|197:237,1,74.6200025049439,8|0,3:1|0:0,0:0:0:0:
313,144,40836,37,12,3:2:0:0:
256,192,41047,1,0,0:0:0:0:
186,164,41258,1,4,0:0:0:0:
232,41,41470,1,0,0:0:0:0:
313,144,41681,2,0,B|256:192|256:192|186:163,1,149.240005009888,4|4,0:0|0:0,0:0:0:0:
117,135,42315,1,0,0:0:0:0:
3,232,42526,38,0,L|64:181,1,74.6200025049439,4|0,3:2|0:0,0:0:0:0:
186,163,42949,1,10,3:2:0:0:
221,177,43054,1,2,0:2:0:0:
255,191,43160,1,2,0:2:0:0:
284,167,43265,1,2,0:2:0:0:
313,143,43371,2,0,L|373:92,1,74.6200025049439,2|0,3:2|0:2,0:0:0:0:
450,197,43794,2,0,L|389:248,1,74.6200025049439,8|0,3:2|0:0,0:0:0:0:
279,342,44216,37,0,3:2:0:0:
279,342,44427,1,0,0:0:0:0:
324,219,44639,1,10,3:2:0:0:
289,205,44744,1,2,0:2:0:0:
255,192,44850,1,2,0:2:0:0:
226,215,44955,1,2,0:2:0:0:
197,239,45061,2,0,L|138:291,1,74.6200025049439,2|0,3:2|0:2,0:0:0:0:
60,184,45484,2,0,L|120:132,1,74.6200025049439,8|0,3:2|0:0,0:0:0:0:
232,41,45906,37,4,3:2:0:0:
232,41,46117,1,0,0:0:0:0:
369,95,46329,1,10,3:2:0:0:
402,109,46434,1,2,0:2:0:0:
437,122,46540,1,2,0:2:0:0:
471,136,46645,1,2,0:2:0:0:
506,151,46751,2,0,L|426:217,1,74.6200025049439,6|0,3:2|0:2,0:0:0:0:
313,143,47174,2,0,L|231:209,1,74.6200025049439,8|0,3:2|0:0,0:0:0:0:
279,342,47596,37,4,3:2:0:0:
279,342,47807,1,0,0:0:0:0:
141,287,48019,1,14,3:2:0:0:
106,272,48124,1,2,0:2:0:0:
72,258,48230,1,2,0:2:0:0:
37,244,48335,1,2,0:2:0:0:
3,232,48441,2,0,L|83:165,1,74.6200025049439,6|4,3:2|0:2,0:0:0:0:
256,192,48864,37,10,3:2:0:0:
226,214,48969,1,2,0:2:0:0:
197,238,49075,1,2,0:2:0:0:
168,262,49180,1,2,0:2:0:0:
140,286,49286,1,4,3:2:0:0:
256,192,49709,37,10,0:2:0:0:
290,204,49814,1,2,0:2:0:0:
325,218,49920,1,2,0:2:0:0:
359,232,50025,1,2,0:2:0:0:
394,246,50131,1,2,3:2:0:0:
256,192,50554,37,8,3:2:0:0:
284,168,50659,1,2,0:0:0:0:
313,144,50765,1,0,0:0:0:0:
341,120,50870,1,2,0:0:0:0:
370,96,50977,6,0,L|312:72,3,37.310001252472,0|2|0|2,3:2|0:0|0:0|0:0,0:0:0:0:
266,54,51399,2,0,L|232:40,3,37.310001252472,10|2|2|2,3:2|0:2|0:2|0:2,0:0:0:0:
174,88,51822,2,0,L|48:194,1,149.240005009888,2|8,3:2|3:2,0:0:0:0:
140,286,52456,1,0,0:0:0:0:
279,342,52667,38,0,L|266:255,1,74.6200025049439,4|0,3:2|0:0,0:0:0:0:
232,41,53089,2,0,L|245:128,1,74.6200025049439,10|2,3:2|0:2,0:0:0:0:
140,286,53512,2,0,L|208:230,1,74.6200025049439,6|0,3:2|0:2,0:0:0:0:
371,97,53934,2,0,L|302:153,1,74.6200025049439,8|0,3:2|0:0,0:0:0:0:
256,192,54357,37,4,3:0:0:0:
256,192,54780,2,0,L|247:140,4,37.310001252472,2|2|2|2|2,0:0|0:0|0:0|0:0|3:2,0:0:0:0:
268,268,55625,1,2,0:0:0:0:
268,268,55836,1,2,0:0:0:0:
301,68,56047,2,0,L|437:122,1,147.599995495606,6|2,3:2|3:2,0:0:0:0:
394,246,56681,1,2,0:2:0:0:
279,342,56892,1,2,3:2:0:0:
140,286,57103,1,2,0:2:0:0:
117,135,57314,1,2,3:2:0:0:
232,41,57526,1,2,0:2:0:0:
370,96,57737,38,0,L|309:149,1,73.7999977478028,2|2,3:2|0:2,0:0:0:0:
117,136,58160,2,0,L|191:167,1,73.7999977478028,2|2,3:2|0:2,0:0:0:0:
279,342,58582,2,0,L|266:259,1,73.7999977478028,2|2,3:2|0:2,0:0:0:0:
243,114,59005,1,2,3:2:0:0:
243,114,59216,1,2,0:2:0:0:
210,315,59427,38,0,L|74:261,1,147.599995495606,2|2,3:2|3:2,0:0:0:0:
117,137,60061,1,2,0:2:0:0:
232,41,60272,1,2,3:2:0:0:
371,99,60483,1,2,0:2:0:0:
394,247,60694,1,2,3:2:0:0:
279,342,60906,1,2,0:2:0:0:
141,287,61117,38,0,L|202:234,1,73.7999977478028,2|2,3:2|0:2,0:0:0:0:
394,247,61540,2,0,L|320:216,1,73.7999977478028,2|2,3:2|0:2,0:0:0:0:
232,41,61962,2,0,L|245:124,2,73.7999977478028,2|2|2,3:2|3:2|0:2,0:0:0:0:
232,41,62596,1,2,0:2:0:0:
117,137,62808,38,0,L|140:283,1,147.599995495606,6|10,3:2|3:1,0:0:0:0:
279,342,63442,1,2,0:2:0:0:
394,247,63653,1,2,3:2:0:0:
508,151,63864,1,2,0:2:0:0:
370,96,64075,1,10,3:1:0:0:
232,41,64287,1,2,0:2:0:0:
117,137,64498,2,0,L|191:168,1,73.7999977478028,2|2,3:2|0:2,0:0:0:0:
279,342,64920,2,0,L|267:263,1,73.7999977478028,10|2,3:1|0:2,0:0:0:0:
370,96,65343,2,0,L|309:149,1,73.7999977478028,2|2,3:2|0:2,0:0:0:0:
196,238,65765,1,10,3:1:0:0:
326,218,65977,1,2,0:2:0:0:
243,114,66188,37,4,3:2:0:0:
243,114,67033,1,4,3:2:0:0:
117,137,67878,37,6,3:2:0:0:
141,286,68089,1,2,3:2:0:0:
279,342,68301,1,2,0:2:0:0:
394,246,68512,1,2,0:2:0:0:
370,97,68723,1,6,3:2:0:0:
232,41,69146,37,2,0:0:0:0:
238,78,69252,1,2,0:0:0:0:
243,114,69357,1,2,0:0:0:0:
249,151,69463,1,2,0:0:0:0:
256,192,69568,37,12,3:2:0:0:
394,246,69991,1,8,3:2:0:0:
508,151,70413,1,8,3:2:0:0:
370,97,70836,1,8,3:2:0:0:
394,246,71258,1,8,3:2:0:0:
508,151,71680,1,8,3:2:0:0:
256,192,72103,1,8,3:2:0:0:
256,192,72949,37,12,3:2:0:0:
117,137,73372,1,8,3:2:0:0:
3,232,73794,1,8,3:2:0:0:
141,286,74217,1,8,3:2:0:0:
117,137,74639,1,8,3:2:0:0:
3,232,75061,1,8,3:2:0:0:
256,192,75484,1,8,3:2:0:0:
256,192,76329,38,0,L|316:141,1,74.6200025049439,12|8,3:2|0:2,0:0:0:0:
508,151,76751,2,0,L|447:202,1,74.6200025049439,8|8,0:2|0:2,0:0:0:0:
394,246,77174,1,8,0:2:0:0:
375,238,77279,1,8,0:2:0:0:
358,232,77385,1,8,0:2:0:0:
341,225,77490,1,8,0:2:0:0:
324,218,77596,2,0,L|281:200,3,37.310001252472,8|8|8|8,0:2|0:2|0:2|0:2,0:0:0:0:
256,192,78020,38,0,L|195:242,1,74.6200025049439,12|8,3:2|0:2,0:0:0:0:
3,232,78442,2,0,L|64:181,1,74.6200025049439,8|8,0:2|0:2,0:0:0:0:
117,137,78865,1,8,0:2:0:0:
135,144,78970,1,8,0:2:0:0:
152,150,79076,1,8,0:2:0:0:
169,158,79181,1,8,0:2:0:0:
187,165,79287,2,0,L|230:183,3,37.310001252472,8|8|8|8,0:2|0:2|0:2|0:2,0:0:0:0:
256,192,79709,38,0,L|316:141,1,74.6200025049439,12|8,3:2|0:2,0:0:0:0:
232,43,80132,1,8,0:2:0:0:
238,80,80237,1,8,0:2:0:0:
244,116,80343,1,8,0:2:0:0:
249,153,80448,1,8,0:2:0:0:
256,192,80554,38,0,L|195:242,1,74.6200025049439,12|8,3:2|0:2,0:0:0:0:
279,340,80977,1,8,0:2:0:0:
273,302,81082,1,8,0:2:0:0:
267,266,81188,1,8,0:2:0:0:
261,229,81293,1,8,0:2:0:0:
256,192,81399,37,12,3:2:0:0:
117,137,81716,1,12,3:2:0:0:
232,43,81927,1,12,3:2:0:0:
232,43,82033,1,12,3:2:0:0:
370,97,82244,1,12,3:2:0:0:
256,192,82667,1,0,0:0:0:0:
256,192,82773,1,0,0:0:0:0:
256,192,82878,1,0,0:0:0:0:
256,192,82984,1,0,0:0:0:0:
256,192,83089,38,0,L|262:231,3,37.310001252472,6|2|2|2,3:2|0:0|0:2|0:0,0:0:0:0:
267,266,83512,2,0,L|273:305,3,37.310001252472,2|2|2|2,3:2|0:0|0:2|0:0,0:0:0:0:
279,340,83934,1,2,3:2:0:0:
308,316,84039,1,2,0:0:0:0:
336,292,84145,1,2,0:2:0:0:
365,269,84250,1,2,0:0:0:0:
395,245,84356,1,2,3:2:0:0:
423,222,84462,1,2,0:0:0:0:
452,199,84567,1,2,0:2:0:0:
482,175,84673,1,2,0:0:0:0:
508,151,84780,38,0,L|447:125,3,37.310001252472,2|2|2|2,3:2|0:0|0:2|0:0,0:0:0:0:
405,111,85202,2,0,L|344:84,3,37.310001252472,2|2|2|2,3:2|0:0|0:2|0:0,0:0:0:0:
300,72,85625,2,0,L|232:43,1,74.6200025049439,2|2,3:2|0:2,0:0:0:0:
256,192,86047,1,2,3:2:0:0:
256,192,86153,1,2,0:0:0:0:
256,192,86258,1,2,0:2:0:0:
256,192,86364,1,2,0:0:0:0:
256,192,86470,38,0,L|249:152,3,37.310001252472,2|2|2|2,3:2|0:0|0:2|0:0,0:0:0:0:
244,116,86892,2,0,L|237:77,3,37.310001252472,2|2|2|2,3:2|0:0|0:2|0:0,0:0:0:0:
232,43,87315,1,2,3:2:0:0:
202,66,87420,1,2,0:0:0:0:
174,90,87526,1,2,0:2:0:0:
145,113,87632,1,2,0:0:0:0:
115,137,87737,1,2,3:2:0:0:
87,161,87843,1,2,0:0:0:0:
58,183,87949,1,2,0:2:0:0:
28,207,88054,1,2,0:0:0:0:
3,232,88160,38,0,L|64:258,3,37.310001252472,2|2|2|2,3:2|0:0|0:2|0:0,0:0:0:0:
106,272,88582,2,0,L|167:299,3,37.310001252472,2|2|2|2,3:2|0:0|0:2|0:0,0:0:0:0:
209,310,89005,2,0,L|279:340,1,74.6200025049439,2|0,3:2|0:0,0:0:0:0:
256,192,89427,1,2,0:2:0:0:
256,192,89533,1,2,0:2:0:0:
256,192,89639,1,2,0:2:0:0:
256,192,89744,1,2,0:2:0:0:
256,192,89850,38,0,L|249:148,3,37.310001252472,6|2|2|2,3:2|0:0|0:2|0:0,0:0:0:0:
174,90,90273,2,0,L|144:113,3,37.310001252472,10|2|2|2,3:1|0:0|0:2|0:0,0:0:0:0:
300,72,90695,2,0,L|335:85,3,37.310001252472,2|2|2|2,3:2|0:0|0:2|0:0,0:0:0:0:
232,41,91118,1,10,3:1:0:0:
238,81,91223,1,2,0:0:0:0:
244,116,91329,1,2,0:2:0:0:
250,156,91434,1,2,0:0:0:0:
255,189,91540,38,0,L|265:251,3,37.310001252472,2|2|2|2,3:2|0:0|0:2|0:0,0:0:0:0:
279,338,91963,2,0,L|273:301,3,37.310001252472,10|2|2|2,3:1|0:0|0:2|0:0,0:0:0:0:
141,288,92385,1,2,3:2:0:0:
106,273,92490,1,2,0:0:0:0:
72,259,92596,1,2,0:2:0:0:
37,245,92701,1,2,0:0:0:0:
3,232,92808,1,10,3:1:0:0:
30,207,92913,1,2,0:0:0:0:
59,183,93019,1,2,0:2:0:0:
87,159,93124,1,2,0:0:0:0:
116,136,93230,38,0,L|157:104,3,37.310001252472,2|2|2|2,3:2|0:0|0:2|0:0,0:0:0:0:
232,41,93653,2,0,L|238:78,3,37.310001252472,10|2|2|2,3:1|0:0|0:2|0:0,0:0:0:0:
335,82,94075,2,0,L|371:95,1,37.310001252472,2|2,3:2|0:0,0:0:0:0:
255,191,94287,1,2,0:2:0:0:
255,191,94392,1,2,0:0:0:0:
255,191,94498,2,0,L|247:140,3,37.310001252472,10|2|2|2,3:1|0:0|0:2|0:0,0:0:0:0:
116,135,94920,37,2,3:2:0:0:
144,110,95025,1,2,0:0:0:0:
173,86,95131,1,2,0:2:0:0:
202,62,95236,1,2,0:0:0:0:
232,41,95343,37,10,3:1:0:0:
265,52,95448,1,2,0:0:0:0:
299,66,95554,1,2,0:2:0:0:
335,82,95659,1,2,0:0:0:0:
369,94,95765,38,0,L|302:152,1,74.6200025049439,2|0,3:2|0:0,0:0:0:0:
255,191,96188,1,2,3:2:0:0:
255,191,96294,1,2,0:2:0:0:
255,191,96399,1,2,0:2:0:0:
255,191,96505,1,2,0:2:0:0:
255,191,96610,38,0,L|262:230,3,37.310001252472,6|2|2|2,3:2|0:0|0:2|0:0,0:0:0:0:
267,265,97033,2,0,L|273:304,3,37.310001252472,10|2|2|2,3:1|0:0|0:2|0:0,0:0:0:0:
279,339,97455,1,2,3:2:0:0:
244,325,97560,1,2,0:0:0:0:
210,311,97666,1,2,0:2:0:0:
175,298,97773,1,2,0:0:0:0:
140,285,97878,1,10,3:1:0:0:
105,271,97984,1,2,0:0:0:0:
71,258,98089,1,2,0:2:0:0:
35,245,98195,1,2,0:0:0:0:
2,231,98301,38,0,L|52:186,3,37.310001252472,2|2|2|2,3:2|0:0|0:2|0:0,0:0:0:0:
89,160,98723,2,0,L|138:116,3,37.310001252472,10|2|2|2,3:1|0:0|0:2|0:0,0:0:0:0:
176,91,99146,2,0,L|232:42,1,74.6200025049439,2|2,3:2|0:2,0:0:0:0:
255,191,99568,1,10,3:1:0:0:
255,191,99674,1,2,0:0:0:0:
255,191,99779,1,2,0:2:0:0:
255,191,99885,1,2,0:0:0:0:
255,191,99991,38,0,L|250:152,3,37.310001252472,2|2|2|2,3:2|0:0|0:2|0:0,0:0:0:0:
244,116,100413,2,0,L|237:77,3,37.310001252472,10|2|2|2,3:1|0:0|0:2|0:0,0:0:0:0:
232,42,100836,1,2,3:2:0:0:
267,55,100942,1,2,0:0:0:0:
302,69,101047,1,2,0:2:0:0:
336,82,101153,1,2,0:0:0:0:
372,95,101258,1,10,3:1:0:0:
406,109,101364,1,2,0:0:0:0:
441,122,101470,1,2,0:2:0:0:
476,135,101575,1,2,0:0:0:0:
508,150,101681,38,0,L|459:195,3,37.310001252472,2|2|2|2,3:2|0:0|0:2|0:0,0:0:0:0:
422,221,102103,2,0,L|372:265,3,37.310001252472,10|2|2|2,3:1|0:0|0:2|0:0,0:0:0:0:
336,289,102526,2,0,L|279:339,1,74.6200025049439,2|0,3:2|0:0,0:0:0:0:
256,195,102949,1,10,0:1:0:0:
256,195,103055,1,2,0:2:0:0:
256,195,103161,1,2,0:2:0:0:
256,195,103266,1,2,0:2:0:0:
256,195,103372,38,0,L|249:152,3,37.310001252472,6|2|2|2,3:2|0:0|0:2|0:0,0:0:0:0:
300,71,103794,2,0,L|335:84,3,37.310001252472,10|2|2|2,3:1|0:0|0:2|0:0,0:0:0:0:
176,91,104217,2,0,L|147:114,3,37.310001252472,2|2|2|2,3:2|0:0|0:2|0:0,0:0:0:0:
232,45,104640,1,10,3:1:0:0:
238,82,104745,1,2,0:0:0:0:
244,118,104851,1,2,0:2:0:0:
250,155,104956,1,2,0:0:0:0:
256,192,105062,38,0,L|266:255,3,37.310001252472,6|2|2|2,3:2|0:0|0:2|0:0,0:0:0:0:
279,342,105485,2,0,L|273:305,3,37.310001252472,10|2|2|2,3:1|0:0|0:2|0:0,0:0:0:0:
394,247,105907,1,2,3:2:0:0:
422,222,106012,1,2,0:0:0:0:
451,198,106118,1,2,0:2:0:0:
480,174,106223,1,2,0:0:0:0:
508,151,106330,1,10,3:1:0:0:
474,136,106435,1,2,0:0:0:0:
440,122,106541,1,2,0:2:0:0:
405,108,106646,1,2,0:0:0:0:
371,94,106752,38,0,L|322:77,3,37.310001252472,6|2|2|2,3:2|0:0|0:2|0:0,0:0:0:0:
232,45,107175,2,0,L|238:82,3,37.310001252472,10|2|2|2,3:1|0:0|0:2|0:0,0:0:0:0:
146,116,107597,2,0,L|117:140,1,37.310001252472,2|2,3:2|0:0,0:0:0:0:
256,192,107808,1,2,0:2:0:0:
256,192,107913,1,2,0:0:0:0:
256,192,108019,2,0,L|265:245,3,37.310001252472,10|2|2|2,3:1|0:0|0:2|0:0,0:0:0:0:
395,248,108441,37,2,3:2:0:0:
367,273,108546,1,2,0:0:0:0:
338,297,108652,1,2,0:2:0:0:
309,321,108757,1,2,0:0:0:0:
279,342,108864,37,10,3:1:0:0:
246,331,108969,1,2,0:0:0:0:
212,317,109075,1,2,0:2:0:0:
176,301,109180,1,2,0:0:0:0:
142,289,109286,38,0,L|209:231,1,74.6200025049439,2|0,3:2|0:0,0:0:0:0:
313,146,109709,1,2,3:2:0:0:
232,45,109920,1,2,0:2:0:0:
187,166,110132,1,6,3:2:0:0:
256,192,116892,37,12,0:2:0:0:
187,166,117315,1,8,0:2:0:0:
116,135,117737,1,8,0:2:0:0:
176,91,118160,1,8,0:2:0:0:
232,45,118582,1,14,0:2:0:0:
300,71,119005,1,8,0:2:0:0:
371,94,119428,1,8,0:2:0:0:
313,146,119850,1,0,3:0:0:0:
256,192,120273,37,12,0:2:0:0:
198,237,120696,1,8,0:2:0:0:
140,289,121118,1,8,0:2:0:0:
211,312,121541,1,8,0:2:0:0:
279,338,121963,1,12,3:2:0:0:
324,217,122385,1,12,3:2:0:0:
198,237,122808,1,12,3:2:0:0:
175,92,123653,38,0,L|232:43,1,74.6200025049439,12|8,3:2|0:2,0:0:0:0:
371,94,124075,2,0,L|314:143,1,74.6200025049439,8|8,0:2|0:2,0:0:0:0:
256,192,124498,1,8,0:2:0:0:
272,198,124603,1,8,0:2:0:0:
289,205,124709,1,8,0:2:0:0:
306,212,124814,1,8,0:2:0:0:
324,219,124920,2,0,L|369:235,3,37.310001252472,8|8|8|8,0:2|0:2|0:2|0:2,0:0:0:0:
335,290,125343,38,0,L|279:340,1,74.6200025049439,12|8,3:2|0:2,0:0:0:0:
140,289,125765,2,0,L|196:239,1,74.6200025049439,8|8,0:2|0:2,0:0:0:0:
256,192,126188,1,8,0:2:0:0:
238,184,126293,1,8,0:2:0:0:
221,177,126399,1,8,0:2:0:0:
204,170,126504,1,8,0:2:0:0:
186,163,126610,2,0,L|142:148,3,37.310001252472,8|8|8|8,0:2|0:2|0:2|0:2,0:0:0:0:
175,92,127033,38,0,L|232:43,1,74.6200025049439,12|8,3:2|0:2,0:0:0:0:
369,95,127456,1,8,0:2:0:0:
340,118,127561,1,8,0:2:0:0:
312,143,127667,1,8,0:2:0:0:
283,167,127772,1,8,0:2:0:0:
256,192,127878,2,0,L|173:156,1,74.6200025049439,12|8,3:2|0:2,0:0:0:0:
141,286,128301,1,8,0:2:0:0:
170,264,128406,1,8,0:2:0:0:
198,239,128512,1,8,0:2:0:0:
227,215,128617,1,8,0:2:0:0:
256,192,128723,37,12,3:2:0:0:
394,246,129040,1,12,3:2:0:0:
279,340,129251,1,12,3:2:0:0:
279,340,129357,1,12,3:2:0:0:
141,286,129568,1,12,3:2:0:0:
268,268,129991,1,2,0:0:0:0:
268,268,130202,1,2,0:0:0:0:
174,88,130413,38,0,L|60:184,1,149.240005009888,6|2,3:2|3:2,0:0:0:0:
141,286,131047,1,2,0:2:0:0:
279,342,131258,1,2,3:2:0:0:
395,245,131469,1,2,0:2:0:0:
370,95,131680,1,2,3:2:0:0:
232,41,131892,1,2,0:2:0:0:
117,136,132103,38,0,L|191:167,1,74.6200025049439,2|2,3:2|0:2,0:0:0:0:
370,95,132526,2,0,L|309:148,1,74.6200025049439,2|2,3:2|0:2,0:0:0:0:
279,342,132948,2,0,L|266:259,1,74.6200025049439,2|2,3:2|0:2,0:0:0:0:
243,112,133371,1,2,3:2:0:0:
243,112,133582,1,2,0:2:0:0:
337,295,133793,38,0,L|452:199,1,149.240005009888,2|2,3:2|3:2,0:0:0:0:
370,97,134427,1,2,0:2:0:0:
232,41,134638,1,2,3:2:0:0:
117,140,134849,1,2,0:2:0:0:
141,287,135060,1,2,3:2:0:0:
279,342,135272,1,2,0:2:0:0:
394,247,135484,38,0,L|320:216,1,74.6200025049439,2|2,3:2|0:2,0:0:0:0:
141,287,135906,2,0,L|202:234,1,74.6200025049439,2|2,3:2|0:2,0:0:0:0:
232,41,136328,2,0,L|245:124,2,74.6200025049439,2|2|2,3:2|3:2|0:2,0:0:0:0:
232,41,136962,1,2,0:2:0:0:
370,97,137174,38,0,L|394:247,1,149.240005009888,6|10,3:2|3:1,0:0:0:0:
279,342,137808,1,2,0:2:0:0:
141,287,138019,1,2,3:2:0:0:
3,232,138230,1,2,0:2:0:0:
117,136,138441,1,10,3:1:0:0:
232,41,138653,1,2,0:2:0:0:
370,97,138864,38,0,L|310:150,1,74.6200025049439,2|2,3:2|0:2,0:0:0:0:
279,342,139286,2,0,L|267:263,1,74.6200025049439,10|2,3:1|0:2,0:0:0:0:
117,136,139709,2,0,L|191:167,1,74.6200025049439,2|2,3:2|0:2,0:0:0:0:
326,218,140131,1,10,3:1:0:0:
196,238,140343,1,2,0:2:0:0:
243,114,140554,37,4,3:2:0:0:
243,114,141399,1,4,3:2:0:0:
370,97,142244,37,6,3:2:0:0:
394,246,142455,1,2,3:2:0:0:
279,342,142667,1,2,0:2:0:0:
141,286,142878,1,2,0:2:0:0:
117,137,143089,1,6,3:2:0:0:
256,192,143301,1,0,3:0:0:0:
232,41,143934,38,0,L|117:137,1,149.240005009888,6|8,0:0|2:1,0:0:0:0:
278,341,144780,2,0,L|394:246,1,149.240005009888,2|8,0:0|0:1,0:0:0:0:
256,192,145625,1,2,0:0:0:0:
241,204,145730,1,2,0:0:0:0:
227,216,145836,1,2,0:0:0:0:
213,228,145941,1,2,0:0:0:0:
198,240,146047,2,0,L|161:268,3,37.310001252472,10|2|2|2,0:1|0:0|0:0|0:0,0:0:0:0:
141,286,146470,2,0,L|116:132,1,149.240005009888,2|8,0:0|0:1,0:0:0:0:
370,97,147315,37,2,0:0:0:0:
508,151,147526,1,2,0:0:0:0:
394,246,147737,1,10,0:1:0:0:
370,97,147949,1,2,0:0:0:0:
256,192,148160,1,2,3:2:0:0:
268,269,148371,1,2,3:2:0:0:
268,269,148794,1,0,3:0:0:0:
117,137,149005,38,0,L|232:41,1,149.240005009888,6|8,3:2|0:1,0:0:0:0:
394,246,149851,2,0,L|278:341,1,149.240005009888,2|8,0:0|0:1,0:0:0:0:
256,192,150695,1,0,0:0:0:0:
270,179,150800,1,0,0:0:0:0:
284,167,150906,1,0,0:0:0:0:
298,155,151011,1,0,0:0:0:0:
313,143,151117,2,0,L|350:115,3,37.310001252472,8|0|0|0,0:1|0:0|0:0|0:0,0:0:0:0:
370,97,151540,2,0,L|394:246,1,149.240005009888,0|8,0:0|0:1,0:0:0:0:
256,192,152385,37,4,0:0:0:0:
117,137,153230,1,2,0:0:0:0:
3,232,153441,1,2,0:0:0:0:
141,286,153652,1,2,0:0:0:0:
117,137,153864,1,2,0:0:0:0:
256,192,154075,37,4,3:2:0:0:
268,269,154286,1,0,3:2:0:0:
268,269,154709,1,2,0:0:0:0:
256,192,154920,1,4,3:2:0:0:
243,114,155132,1,0,3:2:0:0:
243,114,155554,1,0,0:0:0:0:
256,192,155765,38,0,L|281:350,1,149.240005009888,4|0,3:2|0:0,0:0:0:0:
371,94,156611,1,2,3:2:0:0:
356,107,156716,1,2,0:2:0:0:
342,119,156822,1,2,0:2:0:0:
328,130,156927,1,2,0:2:0:0:
314,143,157033,2,0,L|277:171,3,37.310001252472,2|2|2|2,3:2|0:2|0:2|0:2,0:0:0:0:
256,192,157456,2,0,L|232:41,1,149.240005009888,2|0,3:2|0:0,0:0:0:0:
141,286,158301,1,6,0:0:0:0:
279,342,158512,1,2,0:0:0:0:
394,246,158723,1,10,0:1:0:0:
256,192,158934,1,2,0:0:0:0:
279,342,159146,1,2,0:0:0:0:
279,342,159780,1,2,0:0:0:0:
394,246,159991,38,0,L|515:142,1,149.240005009888,6|8,0:0|0:1,0:0:0:0:
117,137,160836,2,0,L|-3:241,1,149.240005009888,2|8,0:0|0:1,0:0:0:0:
140,289,161681,1,2,0:0:0:0:
155,276,161786,1,2,0:0:0:0:
169,264,161892,1,2,0:0:0:0:
183,253,161997,1,2,0:0:0:0:
197,240,162103,2,0,L|234:212,3,37.310001252472,2|2|2|2,0:0|0:0|0:0|0:0,0:0:0:0:
256,192,162526,2,0,L|281:353,1,149.240005009888,6|8,0:0|0:1,0:0:0:0:
256,192,163371,37,2,0:0:0:0:
117,137,164216,1,2,0:0:0:0:
232,41,164427,1,2,0:0:0:0:
370,97,164638,1,2,0:0:0:0:
256,192,164849,1,2,0:0:0:0:
232,41,165061,37,4,3:0:0:0:
256,192,165273,1,0,3:0:0:0:
256,192,165695,1,0,0:0:0:0:
140,289,165906,38,0,L|3:232,1,149.240005009888,4|0,3:2|0:0,0:0:0:0:
117,137,166540,1,2,3:2:0:0:
256,192,166751,2,0,L|369:95,1,149.240005009888,6|0,3:2|0:0,0:0:0:0:
232,41,167385,1,2,3:2:0:0:
117,137,167596,1,6,3:2:0:0:
141,286,167808,1,2,3:2:0:0:
279,342,168019,1,6,3:2:0:0:
394,246,168230,1,2,3:2:0:0:
370,97,168442,1,6,3:2:0:0:
256,192,168864,1,2,0:0:0:0:
117,137,169287,1,6,0:0:0:0:
256,192,169392,12,6,170977,0:0:0:0:
