osu file format v14

[General]
AudioFilename: audio.mp3
AudioLeadIn: 1500
PreviewTime: 28537
Countdown: 0
SampleSet: Soft
StackLeniency: 0.2
Mode: 0
LetterboxInBreaks: 1
WidescreenStoryboard: 1

[Editor]
Bookmarks: 228,12949,15439,28960,42481,56002,69523,83044,96566,110087,116847,130368,143889,155720,165861
DistanceSpacing: 0.8
BeatDivisor: 4
GridSize: 8
TimelineZoom: 2.3

[Metadata]
Title:Rondo Alla Turca (Ryu* Remix)
TitleUnicode:Rondo Alla Turca (Ryu☆Remix)
Artist:Ryu*
ArtistUnicode:Ryu☆
Creator:-Tynamo
Version:Hard
Source:
Tags:Kischer Marsch AGEHA Streams Turkish March Mozart Sonata electronic instrumental exit tunes
BeatmapID:2825172
BeatmapSetID:1364962

[Difficulty]
HPDrainRate:4
CircleSize:4
OverallDifficulty:7
ApproachRate:5.7
SliderMultiplier:1.74
SliderTickRate:1

[Events]
//Background and Video events
0,0,"blue_square.png",0,0
//Break Periods
2,110332,115692
//Storyboard Layer 0 (Background)
//Storyboard Layer 1 (Fail)
//Storyboard Layer 2 (Pass)
//Storyboard Layer 3 (Foreground)
//Storyboard Layer 4 (Overlay)
//Storyboard Sound Samples

[TimingPoints]
273,422.535211267606,4,2,1,50,1,0
273,-90.9090909090909,4,2,1,50,0,0
28582,-90.9090909090909,4,2,1,65,0,0
56047,-90.9090909090909,4,2,1,75,0,1
66188,-90.9090909090909,4,2,1,75,0,0
69568,-90.9090909090909,4,2,1,65,0,0
83089,-90.9090909090909,4,2,1,70,0,1
96188,-90.9090909090909,4,2,1,70,0,0
96611,-90.9090909090909,4,2,1,70,0,1
106751,-90.9090909090909,4,2,1,70,0,1
109287,-90.9090909090909,4,2,1,70,0,1
110132,-90.9090909090909,4,2,1,50,0,0
123653,-90.9090909090909,4,2,1,60,0,0
127033,-90.9090909090909,4,2,1,65,0,0
130413,-90.9090909090909,4,2,1,75,0,1
140554,-90.9090909090909,4,2,1,75,0,0
143934,-90.9090909090909,4,2,1,50,0,0

[Colours]
Combo1 : 87,173,246
Combo2 : 42,153,243
Combo3 : 164,208,245
Combo4 : 32,111,180

[HitObjects]
256,192,273,21,12,0:0:0:0:
146,109,1963,54,0,L|173:298,1,191.400005841065,12|0,3:2|3:2,0:0:0:0:
362,272,2808,2,0,L|335:82,1,191.400005841065,0|0,3:2|3:2,0:0:0:0:
240,95,3653,1,0,3:2:0:0:
159,204,4075,1,0,3:2:0:0:
268,285,4498,1,0,3:2:0:0:
349,176,4920,1,0,3:2:0:0:
240,95,5343,22,0,B|146:109|146:109|160:211,1,191.400005841065,0|0,3:2|3:2,0:0:0:0:
268,285,6188,2,0,B|362:272|362:272|348:169,1,191.400005841065,0|0,3:2|3:2,0:0:0:0:
335,82,7033,1,0,3:2:0:0:
256,192,7456,1,0,3:2:0:0:
173,298,7878,1,0,3:0:0:0:
146,109,8723,54,0,L|343:80,1,191.400005841065,4|8,3:2|3:1,0:0:0:0:
362,272,9568,2,0,L|165:300,1,191.400005841065,0|8,3:2|3:1,0:0:0:0:
159,204,10413,1,0,3:2:0:0:
349,176,10836,1,8,3:1:0:0:
240,95,11258,1,0,3:2:0:0:
268,285,11681,1,8,3:1:0:0:
349,176,12103,22,0,B|335:82|335:82|225:97,1,191.400005841065,0|8,3:2|3:1,0:0:0:0:
159,204,12949,2,0,B|173:298|173:298|283:284,1,191.400005841065,0|8,3:2|3:1,0:0:0:0:
362,272,13794,1,0,3:2:0:0:
349,176,14216,1,0,3:2:0:0:
256,192,14639,1,0,3:2:0:0:
146,109,15484,54,0,B|159:204|159:204|256:192,1,191.400005841065,4|8,3:2|3:1,0:0:0:0:
362,272,16329,2,0,B|349:176|349:176|256:192,1,191.400005841065,0|8,3:2|3:1,0:0:0:0:
268,285,17174,1,0,3:2:0:0:
173,298,17596,1,8,3:1:0:0:
159,204,18019,1,0,3:2:0:0:
146,109,18442,1,8,3:1:0:0:
240,95,18864,2,0,B|335:82|335:82|351:184,1,191.400005841065,0|8,3:2|3:1,0:0:0:0:
268,285,19709,2,0,B|173:298|173:298|157:196,1,191.400005841065,0|8,3:2|3:1,0:0:0:0:
146,109,20554,1,4,3:2:0:0:
256,192,20977,1,8,3:1:0:0:
362,272,21399,1,0,3:2:0:0:
349,176,21822,1,8,3:1:0:0:
334,83,22244,22,0,L|145:109,1,191.400005841065,4|8,3:2|3:1,0:0:0:0:
159,204,23089,2,0,L|349:176,1,191.400005841065,0|8,3:2|3:1,0:0:0:0:
362,272,23934,2,0,L|173:298,1,191.400005841065,0|8,3:2|3:1,0:0:0:0:
159,204,24780,2,0,L|349:176,1,191.400005841065,0|8,3:2|3:1,0:0:0:0:
240,95,25625,1,0,3:2:0:0:
159,204,26047,1,8,3:1:0:0:
268,285,26470,1,0,3:2:0:0:
349,176,26892,1,8,3:1:0:0:
256,192,27315,53,12,3:2:0:0:
335,82,28582,22,0,L|288:88,3,47.8500014602662,2|2|2|2,0:0|0:0|0:0|0:0,0:0:0:0:
240,95,29005,1,10,3:2:0:0:
362,272,29427,54,0,L|355:216,3,47.8500014602662,2|2|2|2,3:2|0:0|0:0|0:0,0:0:0:0:
349,176,29850,1,10,3:2:0:0:
173,298,30273,5,2,3:2:0:0:
173,298,30378,1,2,0:0:0:0:
173,298,30484,2,0,L|228:291,1,47.8500014602662,2|2,0:0|0:0,0:0:0:0:
269,287,30695,2,0,L|260:223,3,47.8500014602662,10|2|2|2,3:2|0:0|0:0|0:0,0:0:0:0:
256,192,31118,2,0,L|247:128,3,47.8500014602662,2|2|2|2,3:2|0:0|0:0|0:0,0:0:0:0:
242,96,31540,2,0,B|147:110|147:110|165:237,1,191.400005841065,10|0,3:2|3:0,0:0:0:0:
173,298,32174,1,0,0:0:0:0:
269,287,32385,54,0,L|396:269,1,95.7000029205323,10|0,3:2|0:0,0:0:0:0:
351,178,32808,2,0,L|333:51,1,95.7000029205323,0|0,3:0|0:0,0:0:0:0:
242,96,33230,2,0,L|147:110,1,95.7000029205323,10|0,3:2|0:0,0:0:0:0:
160,205,33653,2,0,L|178:332,1,95.7000029205323,0|0,3:0|0:0,0:0:0:0:
269,287,34075,1,10,3:2:0:0:
256,192,34287,1,0,0:0:0:0:
242,96,34498,1,0,3:0:0:0:
147,110,34709,1,0,0:0:0:0:
160,205,34920,1,8,3:2:0:0:
337,83,35343,22,0,L|346:145,3,47.8500014602662,2|2|2|2,3:2|0:0|0:0|0:0,0:0:0:0:
351,178,35765,1,10,3:2:0:0:
364,273,36188,2,0,L|301:282,3,47.8500014602662,10|2|2|2,3:1|0:0|0:0|0:0,0:0:0:0:
269,287,36610,1,10,3:2:0:0:
174,300,37033,5,10,3:1:0:0:
174,300,37139,1,2,0:0:0:0:
174,300,37244,2,0,L|164:237,1,47.8500014602662,2|2,0:0|0:0,0:0:0:0:
160,205,37456,2,0,L|150:141,3,47.8500014602662,10|2|2|2,3:2|0:0|0:0|0:0,0:0:0:0:
147,110,37878,2,0,L|209:100,3,47.8500014602662,10|2|2|2,3:1|0:0|0:0|0:0,0:0:0:0:
242,96,38301,2,0,B|337:83|337:83|355:210,1,191.400005841065,10|8,3:2|3:1,0:0:0:0:
269,287,38934,1,0,0:0:0:0:
174,300,39146,54,0,L|160:205,1,95.7000029205323,10|0,3:2|0:0,0:0:0:0:
256,192,39568,2,0,L|268:286,1,95.7000029205323,8|0,3:1|0:0,0:0:0:0:
364,273,39991,2,0,L|351:178,1,95.7000029205323,10|0,3:2|0:0,0:0:0:0:
243,96,40413,2,0,L|255:191,1,95.7000029205323,8|0,3:1|0:0,0:0:0:0:
269,287,40836,1,12,3:2:0:0:
174,300,41047,1,0,0:0:0:0:
160,205,41258,1,4,0:0:0:0:
147,110,41470,1,0,0:0:0:0:
242,96,41681,1,4,0:0:0:0:
362,272,42103,22,0,L|347:161,1,95.7000029205323,4|0,0:0|0:0,0:0:0:0:
335,82,42526,1,4,3:2:0:0:
256,192,42737,1,0,0:0:0:0:
173,298,42949,1,10,3:2:0:0:
173,298,43054,1,2,0:2:0:0:
173,298,43160,2,0,L|162:227,1,47.8500014602662,2|2,0:2|0:2,0:0:0:0:
159,204,43371,2,0,L|144:101,1,95.7000029205323,2|0,3:2|0:2,0:0:0:0:
335,82,43794,2,0,L|349:176,1,95.7000029205323,8|0,3:2|0:0,0:0:0:0:
362,272,44216,53,0,3:2:0:0:
256,192,44427,1,0,0:0:0:0:
146,109,44639,1,10,3:2:0:0:
146,109,44744,1,2,0:2:0:0:
146,109,44850,2,0,L|156:180,1,47.8500014602662,2|2,0:2|0:2,0:0:0:0:
159,204,45061,2,0,L|173:306,1,95.7000029205323,2|0,3:2|0:2,0:0:0:0:
362,271,45484,2,0,L|349:176,1,95.7000029205323,8|0,3:2|0:0,0:0:0:0:
240,95,45906,21,4,3:2:0:0:
256,192,46118,1,0,0:0:0:0:
268,285,46329,1,10,3:2:0:0:
268,285,46434,1,2,0:2:0:0:
268,285,46540,2,0,L|212:294,1,47.8500014602662,2|2,0:2|0:2,0:0:0:0:
173,297,46751,2,0,L|159:204,1,95.7000029205323,6|0,3:2|0:2,0:0:0:0:
335,82,47174,2,0,L|349:176,1,95.7000029205323,8|0,3:2|0:0,0:0:0:0:
268,285,47596,53,4,3:2:0:0:
256,192,47808,1,0,0:0:0:0:
240,95,48019,1,14,3:2:0:0:
240,95,48125,1,2,0:2:0:0:
240,95,48230,2,0,L|296:87,1,47.8500014602662,2|2,0:2|0:2,0:0:0:0:
335,82,48442,2,0,L|349:176,1,95.7000029205323,6|4,3:2|0:2,0:0:0:0:
268,285,48864,22,0,L|261:238,3,47.8500014602662,10|2|2|2,3:2|0:2|0:2|0:2,0:0:0:0:
256,192,49287,1,4,3:2:0:0:
159,204,49709,54,0,L|206:197,3,47.8500014602662,10|2|2|2,0:2|0:2|0:2|0:2,0:0:0:0:
256,192,50132,1,2,3:2:0:0:
240,95,50554,22,0,L|247:142,3,47.8500014602662,8|2|0|2,3:2|0:0|0:0|0:0,0:0:0:0:
256,192,50977,2,0,L|302:183,3,47.8500014602662,0|2|0|2,3:2|0:0|0:0|0:0,0:0:0:0:
349,176,51399,2,0,L|342:121,3,47.8500014602662,10|2|2|2,3:2|0:2|0:2|0:2,0:0:0:0:
335,82,51822,2,0,L|146:109,1,191.400005841065,2|8,3:2|3:2,0:0:0:0:
159,204,52456,1,0,0:0:0:0:
174,300,52667,54,0,L|301:282,1,95.7000029205323,4|0,3:2|0:0,0:0:0:0:
362,272,53089,2,0,L|346:154,1,95.7000029205323,10|2,3:2|0:2,0:0:0:0:
335,82,53512,2,0,L|217:98,1,95.7000029205323,6|0,3:2|0:2,0:0:0:0:
146,109,53934,2,0,L|162:227,1,95.7000029205323,8|0,3:2|0:0,0:0:0:0:
174,300,54357,1,4,3:0:0:0:
256,192,54780,2,0,L|262:246,4,47.8500014602662,2|2|2|2|2,0:0|0:0|0:0|0:0|3:2,0:0:0:0:
337,83,55625,2,0,L|351:178,1,95.7000029205323,2|2,0:0|0:0,0:0:0:0:
174,300,56047,22,0,L|147:110,1,191.400005841065,6|2,3:2|3:2,0:0:0:0:
240,95,56681,1,2,0:2:0:0:
335,82,56892,1,2,3:2:0:0:
349,176,57103,1,2,0:2:0:0:
362,272,57314,1,2,3:2:0:0:
268,285,57526,1,2,0:2:0:0:
173,298,57737,54,0,L|157:196,1,95.7000029205323,2|2,3:2|0:2,0:0:0:0:
362,272,58160,2,0,L|260:287,1,95.7000029205323,2|2,3:2|0:2,0:0:0:0:
337,83,58582,2,0,L|351:178,1,95.7000029205323,2|2,3:2|0:2,0:0:0:0:
147,110,59005,2,0,L|242:96,1,95.7000029205323,2|2,3:2|0:2,0:0:0:0:
362,272,59427,22,0,L|173:298,1,191.400005841065,2|2,3:2|3:2,0:0:0:0:
159,204,60061,1,2,0:2:0:0:
146,109,60272,1,2,3:2:0:0:
240,95,60483,1,2,0:2:0:0:
335,82,60694,1,2,3:2:0:0:
349,176,60906,1,2,0:2:0:0:
362,272,61117,54,0,L|260:287,1,95.7000029205323,2|2,3:2|0:2,0:0:0:0:
173,298,61540,2,0,L|157:196,1,95.7000029205323,2|2,3:2|0:2,0:0:0:0:
146,109,61962,2,0,L|248:93,2,95.7000029205323,2|2|2,3:2|3:2|0:2,0:0:0:0:
159,204,62596,1,2,0:2:0:0:
173,298,62808,22,0,L|362:272,1,191.400005841065,6|10,3:2|3:1,0:0:0:0:
349,176,63442,1,2,0:2:0:0:
337,83,63653,1,2,3:2:0:0:
240,95,63864,1,2,0:2:0:0:
256,192,64075,1,10,3:1:0:0:
159,204,64287,1,2,0:2:0:0:
147,110,64498,54,0,L|274:92,1,95.7000029205323,2|2,3:2|0:2,0:0:0:0:
351,178,64920,2,0,L|224:196,1,95.7000029205323,10|2,3:1|0:2,0:0:0:0:
174,300,65343,2,0,L|301:282,1,95.7000029205323,2|2,3:2|0:2,0:0:0:0:
256,192,65765,2,0,L|160:205,1,95.7000029205323,10|2,3:1|0:2,0:0:0:0:
147,110,66188,21,4,3:2:0:0:
337,83,67033,1,4,3:2:0:0:
362,272,67878,1,6,3:2:0:0:
349,176,68089,1,2,3:2:0:0:
256,192,68301,1,2,0:2:0:0:
161,205,68512,1,2,0:2:0:0:
173,298,68723,1,6,3:2:0:0:
146,109,69568,53,12,3:2:0:0:
335,82,69991,1,8,3:2:0:0:
362,272,70413,1,8,3:2:0:0:
173,298,70836,1,8,3:2:0:0:
240,95,71258,1,8,3:2:0:0:
362,272,71681,1,8,3:2:0:0:
173,298,72103,1,8,3:2:0:0:
173,298,72949,21,12,3:2:0:0:
362,272,73372,1,8,3:2:0:0:
335,82,73794,1,8,3:2:0:0:
146,109,74217,1,8,3:2:0:0:
268,285,74639,1,8,3:2:0:0:
335,82,75062,1,8,3:2:0:0:
146,109,75484,1,8,3:2:0:0:
146,109,76329,54,0,L|272:91,1,95.7000029205323,12|8,3:2|0:2,0:0:0:0:
335,82,76751,2,0,L|209:100,1,95.7000029205323,8|8,0:2|0:2,0:0:0:0:
256,192,77174,2,0,L|192:200,3,47.8500014602662,8|8|8|8,0:2|0:2|0:2|0:2,0:0:0:0:
160,205,77596,2,0,L|169:268,3,47.8500014602662,8|8|8|8,0:2|0:2|0:2|0:2,0:0:0:0:
174,300,78019,22,0,L|268:287,1,95.7000029205323,12|8,3:2|0:2,0:0:0:0:
364,273,78441,2,0,L|270:286,1,95.7000029205323,8|8,0:2|0:2,0:0:0:0:
256,192,78864,2,0,L|319:183,3,47.8500014602662,8|8|8|8,0:2|0:2|0:2|0:2,0:0:0:0:
351,178,79287,2,0,L|342:115,3,47.8500014602662,8|8|8|8,0:2|0:2|0:2|0:2,0:0:0:0:
337,83,79709,54,0,L|242:96,1,95.7000029205323,12|8,3:2|0:2,0:0:0:0:
160,205,80132,2,0,L|167:252,3,47.8500014602662,8|8|8|8,0:2|0:2|0:2|0:2,0:0:0:0:
174,300,80554,2,0,L|269:287,1,95.7000029205323,12|8,3:2|0:2,0:0:0:0:
351,178,80977,2,0,L|342:115,3,47.8500014602662,8|8|8|8,0:2|0:2|0:2|0:2,0:0:0:0:
337,83,81399,21,12,3:2:0:0:
242,96,81716,2,0,L|177:106,1,47.8500014602662,12|0,3:2|0:0,0:0:0:0:
147,110,81927,2,0,L|156:173,1,47.8500014602662,12|12,3:2|3:2,0:0:0:0:
167,252,82244,1,12,3:2:0:0:
364,273,82667,5,0,0:0:0:0:
364,273,82773,1,0,0:0:0:0:
364,273,82878,2,0,L|355:210,1,47.8500014602662
351,178,83089,22,0,L|256:192,1,95.7000029205323,6|2,3:2|0:2,0:0:0:0:
242,96,83512,2,0,L|256:192,1,95.7000029205323,2|2,3:2|0:2,0:0:0:0:
160,205,83934,2,0,L|256:192,1,95.7000029205323,2|2,3:2|0:2,0:0:0:0:
269,287,84357,2,0,L|256:192,1,95.7000029205323,2|2,3:2|0:2,0:0:0:0:
242,96,84780,53,2,3:2:0:0:
147,110,84991,1,2,0:2:0:0:
160,205,85202,1,2,3:2:0:0:
174,300,85413,1,2,0:2:0:0:
269,287,85625,1,2,3:2:0:0:
364,273,85836,1,2,0:2:0:0:
351,178,86047,2,0,L|344:131,3,47.8500014602662,2|2|2|2,3:2|0:0|0:2|0:0,0:0:0:0:
337,83,86470,22,0,L|243:96,1,95.7000029205323,2|2,3:2|0:2,0:0:0:0:
147,110,86892,2,0,L|160:205,1,95.7000029205323,2|2,3:2|0:2,0:0:0:0:
174,300,87315,2,0,L|269:287,1,95.7000029205323,2|2,3:2|0:2,0:0:0:0:
364,273,87737,2,0,L|351:178,1,95.7000029205323,2|2,3:2|0:2,0:0:0:0:
337,83,88160,1,2,3:2:0:0:
242,96,88371,1,2,0:2:0:0:
147,110,88582,1,2,3:2:0:0:
159,204,88794,1,2,0:2:0:0:
174,300,89005,1,2,3:2:0:0:
364,273,89427,5,2,0:2:0:0:
364,273,89533,1,2,0:2:0:0:
364,273,89639,2,0,L|355:210,1,47.8500014602662,2|2,0:2|0:2,0:0:0:0:
351,178,89850,22,0,L|337:83,1,95.7000029205323,6|2,3:2|0:2,0:0:0:0:
269,287,90273,2,0,L|256:192,1,95.7000029205323,10|2,3:1|0:2,0:0:0:0:
160,205,90695,2,0,L|147:110,1,95.7000029205323,2|2,3:2|0:2,0:0:0:0:
242,96,91118,2,0,L|337:83,1,95.7000029205323,10|2,3:1|0:2,0:0:0:0:
351,178,91540,1,2,3:2:0:0:
364,273,91751,1,2,0:2:0:0:
269,287,91963,2,0,L|174:300,1,95.7000029205323,10|2,3:1|0:2,0:0:0:0:
160,205,92385,1,2,3:2:0:0:
184,202,92491,1,2,0:0:0:0:
208,198,92596,1,2,0:2:0:0:
232,195,92702,1,2,0:0:0:0:
256,192,92808,2,0,L|311:184,3,47.8500014602662,10|2|2|2,3:1|0:0|0:2|0:0,0:0:0:0:
351,178,93230,54,0,L|335:67,1,95.7000029205323,2|2,3:2|0:2,0:0:0:0:
242,96,93653,1,10,3:1:0:0:
147,110,93864,2,0,L|162:213,1,95.7000029205323,2|2,0:2|3:2,0:0:0:0:
174,300,94287,1,2,0:2:0:0:
269,287,94498,2,0,L|332:278,3,47.8500014602662,10|2|2|2,3:1|0:0|0:2|0:0,0:0:0:0:
364,273,94920,2,0,L|356:218,3,47.8500014602662,2|2|2|2,3:2|0:0|0:2|0:0,0:0:0:0:
351,178,95343,2,0,L|343:123,3,47.8500014602662,10|2|2|2,3:1|0:0|0:2|0:0,0:0:0:0:
336,81,95765,1,2,3:2:0:0:
174,300,96188,5,2,3:2:0:0:
174,300,96294,1,2,0:2:0:0:
174,300,96399,2,0,L|166:245,1,47.8500014602662,2|2,0:2|0:2,0:0:0:0:
160,205,96611,54,0,L|256:192,1,95.7000029205323,6|2,3:2|0:2,0:0:0:0:
269,287,97034,2,0,L|256:192,1,95.7000029205323,10|2,3:1|0:2,0:0:0:0:
351,178,97456,2,0,L|256:192,1,95.7000029205323,2|2,3:2|0:2,0:0:0:0:
242,96,97879,2,0,L|256:192,1,95.7000029205323,10|2,3:1|0:2,0:0:0:0:
269,287,98302,21,2,3:2:0:0:
364,273,98513,1,2,0:2:0:0:
351,178,98724,1,10,3:1:0:0:
337,83,98935,1,2,0:2:0:0:
242,96,99147,1,2,3:2:0:0:
147,110,99358,1,2,0:2:0:0:
160,205,99569,2,0,L|167:252,3,47.8500014602662,10|2|2|2,3:1|0:0|0:2|0:0,0:0:0:0:
174,300,99992,54,0,L|268:287,1,95.7000029205323,2|2,3:2|0:2,0:0:0:0:
364,273,100414,2,0,L|351:178,1,95.7000029205323,10|2,3:1|0:2,0:0:0:0:
337,83,100837,2,0,L|242:96,1,95.7000029205323,2|2,3:2|0:2,0:0:0:0:
147,110,101259,2,0,L|160:205,1,95.7000029205323,10|2,3:1|0:2,0:0:0:0:
174,300,101682,21,2,3:2:0:0:
269,287,101893,1,2,0:2:0:0:
364,273,102104,1,10,3:1:0:0:
352,179,102316,1,2,0:2:0:0:
337,83,102527,1,2,3:2:0:0:
147,110,102949,5,10,0:1:0:0:
147,110,103054,1,2,0:2:0:0:
147,110,103160,2,0,L|156:173,1,47.8500014602662,2|2,0:2|0:2,0:0:0:0:
160,205,103372,22,0,L|174:300,1,95.7000029205323,6|2,3:2|0:2,0:0:0:0:
242,96,103795,2,0,L|256:192,1,95.7000029205323,10|2,3:1|0:2,0:0:0:0:
351,178,104217,2,0,L|364:273,1,95.7000029205323,2|2,3:2|0:2,0:0:0:0:
269,287,104640,2,0,L|174:300,1,95.7000029205323,10|2,3:1|0:2,0:0:0:0:
160,205,105062,1,6,3:2:0:0:
147,110,105273,1,2,0:2:0:0:
242,96,105485,2,0,L|337:83,1,95.7000029205323,10|2,3:1|0:2,0:0:0:0:
351,178,105907,1,2,3:2:0:0:
327,181,106013,1,2,0:0:0:0:
303,185,106118,1,2,0:2:0:0:
279,188,106224,1,2,0:0:0:0:
256,192,106330,2,0,L|200:199,3,47.8500014602662,10|2|2|2,3:1|0:0|0:2|0:0,0:0:0:0:
160,205,106752,54,0,L|176:316,2,95.7000029205323,6|2|10,3:2|0:2|3:1,0:0:0:0:
147,110,107385,2,0,L|266:93,1,95.7000029205323,2|2,0:2|3:2,0:0:0:0:
337,83,107808,1,2,0:2:0:0:
351,178,108019,1,10,3:1:0:0:
351,178,108125,1,2,0:0:0:0:
351,178,108230,2,0,L|358:234,1,47.8500014602662,2|2,0:2|0:0,0:0:0:0:
364,273,108442,2,0,L|308:281,3,47.8500014602662,2|2|2|2,3:2|0:0|0:2|0:0,0:0:0:0:
268,285,108864,2,0,L|212:293,3,47.8500014602662,10|2|2|2,3:1|0:0|0:2|0:0,0:0:0:0:
175,301,109287,1,2,3:2:0:0:
147,110,109709,53,2,3:2:0:0:
242,96,109921,1,2,0:2:0:0:
337,83,110132,1,6,3:2:0:0:
146,109,116892,21,12,0:2:0:0:
240,95,117315,1,8,0:2:0:0:
335,82,117737,1,8,0:2:0:0:
349,176,118160,1,8,0:2:0:0:
362,272,118582,1,14,0:2:0:0:
268,285,119005,1,8,0:2:0:0:
173,298,119427,1,8,0:2:0:0:
159,204,119850,1,0,3:0:0:0:
159,204,120273,53,12,0:2:0:0:
173,298,120696,1,8,0:2:0:0:
268,285,121118,1,8,0:2:0:0:
362,272,121541,1,8,0:2:0:0:
349,176,121963,1,12,3:2:0:0:
335,82,122386,1,12,3:2:0:0:
240,95,122808,1,12,3:2:0:0:
173,298,123653,22,0,L|291:283,1,95.7000029205323,12|8,3:2|0:2,0:0:0:0:
362,272,124075,2,0,L|346:154,1,95.7000029205323,8|8,0:2|0:2,0:0:0:0:
335,82,124498,2,0,L|256:93,3,47.8500014602662,8|8|8|8,0:2|0:2|0:2|0:2,0:0:0:0:
240,95,124920,2,0,L|161:106,3,47.8500014602662,8|8|8|8,0:2|0:2|0:2|0:2,0:0:0:0:
146,109,125343,54,0,L|162:227,1,95.7000029205323,12|8,3:2|0:2,0:0:0:0:
173,298,125765,2,0,L|291:283,1,95.7000029205323,8|8,0:2|0:2,0:0:0:0:
362,272,126188,2,0,L|351:192,3,47.8500014602662,8|8|8|8,0:2|0:2|0:2|0:2,0:0:0:0:
349,176,126610,2,0,L|338:97,3,47.8500014602662,8|8|8|8,0:2|0:2|0:2|0:2,0:0:0:0:
335,82,127033,22,0,L|209:100,1,95.7000029205323,12|8,3:2|0:2,0:0:0:0:
147,110,127456,2,0,L|155:165,3,47.8500014602662,8|8|8|8,0:2|0:2|0:2|0:2,0:0:0:0:
159,204,127878,2,0,L|173:306,1,95.7000029205323,12|8,3:2|0:2,0:0:0:0:
268,285,128301,2,0,L|261:238,3,47.8500014602662,8|8|8|8,0:2|0:2|0:2|0:2,0:0:0:0:
256,192,128723,1,12,3:2:0:0:
335,82,129040,1,12,3:2:0:0:
240,95,129251,2,0,L|247:142,1,47.8500014602662,12|12,3:2|3:2,0:0:0:0:
146,109,129568,1,12,3:2:0:0:
174,300,129991,54,0,L|277:285,1,95.7000029205323,2|2,0:0|0:0,0:0:0:0:
362,272,130413,2,0,L|335:82,1,191.400005841065,6|2,3:2|3:2,0:0:0:0:
240,95,131047,1,2,0:2:0:0:
146,109,131258,1,2,3:2:0:0:
159,203,131470,1,2,0:2:0:0:
256,192,131681,1,2,3:2:0:0:
268,285,131892,1,2,0:2:0:0:
172,296,132103,22,0,L|157:186,1,95.7000029205323,2|2,3:2|0:2,0:0:0:0:
361,271,132526,2,0,L|251:287,1,95.7000029205323,2|2,3:2|0:2,0:0:0:0:
336,84,132949,2,0,L|351:194,1,95.7000029205323,2|2,3:2|0:2,0:0:0:0:
147,109,133372,2,0,L|257:93,1,95.7000029205323,2|2,3:2|0:2,0:0:0:0:
268,285,133794,2,0,B|173:298|173:298|155:172,1,191.400005841065,2|2,3:2|3:2,0:0:0:0:
147,109,134427,1,2,0:2:0:0:
240,95,134639,1,2,3:2:0:0:
256,192,134850,1,2,0:2:0:0:
349,176,135061,1,2,3:2:0:0:
335,82,135273,1,2,0:2:0:0:
240,95,135484,54,0,L|146:109,1,95.7000029205323,2|2,3:2|0:2,0:0:0:0:
159,204,135906,2,0,L|173:298,1,95.7000029205323,2|2,3:2|0:2,0:0:0:0:
268,285,136329,2,0,L|362:272,2,95.7000029205323,2|2|2,3:2|3:2|0:2,0:0:0:0:
173,297,136963,1,2,0:2:0:0:
159,204,137174,2,0,L|349:176,1,191.400005841065,6|10,3:2|3:1,0:0:0:0:
335,82,137808,1,2,0:2:0:0:
240,95,138019,1,2,3:2:0:0:
146,109,138230,1,2,0:2:0:0:
159,204,138442,1,10,3:1:0:0:
173,297,138653,1,2,0:2:0:0:
268,285,138864,22,0,L|253:182,1,95.7000029205323,2|2,3:2|0:2,0:0:0:0:
159,204,139287,2,0,L|262:189,1,95.7000029205323,10|2,3:1|0:2,0:0:0:0:
240,95,139709,2,0,L|255:198,1,95.7000029205323,2|2,3:2|0:2,0:0:0:0:
349,176,140132,2,0,L|246:191,1,95.7000029205323,10|2,3:1|0:2,0:0:0:0:
146,109,140554,53,4,3:2:0:0:
268,285,141399,1,4,3:2:0:0:
337,83,142244,1,6,3:2:0:0:
351,178,142456,1,2,3:2:0:0:
256,192,142667,1,2,0:2:0:0:
159,203,142878,1,2,0:2:0:0:
146,109,143089,2,0,L|250:95,1,95.7000029205323,6|0,3:2|3:0,0:0:0:0:
362,272,143934,22,0,L|335:74,1,191.400005841065,6|8,0:0|2:1,0:0:0:0:
146,109,144780,2,0,L|173:298,1,191.400005841065,2|8,0:0|0:1,0:0:0:0:
349,176,145625,2,0,L|294:184,3,47.8500014602662,2|2|2|2,0:0|0:0|0:0|0:0,0:0:0:0:
256,192,146047,2,0,L|198:198,3,47.8500014602662,10|2|2|2,0:1|0:0|0:0|0:0,0:0:0:0:
159,204,146470,2,0,B|146:109|146:109|248:93,1,191.400005841065,2|8,0:0|0:1,0:0:0:0:
362,272,147315,54,0,L|268:285,1,95.7000029205323,2|2,0:0|0:0,0:0:0:0:
335,82,147737,2,0,L|349:176,1,95.7000029205323,10|2,0:1|0:0,0:0:0:0:
256,192,148160,1,2,3:2:0:0:
159,204,148371,2,0,B|173:298|173:298|283:284,1,191.400005841065,2|0,3:2|3:0,0:0:0:0:
362,272,149005,22,0,L|335:82,1,191.400005841065,6|8,3:2|0:1,0:0:0:0:
146,109,149850,2,0,L|173:298,1,191.400005841065,2|8,0:0|0:1,0:0:0:0:
256,192,150695,2,0,L|246:134,3,47.8500014602662
240,95,151118,2,0,L|304:86,3,47.8500014602662,8|0|0|0,0:1|0:0|0:0|0:0,0:0:0:0:
335,82,151540,2,0,B|349:176|349:176|246:191,1,191.400005841065,0|8,0:0|0:1,0:0:0:0:
146,109,152385,53,4,0:0:0:0:
268,285,153230,2,0,L|362:272,2,95.7000029205323,2|2|2,0:0|0:0|0:0,0:0:0:0:
173,297,153864,1,2,0:0:0:0:
159,204,154075,22,0,L|143:93,2,95.7000029205323,4|0|0,3:2|3:2|0:0,0:0:0:0:
349,176,154920,2,0,L|334:66,2,95.7000029205323,4|0|0,3:2|3:2|0:0,0:0:0:0:
269,287,155765,54,0,B|256:192|256:192|145:207,1,191.400005841065,4|0,3:2|0:0,0:0:0:0:
337,83,156611,2,0,L|348:162,3,47.8500014602662,2|2|2|2,3:2|0:2|0:2|0:2,0:0:0:0:
351,178,157033,2,0,L|362:257,3,47.8500014602662,2|2|2|2,3:2|0:2|0:2|0:2,0:0:0:0:
364,273,157456,22,0,B|166:301,1,191.400005841065,2|0,3:2|0:0,0:0:0:0:
240,95,158301,2,0,L|343:80,1,95.7000029205323,6|2,0:0|0:0,0:0:0:0:
349,176,158723,2,0,L|364:279,1,95.7000029205323,10|2,0:1|0:0,0:0:0:0:
268,285,159146,1,2,0:0:0:0:
146,109,159780,1,2,0:0:0:0:
159,204,159991,54,0,L|357:175,1,191.400005841065,6|8,0:0|0:1,0:0:0:0:
240,95,160836,2,0,L|269:293,1,191.400005841065,2|8,0:0|0:1,0:0:0:0:
173,298,161681,2,0,L|162:227,3,47.8500014602662,2|2|2|2,0:0|0:0|0:0|0:0,0:0:0:0:
159,204,162103,2,0,L|149:132,3,47.8500014602662,2|2|2|2,0:0|0:0|0:0|0:0,0:0:0:0:
146,109,162526,2,0,L|351:79,1,191.400005841065,6|8,0:0|0:1,0:0:0:0:
256,192,163371,1,2,0:0:0:0:
362,271,164216,22,0,L|349:175,1,95.7000029205323,2|2,0:0|0:0,0:0:0:0:
334,83,164639,2,0,L|239:95,1,95.7000029205323,2|2,0:0|0:0,0:0:0:0:
146,109,165061,53,4,3:0:0:0:
173,298,165695,1,0,0:0:0:0:
173,298,165906,1,4,3:2:0:0:
362,272,166540,1,2,3:2:0:0:
362,272,166751,1,6,3:2:0:0:
335,82,167385,1,2,3:2:0:0:
335,82,167596,2,0,L|240:95,1,95.7000029205323,6|2,3:2|3:2,0:0:0:0:
159,204,168019,2,0,L|256:192,1,95.7000029205323,6|2,3:2|3:2,0:0:0:0:
362,272,168442,21,6,3:2:0:0:
349,176,168864,1,2,0:0:0:0:
335,82,169287,1,6,0:0:0:0:
256,192,169498,12,6,170977,0:0:0:0:
