osu file format v14

[General]
AudioFilename: audio.mp3
AudioLeadIn: 1500
PreviewTime: 28537
Countdown: 0
SampleSet: Soft
StackLeniency: 0
Mode: 0
LetterboxInBreaks: 1
WidescreenStoryboard: 1

[Editor]
Bookmarks: 228,12949,15439,28960,42481,56002,69523,83044,96566,110087,116847,130368,143889,155720,165861
DistanceSpacing: 0.8
BeatDivisor: 4
GridSize: 8
TimelineZoom: 2.3

[Metadata]
Title:Rondo Alla Turca (Ryu* Remix)
TitleUnicode:Rondo Alla Turca (Ryu☆Remix)
Artist:Ryu*
ArtistUnicode:Ryu☆
Creator:-Tynamo
Version:Extra
Source:
Tags:Kischer Marsch AGEHA Streams Turkish March Mozart Sonata electronic instrumental exit tunes
BeatmapID:2825079
BeatmapSetID:1364962

[Difficulty]
HPDrainRate:4.5
CircleSize:5
OverallDifficulty:9
ApproachRate:6.2
SliderMultiplier:1.74
SliderTickRate:1

[Events]
//Background and Video events
0,0,"purple_pentagon.png",0,0
//Break Periods
2,110332,115767
//Storyboard Layer 0 (Background)
//Storyboard Layer 1 (Fail)
//Storyboard Layer 2 (Pass)
//Storyboard Layer 3 (Foreground)
//Storyboard Layer 4 (Overlay)
//Storyboard Sound Samples

[TimingPoints]
273,422.535211267606,4,2,1,50,1,0
273,-90.9090909090909,4,2,1,50,0,0
28582,-90.9090909090909,4,2,1,65,0,0
56047,-90.9090909090909,4,2,1,75,0,1
66188,-90.9090909090909,4,2,1,75,0,0
69568,-90.9090909090909,4,2,1,65,0,0
83089,-90.9090909090909,4,2,1,70,0,1
96188,-90.9090909090909,4,2,1,70,0,0
96611,-90.9090909090909,4,2,1,70,0,1
106751,-90.9090909090909,4,2,1,70,0,1
109287,-105.263157894737,4,2,1,70,0,1
110132,-90.9090909090909,4,2,1,50,0,0
123653,-90.9090909090909,4,2,1,60,0,0
127033,-90.9090909090909,4,2,1,65,0,0
130413,-90.9090909090909,4,2,1,75,0,1
140554,-90.9090909090909,4,2,1,75,0,0
143934,-90.9090909090909,4,2,1,50,0,0

[Colours]
Combo1 : 194,158,245
Combo2 : 94,31,181
Combo3 : 156,88,247
Combo4 : 128,43,248

[HitObjects]
256,192,273,21,12,0:0:0:0:
179,336,1963,1,12,3:2:0:0:
93,164,2385,1,0,3:2:0:0:
231,30,2808,1,0,3:2:0:0:
402,118,3230,1,0,3:2:0:0:
371,308,3653,1,0,3:2:0:0:
179,336,4075,1,0,3:2:0:0:
93,164,4497,1,0,3:2:0:0:
231,30,4920,1,0,3:2:0:0:
402,118,5343,6,0,L|368:326,1,191.400005841065,0|0,3:2|3:2,0:0:0:0:
371,307,6188,2,0,L|163:339,1,191.400005841065,0|0,3:2|3:2,0:0:0:0:
182,336,7033,1,0,3:2:0:0:
96,166,7456,1,0,3:2:0:0:
231,32,7878,1,0,3:0:0:0:
231,32,8089,1,0,0:0:0:0:
231,32,8512,1,0,0:0:0:0:
95,166,8723,70,0,L|181:337,1,191.400005841065,4|8,3:2|3:1,0:0:0:0:
400,118,9568,2,0,L|230:30,1,191.400005841065,0|8,3:2|3:1,0:0:0:0:
371,306,10413,2,0,L|402:117,1,191.400005841065,0|8,3:2|3:1,0:0:0:0:
95,166,11258,2,0,L|181:337,1,191.400005841065,0|8,3:2|3:1,0:0:0:0:
256,192,11892,1,0,0:0:0:0:
230,31,12103,6,0,L|94:166,1,191.400005841065,0|8,3:2|3:1,0:0:0:0:
371,306,12948,2,0,L|402:117,1,191.400005841065,0|8,3:2|3:1,0:0:0:0:
402,117,13794,1,0,3:2:0:0:
230,31,14216,1,0,3:2:0:0:
94,166,14639,1,0,3:2:0:0:
94,166,14850,1,0,0:0:0:0:
94,166,15273,1,0,0:0:0:0:
230,31,15484,70,0,L|422:126,1,191.400005841065,4|8,3:2|3:1,0:0:0:0:
94,166,16329,2,0,L|244:13,1,191.400005841065,0|8,3:2|3:1,0:0:0:0:
182,337,17174,2,0,L|82:147,1,191.400005841065,0|8,3:2|3:1,0:0:0:0:
371,306,18019,2,0,L|160:342,1,191.400005841065,0|8,3:2|3:1,0:0:0:0:
182,339,18653,1,0,0:0:0:0:
373,306,18864,6,0,L|401:117,1,191.400005841065,0|8,3:2|3:1,0:0:0:0:
93,168,19709,2,0,L|182:337,1,191.400005841065,0|8,3:2|3:1,0:0:0:0:
228,30,20554,69,4,3:2:0:0:
373,306,20977,1,8,3:1:0:0:
93,168,21399,1,0,3:2:0:0:
401,117,21822,1,8,3:1:0:0:
182,339,22244,6,0,L|371:306,1,191.400005841065,4|8,3:2|3:1,0:0:0:0:
228,30,23089,2,0,L|94:166,1,191.400005841065,0|8,3:2|3:1,0:0:0:0:
401,115,23934,70,0,L|229:31,1,191.400005841065,0|8,3:2|3:1,0:0:0:0:
93,168,24779,2,0,L|182:337,1,191.400005841065,0|8,3:2|3:1,0:0:0:0:
182,337,25413,1,0,0:0:0:0:
371,306,25625,5,0,3:2:0:0:
230,31,26047,1,8,3:1:0:0:
182,337,26470,1,0,3:2:0:0:
401,115,26892,1,8,3:1:0:0:
92,164,27315,1,12,3:2:0:0:
256,192,28582,69,2,0:0:0:0:
215,185,28687,1,2,0:0:0:0:
174,178,28793,1,2,0:0:0:0:
134,171,28898,1,2,0:0:0:0:
92,164,29004,1,10,3:2:0:0:
256,192,29427,5,2,3:2:0:0:
249,150,29532,1,2,0:0:0:0:
243,109,29638,1,2,0:0:0:0:
238,69,29743,1,2,0:0:0:0:
231,28,29849,1,10,3:2:0:0:
256,192,30273,69,2,3:2:0:0:
293,172,30378,1,2,0:0:0:0:
330,155,30484,1,2,0:0:0:0:
367,137,30589,1,2,0:0:0:0:
403,117,30696,5,10,3:2:0:0:
394,165,30801,1,2,0:0:0:0:
386,213,30907,1,2,0:0:0:0:
378,260,31012,1,2,0:0:0:0:
370,308,31118,69,2,3:2:0:0:
323,316,31223,1,2,0:0:0:0:
276,323,31329,1,2,0:0:0:0:
227,330,31434,1,2,0:0:0:0:
179,336,31540,6,0,L|88:155,1,191.400005841065,10|0,3:2|3:0,0:0:0:0:
256,192,32174,1,0,0:0:0:0:
370,308,32385,69,10,3:2:0:0:
386,213,32596,1,0,0:0:0:0:
256,192,32808,1,0,3:0:0:0:
313,250,33019,1,0,0:0:0:0:
403,117,33230,5,10,3:2:0:0:
330,155,33442,1,0,0:0:0:0:
231,28,33653,1,0,3:0:0:0:
316,74,33864,1,0,0:0:0:0:
256,192,34075,69,10,3:2:0:0:
243,109,34287,1,0,0:0:0:0:
93,164,34498,1,0,3:0:0:0:
174,178,34709,1,0,0:0:0:0:
256,192,34920,1,8,3:2:0:0:
256,192,35343,5,2,3:2:0:0:
285,221,35449,1,2,0:0:0:0:
314,250,35554,1,2,0:0:0:0:
342,280,35660,1,2,0:0:0:0:
371,308,35765,1,10,3:2:0:0:
256,192,36188,69,10,3:1:0:0:
237,229,36294,1,2,0:0:0:0:
217,265,36399,1,2,0:0:0:0:
198,301,36505,1,2,0:0:0:0:
180,338,36610,1,10,3:2:0:0:
256,192,37033,5,10,3:1:0:0:
214,185,37139,1,2,0:0:0:0:
174,178,37244,1,2,0:0:0:0:
133,171,37350,1,2,0:0:0:0:
93,165,37456,69,10,3:2:0:0:
127,131,37561,1,2,0:0:0:0:
161,97,37667,1,2,0:0:0:0:
196,64,37772,1,2,0:0:0:0:
231,30,37879,5,10,3:1:0:0:
273,51,37984,1,2,0:0:0:0:
316,74,38090,1,2,0:0:0:0:
359,96,38195,1,2,0:0:0:0:
402,118,38301,2,0,L|372:308,1,191.400005841065,10|8,3:2|3:1,0:0:0:0:
256,192,38934,1,0,0:0:0:0:
180,338,39146,69,10,3:2:0:0:
137,250,39357,1,0,0:0:0:0:
256,192,39568,1,8,3:1:0:0:
217,265,39780,1,0,0:0:0:0:
93,165,39991,5,10,3:2:0:0:
174,178,40202,1,0,0:0:0:0:
243,109,40413,1,8,3:1:0:0:
231,30,40625,1,0,0:0:0:0:
93,165,40836,69,12,3:2:0:0:
161,97,41047,1,0,0:0:0:0:
243,109,41258,1,4,0:0:0:0:
256,192,41470,1,0,0:0:0:0:
174,178,41681,1,4,0:0:0:0:
256,192,42103,5,4,0:0:0:0:
256,192,42315,1,0,0:0:0:0:
371,308,42526,69,4,3:2:0:0:
386,213,42737,1,0,0:0:0:0:
256,192,42949,5,10,3:2:0:0:
237,229,43055,1,2,0:2:0:0:
217,265,43160,1,2,0:2:0:0:
198,301,43266,1,2,0:2:0:0:
180,338,43371,1,2,3:2:0:0:
137,250,43582,1,0,0:2:0:0:
93,165,43794,1,8,3:2:0:0:
174,178,44005,1,0,0:0:0:0:
231,30,44216,69,0,3:2:0:0:
256,192,44427,1,0,0:0:0:0:
403,117,44639,5,10,3:2:0:0:
367,137,44744,1,2,0:2:0:0:
330,155,44850,1,2,0:2:0:0:
293,172,44956,1,2,0:2:0:0:
256,192,45061,1,2,3:2:0:0:
243,109,45273,1,0,0:2:0:0:
231,30,45484,1,8,3:2:0:0:
316,74,45695,1,0,0:0:0:0:
256,192,45906,69,4,3:2:0:0:
403,117,46118,1,0,0:0:0:0:
371,308,46329,1,10,3:2:0:0:
342,280,46434,1,2,0:2:0:0:
314,250,46540,1,2,0:2:0:0:
285,221,46645,1,2,0:2:0:0:
256,192,46751,1,6,3:2:0:0:
330,155,46963,1,0,0:2:0:0:
403,117,47174,1,8,3:2:0:0:
386,213,47385,1,0,0:0:0:0:
256,192,47596,1,4,3:2:0:0:
180,338,47808,1,0,0:0:0:0:
93,165,48019,5,14,3:2:0:0:
133,171,48125,1,2,0:2:0:0:
174,178,48231,1,2,0:2:0:0:
214,185,48336,1,2,0:2:0:0:
256,192,48442,1,6,3:2:0:0:
256,192,48653,1,4,0:2:0:0:
256,192,48864,69,10,3:2:0:0:
214,185,48970,1,2,0:2:0:0:
174,178,49075,1,2,0:2:0:0:
133,171,49181,1,2,0:2:0:0:
93,165,49287,1,4,3:2:0:0:
256,192,49709,5,10,0:2:0:0:
237,229,49815,1,2,0:2:0:0:
217,265,49920,1,2,0:2:0:0:
198,301,50026,1,2,0:2:0:0:
179,338,50132,1,2,3:2:0:0:
256,192,50554,69,8,3:2:0:0:
285,221,50660,1,2,0:0:0:0:
314,250,50765,1,0,0:0:0:0:
342,280,50871,1,2,0:0:0:0:
371,309,50977,5,0,3:2:0:0:
378,260,51083,1,2,0:0:0:0:
386,213,51188,1,0,0:0:0:0:
394,165,51294,1,2,0:0:0:0:
403,117,51400,69,10,3:2:0:0:
359,96,51506,1,2,0:2:0:0:
316,74,51611,1,2,0:2:0:0:
273,51,51717,1,2,0:2:0:0:
231,28,51822,2,0,L|91:167,1,191.400005841065,2|8,3:2|3:2,0:0:0:0:
256,192,52456,1,0,0:0:0:0:
403,117,52667,5,4,3:2:0:0:
371,309,52878,1,0,0:0:0:0:
179,338,53089,1,10,3:2:0:0:
93,165,53301,1,2,0:2:0:0:
231,28,53512,1,6,3:2:0:0:
403,117,53723,1,0,0:2:0:0:
256,192,53934,1,8,3:2:0:0:
243,109,54146,1,0,0:0:0:0:
231,28,54357,1,4,3:0:0:0:
231,28,54780,69,2,0:0:0:0:
238,69,54886,1,2,0:0:0:0:
243,109,54991,1,2,0:0:0:0:
249,150,55097,1,2,0:0:0:0:
256,192,55202,1,2,3:2:0:0:
256,192,55625,5,2,0:0:0:0:
256,192,55836,1,2,0:0:0:0:
403,117,56047,70,0,L|226:25,1,191.400005841065,6|2,3:2|3:2,0:0:0:0:
93,165,56681,1,2,0:2:0:0:
179,338,56892,1,2,3:2:0:0:
371,309,57103,1,2,0:2:0:0:
403,117,57315,1,2,3:2:0:0:
231,28,57526,1,2,0:2:0:0:
93,165,57737,5,2,3:2:0:0:
174,178,57949,1,2,0:2:0:0:
231,28,58160,69,2,3:2:0:0:
243,109,58372,1,2,0:2:0:0:
403,118,58582,5,2,3:2:0:0:
330,155,58794,1,2,0:2:0:0:
371,309,59005,69,2,3:2:0:0:
256,192,59217,1,2,0:2:0:0:
179,338,59427,2,0,L|94:166,1,191.400005841065,2|2,3:2|3:2,0:0:0:0:
231,28,60061,1,2,0:2:0:0:
403,118,60273,1,2,3:2:0:0:
371,309,60484,1,2,0:2:0:0:
179,338,60695,1,2,3:2:0:0:
93,165,60906,1,2,0:2:0:0:
231,28,61118,5,2,3:2:0:0:
256,192,61329,1,2,0:2:0:0:
404,117,61540,1,2,3:2:0:0:
256,192,61751,1,2,0:2:0:0:
371,309,61963,2,0,L|165:340,1,191.400005841065,2|2,3:2|0:2,0:0:0:0:
181,337,62596,1,2,0:2:0:0:
93,165,62808,70,0,L|240:21,1,191.400005841065,6|10,3:2|3:1,0:0:0:0:
404,117,63442,1,2,0:2:0:0:
371,309,63653,1,2,3:2:0:0:
181,337,63864,1,2,0:2:0:0:
93,165,64075,1,10,3:1:0:0:
231,28,64287,1,2,0:2:0:0:
330,155,64498,5,2,3:2:0:0:
242,108,64709,1,2,0:2:0:0:
174,178,64920,1,10,3:1:0:0:
217,265,65132,1,2,0:2:0:0:
314,251,65343,1,2,3:2:0:0:
242,108,65554,1,2,0:2:0:0:
179,338,65765,1,10,3:1:0:0:
404,117,65977,1,2,0:2:0:0:
93,165,66188,69,4,3:2:0:0:
371,309,67033,1,4,3:2:0:0:
231,28,67878,1,6,3:2:0:0:
179,338,68089,1,2,3:2:0:0:
404,117,68301,1,2,0:2:0:0:
93,165,68512,1,2,0:2:0:0:
371,309,68723,1,6,3:2:0:0:
371,309,69146,5,2,0:0:0:0:
342,280,69252,1,2,0:0:0:0:
314,250,69358,1,2,0:0:0:0:
285,221,69463,1,2,0:0:0:0:
256,192,69568,69,12,3:2:0:0:
371,309,69991,1,8,3:2:0:0:
93,165,70413,1,8,3:2:0:0:
404,117,70835,1,8,3:2:0:0:
179,338,71259,1,8,3:2:0:0:
236,31,71681,1,8,3:2:0:0:
256,192,72103,1,8,3:2:0:0:
256,192,72949,5,12,3:2:0:0:
236,31,73371,1,8,3:2:0:0:
179,338,73793,1,8,3:2:0:0:
404,117,74217,1,8,3:2:0:0:
93,165,74639,1,8,3:2:0:0:
371,309,75061,1,8,3:2:0:0:
256,192,75484,1,8,3:2:0:0:
256,192,76329,69,12,3:2:0:0:
314,250,76540,1,8,0:2:0:0:
371,309,76751,1,8,0:2:0:0:
386,213,76963,1,8,0:2:0:0:
403,117,77174,5,8,0:2:0:0:
384,126,77280,1,8,0:2:0:0:
366,136,77385,1,8,0:2:0:0:
348,145,77491,1,8,0:2:0:0:
330,155,77596,1,8,0:2:0:0:
311,164,77702,1,8,0:2:0:0:
292,173,77808,1,8,0:2:0:0:
274,182,77913,1,8,0:2:0:0:
256,192,78019,69,12,3:2:0:0:
244,110,78230,1,8,0:2:0:0:
234,29,78441,1,8,0:2:0:0:
164,96,78653,1,8,0:2:0:0:
93,163,78864,5,8,0:2:0:0:
114,167,78970,1,8,0:2:0:0:
134,170,79075,1,8,0:2:0:0:
154,174,79181,1,8,0:2:0:0:
174,177,79286,1,8,0:2:0:0:
195,181,79392,1,8,0:2:0:0:
215,185,79498,1,8,0:2:0:0:
235,189,79603,1,8,0:2:0:0:
256,192,79709,69,12,3:2:0:0:
179,338,79920,1,8,0:2:0:0:
371,309,80132,5,8,0:2:0:0:
342,280,80238,1,8,0:2:0:0:
314,250,80344,1,8,0:2:0:0:
285,221,80449,1,8,0:2:0:0:
256,192,80554,1,12,3:2:0:0:
403,117,80765,1,8,0:2:0:0:
231,29,80977,69,8,0:2:0:0:
238,70,81083,1,8,0:2:0:0:
243,110,81189,1,8,0:2:0:0:
249,151,81294,1,8,0:2:0:0:
256,192,81399,1,12,3:2:0:0:
179,338,81716,1,12,3:2:0:0:
93,163,81927,1,12,3:2:0:0:
93,163,82033,1,12,3:2:0:0:
231,29,82244,1,12,3:2:0:0:
256,192,82667,1,0,0:0:0:0:
256,192,82773,1,0,0:0:0:0:
256,192,82878,1,0,0:0:0:0:
256,192,82984,1,0,0:0:0:0:
256,192,83089,5,6,3:2:0:0:
271,206,83195,1,2,0:0:0:0:
285,220,83300,1,2,0:2:0:0:
299,235,83406,1,2,0:0:0:0:
314,250,83512,1,2,3:2:0:0:
329,264,83617,1,2,0:0:0:0:
343,279,83723,1,2,0:2:0:0:
358,293,83828,1,2,0:0:0:0:
371,309,83934,2,0,L|312:319,3,47.8500014602662,2|2|2|2,3:2|0:0|0:2|0:0,0:0:0:0:
179,338,84357,2,0,L|154:280,3,47.8500014602662,2|2|2|2,3:2|0:0|0:2|0:0,0:0:0:0:
92,166,84780,69,2,3:2:0:0:
113,170,84886,1,2,0:0:0:0:
134,172,84991,1,2,0:2:0:0:
153,175,85097,1,2,0:0:0:0:
174,178,85202,1,2,3:2:0:0:
195,182,85308,1,2,0:0:0:0:
215,186,85414,1,2,0:2:0:0:
235,189,85519,1,2,0:0:0:0:
256,192,85625,1,2,3:2:0:0:
231,29,85836,1,2,0:2:0:0:
256,192,86047,1,2,3:2:0:0:
256,192,86153,1,2,0:0:0:0:
256,192,86258,1,2,0:2:0:0:
256,192,86364,1,2,0:0:0:0:
256,192,86470,5,2,3:2:0:0:
274,181,86576,1,2,0:0:0:0:
292,173,86681,1,2,0:2:0:0:
311,163,86787,1,2,0:0:0:0:
330,155,86893,1,2,3:2:0:0:
348,145,86998,1,2,0:0:0:0:
366,136,87104,1,2,0:2:0:0:
384,125,87209,1,2,0:0:0:0:
403,117,87315,2,0,L|395:167,3,47.8500014602662,2|2|2|2,3:2|0:0|0:2|0:0,0:0:0:0:
372,308,87737,2,0,L|324:317,3,47.8500014602662,2|2|2|2,3:2|0:0|0:2|0:0,0:0:0:0:
181,339,88160,69,2,3:2:0:0:
191,320,88266,1,2,0:0:0:0:
199,301,88371,1,2,0:2:0:0:
209,284,88477,1,2,0:0:0:0:
217,265,88582,1,2,3:2:0:0:
227,246,88688,1,2,0:0:0:0:
238,228,88794,1,2,0:2:0:0:
247,210,88899,1,2,0:0:0:0:
256,192,89005,1,2,3:2:0:0:
403,117,89427,5,2,0:2:0:0:
366,137,89533,1,2,0:2:0:0:
329,154,89639,1,2,0:2:0:0:
292,172,89744,1,2,0:2:0:0:
256,192,89850,69,6,3:2:0:0:
252,172,89956,1,2,0:0:0:0:
249,152,90061,1,2,0:2:0:0:
247,131,90167,1,2,0:0:0:0:
244,110,90273,1,10,3:1:0:0:
239,89,90378,1,2,0:0:0:0:
238,70,90484,1,2,0:2:0:0:
233,50,90589,1,2,0:0:0:0:
230,28,90695,2,0,L|189:71,3,47.8500014602662,2|2|2|2,3:2|0:0|0:2|0:0,0:0:0:0:
93,166,91118,2,0,L|119:216,3,47.8500014602662,10|2|2|2,3:1|0:0|0:2|0:0,0:0:0:0:
181,339,91540,5,2,3:2:0:0:
191,320,91646,1,2,0:0:0:0:
199,301,91751,1,2,0:2:0:0:
209,284,91857,1,2,0:0:0:0:
217,265,91962,1,10,3:1:0:0:
227,246,92068,1,2,0:0:0:0:
238,228,92174,1,2,0:2:0:0:
247,210,92279,1,2,0:0:0:0:
256,192,92385,69,2,3:2:0:0:
270,206,92491,1,2,0:0:0:0:
284,220,92596,1,2,0:2:0:0:
298,236,92702,1,2,0:0:0:0:
313,251,92808,1,10,3:1:0:0:
328,265,92913,1,2,0:0:0:0:
342,279,93019,1,2,0:2:0:0:
357,293,93124,1,2,0:0:0:0:
372,308,93230,2,0,L|379:257,3,47.8500014602662,2|2|2|2,3:2|0:0|0:2|0:0,0:0:0:0:
403,117,93653,2,0,L|357:94,3,47.8500014602662,10|2|2|2,3:1|0:0|0:2|0:0,0:0:0:0:
230,28,94075,2,0,L|188:70,1,47.8500014602662,2|2,3:2|0:0,0:0:0:0:
93,165,94287,1,2,0:2:0:0:
93,165,94392,1,2,0:0:0:0:
93,165,94498,5,10,3:1:0:0:
134,171,94604,1,2,0:0:0:0:
173,179,94710,1,2,0:2:0:0:
214,185,94815,1,2,0:0:0:0:
256,192,94920,69,2,3:2:0:0:
237,229,95026,1,2,0:0:0:0:
218,265,95132,1,2,0:2:0:0:
198,301,95237,1,2,0:0:0:0:
181,339,95343,5,10,3:1:0:0:
160,294,95449,1,2,0:0:0:0:
138,251,95554,1,2,0:2:0:0:
117,208,95660,1,2,0:0:0:0:
93,165,95765,1,2,3:2:0:0:
256,192,96188,1,2,3:2:0:0:
256,192,96294,1,2,0:2:0:0:
256,192,96399,1,2,0:2:0:0:
256,192,96505,1,2,0:2:0:0:
256,192,96611,69,6,3:2:0:0:
274,182,96717,1,2,0:0:0:0:
292,172,96822,1,2,0:2:0:0:
311,164,96928,1,2,0:0:0:0:
330,155,97034,1,10,3:1:0:0:
349,145,97139,1,2,0:0:0:0:
366,136,97245,1,2,0:2:0:0:
384,125,97350,1,2,0:0:0:0:
403,116,97456,2,0,L|348:90,3,47.8500014602662,2|2|2|2,3:2|0:0|0:2|0:0,0:0:0:0:
230,27,97878,2,0,L|192:68,3,47.8500014602662,10|2|2|2,3:1|0:0|0:2|0:0,0:0:0:0:
93,166,98301,5,2,3:2:0:0:
114,169,98407,1,2,0:0:0:0:
134,171,98512,1,2,0:2:0:0:
153,175,98618,1,2,0:0:0:0:
174,177,98723,1,10,3:1:0:0:
195,181,98829,1,2,0:0:0:0:
216,186,98935,1,2,0:2:0:0:
236,189,99040,1,2,0:0:0:0:
256,192,99146,1,2,3:2:0:0:
181,339,99357,1,2,0:2:0:0:
256,192,99568,1,10,3:1:0:0:
256,192,99674,1,2,0:0:0:0:
256,192,99780,1,2,0:2:0:0:
256,192,99885,1,2,0:0:0:0:
256,192,99991,69,2,3:2:0:0:
270,206,100097,1,2,0:0:0:0:
284,220,100202,1,2,0:2:0:0:
298,236,100308,1,2,0:0:0:0:
313,251,100414,1,10,3:1:0:0:
328,265,100519,1,2,0:0:0:0:
342,279,100625,1,2,0:2:0:0:
357,293,100730,1,2,0:0:0:0:
372,308,100836,2,0,L|380:254,3,47.8500014602662,2|2|2|2,3:2|0:0|0:2|0:0,0:0:0:0:
403,117,101258,2,0,L|352:90,3,47.8500014602662,10|2|2|2,3:1|0:0|0:2|0:0,0:0:0:0:
230,28,101681,5,2,3:2:0:0:
233,50,101787,1,2,0:0:0:0:
238,70,101892,1,2,0:2:0:0:
239,89,101998,1,2,0:0:0:0:
244,110,102103,1,10,3:1:0:0:
247,131,102209,1,2,0:0:0:0:
249,152,102315,1,2,0:2:0:0:
252,172,102420,1,2,0:0:0:0:
256,192,102526,1,2,3:2:0:0:
181,339,102949,69,10,0:1:0:0:
198,301,103054,1,2,0:2:0:0:
218,265,103160,1,2,0:2:0:0:
237,229,103265,1,2,0:2:0:0:
256,192,103371,5,6,3:2:0:0:
236,189,103477,1,2,0:0:0:0:
216,186,103582,1,2,0:2:0:0:
195,181,103688,1,2,0:0:0:0:
174,177,103794,1,10,3:1:0:0:
153,175,103899,1,2,0:0:0:0:
134,171,104005,1,2,0:2:0:0:
114,169,104110,1,2,0:0:0:0:
93,166,104216,2,0,L|138:118,3,47.8500014602662,2|2|2|2,3:2|0:0|0:2|0:0,0:0:0:0:
230,28,104639,2,0,L|280:53,3,47.8500014602662,10|2|2|2,3:1|0:0|0:2|0:0,0:0:0:0:
403,117,105061,69,6,3:2:0:0:
383,126,105167,1,2,0:0:0:0:
366,137,105272,1,2,0:2:0:0:
348,145,105378,1,2,0:0:0:0:
330,155,105483,1,10,3:1:0:0:
311,165,105589,1,2,0:0:0:0:
291,173,105695,1,2,0:2:0:0:
273,182,105800,1,2,0:0:0:0:
256,192,105906,5,2,3:2:0:0:
237,229,106012,1,2,0:0:0:0:
218,265,106118,1,2,0:2:0:0:
198,301,106223,1,2,0:0:0:0:
181,339,106329,2,0,L|156:284,3,47.8500014602662,10|2|2|2,3:1|0:0|0:2|0:0,0:0:0:0:
93,166,106751,69,6,3:2:0:0:
127,131,106856,1,2,0:0:0:0:
161,97,106962,1,2,0:2:0:0:
196,64,107067,1,2,0:0:0:0:
231,30,107174,5,10,3:1:0:0:
273,51,107279,1,2,0:0:0:0:
316,74,107385,1,2,0:2:0:0:
359,96,107490,1,2,0:0:0:0:
403,117,107596,2,0,L|392:178,1,47.8500014602662,2|2,3:2|0:0,0:0:0:0:
372,308,107808,1,2,0:2:0:0:
372,308,107913,1,2,0:0:0:0:
372,308,108019,1,10,3:1:0:0:
358,294,108125,1,2,0:0:0:0:
344,280,108230,1,2,0:2:0:0:
330,266,108336,1,2,0:0:0:0:
317,253,108442,1,2,3:2:0:0:
330,266,108548,1,2,0:0:0:0:
344,280,108654,1,2,0:2:0:0:
358,294,108759,1,2,0:0:0:0:
372,308,108865,1,10,3:1:0:0:
345,280,108970,1,2,0:0:0:0:
318,253,109075,1,2,0:2:0:0:
290,225,109181,1,2,0:0:0:0:
256,192,109287,70,0,L|80:164,1,165.299995586014,2|2,3:2|3:2,0:0:0:0:
93,166,109920,1,2,0:2:0:0:
256,192,110132,1,6,3:2:0:0:
256,192,116892,5,12,0:2:0:0:
314,250,117315,1,8,0:2:0:0:
371,309,117737,1,8,0:2:0:0:
314,250,118160,1,8,0:2:0:0:
256,192,118582,69,14,0:2:0:0:
174,179,119005,1,8,0:2:0:0:
94,164,119427,1,8,0:2:0:0:
174,179,119850,1,0,3:0:0:0:
256,192,120273,5,12,0:2:0:0:
329,154,120696,1,8,0:2:0:0:
402,118,121118,1,8,0:2:0:0:
329,154,121541,1,8,0:2:0:0:
256,192,121963,69,12,3:2:0:0:
256,192,122174,1,0,0:0:0:0:
218,265,122385,1,12,3:2:0:0:
218,265,122596,1,0,0:0:0:0:
180,337,122808,1,12,3:2:0:0:
180,337,123653,5,12,3:2:0:0:
218,265,123864,1,8,0:2:0:0:
256,192,124075,1,8,0:2:0:0:
256,192,124287,1,8,0:2:0:0:
256,192,124498,69,8,0:2:0:0:
236,189,124604,1,8,0:2:0:0:
216,186,124709,1,8,0:2:0:0:
195,181,124815,1,8,0:2:0:0:
174,177,124921,1,8,0:2:0:0:
153,175,125026,1,8,0:2:0:0:
134,171,125132,1,8,0:2:0:0:
114,169,125237,1,8,0:2:0:0:
94,164,125343,5,12,3:2:0:0:
174,178,125554,1,8,0:2:0:0:
256,192,125765,1,8,0:2:0:0:
256,192,125977,1,8,0:2:0:0:
256,192,126188,69,8,0:2:0:0:
252,172,126294,1,8,0:2:0:0:
249,152,126399,1,8,0:2:0:0:
247,130,126505,1,8,0:2:0:0:
244,109,126611,1,8,0:2:0:0:
240,88,126716,1,8,0:2:0:0:
238,69,126822,1,8,0:2:0:0:
233,49,126927,1,8,0:2:0:0:
230,28,127033,5,12,3:2:0:0:
256,192,127244,1,8,0:2:0:0:
403,117,127456,69,8,0:2:0:0:
367,137,127561,1,8,0:2:0:0:
330,155,127667,1,8,0:2:0:0:
293,172,127773,1,8,0:2:0:0:
256,192,127878,1,12,3:2:0:0:
403,117,128089,1,8,0:2:0:0:
372,308,128301,5,8,0:2:0:0:
342,280,128406,1,8,0:2:0:0:
314,250,128512,1,8,0:2:0:0:
286,221,128618,1,8,0:2:0:0:
256,192,128723,1,12,3:2:0:0:
372,308,129040,1,12,3:2:0:0:
180,337,129251,1,12,3:2:0:0:
180,337,129357,1,12,3:2:0:0:
256,192,129568,1,12,3:2:0:0:
256,192,129991,69,2,0:0:0:0:
256,192,130202,1,2,0:0:0:0:
93,165,130413,6,0,L|233:22,1,191.400005841065,6|2,3:2|3:2,0:0:0:0:
403,114,131047,1,2,0:2:0:0:
375,306,131258,1,2,3:2:0:0:
183,337,131469,1,2,0:2:0:0:
93,165,131681,1,2,3:2:0:0:
229,27,131892,1,2,0:2:0:0:
403,114,132103,69,2,3:2:0:0:
330,152,132315,1,2,0:2:0:0:
229,27,132526,5,2,3:2:0:0:
243,108,132738,1,2,0:2:0:0:
94,166,132948,69,2,3:2:0:0:
175,178,133160,1,2,0:2:0:0:
183,337,133371,5,2,3:2:0:0:
256,191,133583,1,2,0:2:0:0:
375,306,133793,2,0,L|402:116,1,191.400005841065,2|2,3:2|3:2,0:0:0:0:
229,27,134427,1,2,0:2:0:0:
94,166,134639,1,2,3:2:0:0:
183,337,134850,1,2,0:2:0:0:
375,306,135061,1,2,3:2:0:0:
403,114,135272,1,2,0:2:0:0:
229,27,135484,69,2,3:2:0:0:
256,191,135695,1,2,0:2:0:0:
92,165,135906,1,2,3:2:0:0:
256,191,136117,1,2,0:2:0:0:
183,337,136329,2,0,L|389:303,1,191.400005841065,2|2,3:2|0:2,0:0:0:0:
371,305,136963,1,2,0:2:0:0:
403,114,137174,6,0,L|215:20,1,191.400005841065,6|10,3:2|3:1,0:0:0:0:
92,165,137808,1,2,0:2:0:0:
183,337,138019,1,2,3:2:0:0:
371,305,138230,1,2,0:2:0:0:
403,114,138441,1,10,3:1:0:0:
230,28,138653,1,2,0:2:0:0:
175,178,138864,69,2,3:2:0:0:
244,106,139075,1,2,0:2:0:0:
330,152,139286,1,10,3:1:0:0:
316,248,139498,1,2,0:2:0:0:
219,265,139709,1,2,3:2:0:0:
244,106,139920,1,2,0:2:0:0:
375,306,140131,1,10,3:1:0:0:
92,165,140343,1,2,0:2:0:0:
403,114,140554,5,4,3:2:0:0:
183,337,141399,1,4,3:2:0:0:
231,28,142244,1,6,3:2:0:0:
375,306,142455,1,2,3:2:0:0:
92,165,142667,1,2,0:2:0:0:
403,114,142878,1,2,0:2:0:0:
183,337,143089,1,6,3:2:0:0:
183,337,143301,1,0,3:0:0:0:
375,306,143934,70,0,L|404:110,1,191.400005841065,6|8,0:0|2:1,0:0:0:0:
92,165,144780,2,0,L|183:338,1,191.400005841065,2|8,0:0|0:1,0:0:0:0:
256,192,145625,5,2,0:0:0:0:
252,171,145731,1,2,0:0:0:0:
249,151,145836,1,2,0:0:0:0:
246,130,145942,1,2,0:0:0:0:
243,109,146048,1,10,0:1:0:0:
240,88,146153,1,2,0:0:0:0:
237,69,146259,1,2,0:0:0:0:
232,49,146364,1,2,0:0:0:0:
230,27,146470,2,0,L|404:114,1,191.400005841065,2|8,0:0|0:1,0:0:0:0:
175,178,147315,69,2,0:0:0:0:
244,106,147526,1,2,0:0:0:0:
330,152,147737,1,10,0:1:0:0:
316,248,147949,1,2,0:0:0:0:
219,265,148160,1,2,3:2:0:0:
256,192,148371,1,2,3:2:0:0:
256,192,148794,1,0,3:0:0:0:
183,337,149005,6,0,L|93:168,1,191.400005841065,6|8,3:2|0:1,0:0:0:0:
229,31,149850,2,0,L|401:115,1,191.400005841065,2|8,0:0|0:1,0:0:0:0:
256,192,150695,69,0,0:0:0:0:
271,206,150801,1,0,0:0:0:0:
285,220,150906,1,0,0:0:0:0:
299,235,151012,1,0,0:0:0:0:
314,251,151118,1,8,0:1:0:0:
329,266,151223,1,0,0:0:0:0:
342,279,151329,1,0,0:0:0:0:
358,293,151434,1,0,0:0:0:0:
374,310,151540,2,0,L|180:337,1,191.400005841065,0|8,0:0|0:1,0:0:0:0:
256,192,152385,1,4,0:0:0:0:
329,155,153230,5,2,0:0:0:0:
316,254,153441,1,2,0:0:0:0:
219,267,153652,1,2,0:0:0:0:
174,181,153864,1,2,0:0:0:0:
243,111,154075,1,4,3:2:0:0:
219,267,154286,1,0,3:2:0:0:
219,267,154709,1,2,0:0:0:0:
329,155,154920,1,4,3:2:0:0:
174,181,155132,1,0,3:2:0:0:
174,181,155554,1,0,0:0:0:0:
316,254,155765,1,4,3:2:0:0:
243,111,156188,1,0,0:0:0:0:
180,340,156611,69,2,3:2:0:0:
190,321,156717,1,2,0:2:0:0:
199,301,156822,1,2,0:2:0:0:
208,284,156928,1,2,0:2:0:0:
217,265,157033,1,2,3:2:0:0:
227,246,157139,1,2,0:2:0:0:
237,229,157245,1,2,0:2:0:0:
246,211,157350,1,2,0:2:0:0:
256,192,157456,1,2,3:2:0:0:
217,264,158301,5,6,0:0:0:0:
170,176,158512,1,2,0:0:0:0:
240,109,158723,1,10,0:1:0:0:
327,152,158935,1,2,0:0:0:0:
313,249,159146,1,2,0:0:0:0:
256,192,159780,69,2,0:0:0:0:
374,310,159991,2,0,L|180:337,1,191.400005841065,6|8,0:0|0:1,0:0:0:0:
91,165,160836,2,0,L|232:30,1,191.400005841065,2|8,0:0|0:1,0:0:0:0:
256,192,161681,5,2,0:0:0:0:
274,182,161787,1,2,0:0:0:0:
292,172,161892,1,2,0:0:0:0:
311,164,161998,1,2,0:0:0:0:
330,155,162104,1,2,0:0:0:0:
349,145,162209,1,2,0:0:0:0:
366,136,162315,1,2,0:0:0:0:
384,125,162420,1,2,0:0:0:0:
404,116,162526,2,0,L|370:309,1,191.400005841065,6|8,0:0|0:1,0:0:0:0:
256,192,163371,69,2,0:0:0:0:
175,178,164216,5,2,0:0:0:0:
244,106,164427,1,2,0:0:0:0:
330,152,164638,1,2,0:0:0:0:
316,248,164850,1,2,0:0:0:0:
219,265,165061,1,4,3:0:0:0:
256,192,165272,1,0,3:0:0:0:
256,192,165695,1,0,0:0:0:0:
183,337,165906,70,0,L|93:168,1,191.400005841065,4|0,3:2|0:0,0:0:0:0:
256,192,166540,1,2,3:2:0:0:
400,117,166751,6,0,L|373:307,1,191.400005841065,6|0,3:2|0:0,0:0:0:0:
256,192,167385,1,2,3:2:0:0:
93,168,167596,1,6,3:2:0:0:
400,117,167808,1,2,3:2:0:0:
183,337,168019,1,6,3:2:0:0:
229,33,168230,1,2,3:2:0:0:
373,307,168442,1,6,3:2:0:0:
256,192,168864,1,2,0:0:0:0:
183,337,169287,1,6,0:0:0:0:
256,192,169392,12,6,170977,0:0:0:0:
