osu file format v14

[General]
AudioFilename: audio.mp3
AudioLeadIn: 1500
PreviewTime: 28537
Countdown: 0
SampleSet: Soft
StackLeniency: 0
Mode: 0
LetterboxInBreaks: 1
WidescreenStoryboard: 1

[Editor]
Bookmarks: 228,12949,15439,28960,42481,56002,69523,83044,96566,110087,116847,130368,143889,155720,165861
DistanceSpacing: 0.5
BeatDivisor: 4
GridSize: 4
TimelineZoom: 2.3

[Metadata]
Title:Rondo Alla Turca (Ryu* Remix)
TitleUnicode:Rondo Alla Turca (Ryu☆Remix)
Artist:Ryu*
ArtistUnicode:Ryu☆
Creator:-Tynamo
Version:Expert
Source:
Tags:Kischer Marsch AGEHA Streams Turkish March Mozart Sonata electronic instrumental exit tunes
BeatmapID:2823660
BeatmapSetID:1364962

[Difficulty]
HPDrainRate:5
CircleSize:5
OverallDifficulty:9.2
ApproachRate:6.5
SliderMultiplier:1.84
SliderTickRate:1

[Events]
//Background and Video events
0,0,"red_hexagon.png",0,0
//Break Periods
2,110332,115842
//Storyboard Layer 0 (Background)
//Storyboard Layer 1 (Fail)
//Storyboard Layer 2 (Pass)
//Storyboard Layer 3 (Foreground)
//Storyboard Layer 4 (Overlay)
//Storyboard Sound Samples

[TimingPoints]
273,422.535211267606,4,2,1,50,1,0
28582,-100,4,2,1,65,0,0
56047,-100,4,2,1,75,0,1
66188,-100,4,2,1,75,0,0
69568,-100,4,2,1,65,0,0
83089,-100,4,2,1,70,0,1
96188,-100,4,2,1,70,0,0
96611,-100,4,2,1,70,0,1
110132,-100,4,2,1,50,0,0
123653,-100,4,2,1,60,0,0
127033,-100,4,2,1,65,0,0
130413,-100,4,2,1,75,0,1
140554,-100,4,2,1,75,0,0
143934,-100,4,2,1,50,0,0

[Colours]
Combo1 : 245,164,166
Combo2 : 242,41,48
Combo3 : 245,86,90
Combo4 : 183,30,34

[HitObjects]
256,192,273,21,12,0:0:0:0:
109,306,1963,69,12,3:2:0:0:
83,121,2385,1,0,3:2:0:0:
229,7,2808,1,0,3:2:0:0:
402,77,3230,1,0,3:2:0:0:
427,261,3653,1,0,3:2:0:0:
281,375,4075,1,0,3:2:0:0:
109,306,4498,1,0,3:2:0:0:
83,121,4920,1,0,3:2:0:0:
229,7,5343,6,0,L|405:79,1,184,0|0,3:2|3:2,0:0:0:0:
282,376,6188,2,0,L|106:304,1,184,0|0,3:2|3:2,0:0:0:0:
256,192,7033,1,0,3:2:0:0:
427,261,7456,1,0,3:2:0:0:
83,121,7878,1,0,3:0:0:0:
152,65,8089,1,0,0:0:0:0:
152,65,8512,1,0,0:0:0:0:
83,121,8723,70,0,L|110:311,1,184,4|8,3:2|3:1,0:0:0:0:
428,262,9568,2,0,L|401:72,1,184,0|8,3:2|3:1,0:0:0:0:
109,304,10413,5,0,3:2:0:0:
282,376,10836,1,8,3:1:0:0:
402,79,11258,1,0,3:2:0:0:
229,7,11681,1,8,3:1:0:0:
282,376,12103,70,0,L|432:260,1,184,0|8,3:2|3:1,0:0:0:0:
229,7,12949,2,0,L|79:123,1,184,0|8,3:2|3:1,0:0:0:0:
83,119,13794,5,0,3:2:0:0:
254,193,14216,1,0,3:2:0:0:
427,263,14639,1,0,3:2:0:0:
412,165,14850,1,0,0:0:0:0:
412,165,15273,1,0,0:0:0:0:
427,263,15484,70,0,L|256:190,1,184,4|8,3:2|3:1,0:0:0:0:
280,375,16329,2,0,L|256:190,1,184,0|8,3:2|3:1,0:0:0:0:
84,120,17174,6,0,L|256:193,1,184,0|8,3:2|3:1,0:0:0:0:
230,7,18019,2,0,L|254:192,1,184,0|8,3:2|3:1,0:0:0:0:
253,189,18653,1,0,0:0:0:0:
109,304,18864,70,0,L|83:121,1,184,0|8,3:2|3:1,0:0:0:0:
401,78,19709,2,0,L|428:262,1,184,0|8,3:2|3:1,0:0:0:0:
280,375,20554,5,4,3:2:0:0:
109,304,20977,1,8,3:1:0:0:
84,120,21399,1,0,3:2:0:0:
230,7,21822,1,8,3:1:0:0:
401,78,22244,70,0,L|254:193,1,184,4|8,3:2|3:1,0:0:0:0:
110,305,23089,2,0,L|257:190,1,184,0|8,3:2|3:1,0:0:0:0:
428,262,23934,6,0,L|256:192,1,184,0|8,3:2|3:1,0:0:0:0:
84,120,24779,2,0,L|256:189,1,184,0|8,3:2|3:1,0:0:0:0:
256,192,25413,1,0,0:0:0:0:
230,7,25625,69,0,3:2:0:0:
110,305,26047,1,8,3:1:0:0:
428,262,26470,1,0,3:2:0:0:
256,192,26892,1,8,3:1:0:0:
256,192,27315,5,12,3:2:0:0:
399,75,28582,69,2,0:0:0:0:
405,120,28687,1,2,0:0:0:0:
412,165,28793,1,2,0:0:0:0:
419,212,28898,1,2,0:0:0:0:
426,257,29004,1,10,3:2:0:0:
256,192,29427,5,2,3:2:0:0:
291,162,29532,1,2,0:0:0:0:
327,133,29638,1,2,0:0:0:0:
363,104,29743,1,2,0:0:0:0:
399,75,29849,1,10,3:2:0:0:
428,258,30274,69,2,3:2:0:0:
385,242,30379,1,2,0:0:0:0:
342,225,30485,1,2,0:0:0:0:
299,208,30590,1,2,0:0:0:0:
256,192,30696,5,10,3:2:0:0:
291,162,30800,1,2,0:0:0:0:
327,133,30906,1,2,0:0:0:0:
363,104,31011,1,2,0:0:0:0:
399,75,31118,69,2,3:2:0:0:
405,120,31223,1,2,0:0:0:0:
412,165,31329,1,2,0:0:0:0:
419,212,31434,1,2,0:0:0:0:
426,257,31540,6,0,L|253:189,1,184,10|0,3:2|3:0,0:0:0:0:
399,75,32174,1,0,0:0:0:0:
224,7,32385,69,10,3:2:0:0:
238,98,32596,1,0,0:0:0:0:
399,75,32808,5,0,3:0:0:0:
313,41,33019,1,0,0:0:0:0:
256,192,33230,69,10,3:2:0:0:
327,133,33442,1,0,0:0:0:0:
81,124,33653,5,0,3:0:0:0:
168,155,33864,1,0,0:0:0:0:
224,7,34075,69,10,3:2:0:0:
152,65,34287,1,0,0:0:0:0:
256,192,34498,5,0,3:0:0:0:
238,98,34709,1,0,0:0:0:0:
81,124,34920,69,8,3:2:0:0:
81,124,35343,5,2,3:2:0:0:
123,139,35448,1,2,0:0:0:0:
166,156,35554,1,2,0:0:0:0:
209,172,35659,1,2,0:0:0:0:
256,192,35765,1,10,3:2:0:0:
256,192,36188,69,10,3:1:0:0:
219,219,36293,1,2,0:0:0:0:
182,247,36399,1,2,0:0:0:0:
145,277,36504,1,2,0:0:0:0:
109,306,36610,1,10,3:2:0:0:
109,306,37033,5,10,3:1:0:0:
100,262,37138,1,2,0:0:0:0:
95,216,37244,1,2,0:0:0:0:
87,167,37349,1,2,0:0:0:0:
81,124,37456,69,10,3:2:0:0:
123,139,37561,1,2,0:0:0:0:
166,156,37667,1,2,0:0:0:0:
209,172,37772,1,2,0:0:0:0:
256,192,37878,5,10,3:1:0:0:
219,219,37983,1,2,0:0:0:0:
182,247,38089,1,2,0:0:0:0:
145,277,38194,1,2,0:0:0:0:
109,306,38301,70,0,L|80:121,1,184,10|8,3:2|3:1,0:0:0:0:
256,192,38934,1,0,0:0:0:0:
284,376,39146,5,10,3:2:0:0:
195,342,39357,1,0,0:0:0:0:
256,192,39568,69,8,3:1:0:0:
270,286,39779,1,0,0:0:0:0:
109,306,39991,5,10,3:2:0:0:
182,247,40202,1,0,0:0:0:0:
428,260,40413,69,8,3:1:0:0:
357,317,40625,1,0,0:0:0:0:
256,192,40836,5,12,3:2:0:0:
341,226,41047,1,0,0:0:0:0:
284,376,41258,69,4,0:0:0:0:
270,286,41470,1,0,0:0:0:0:
256,192,41681,1,4,0:0:0:0:
256,192,42103,5,4,0:0:0:0:
256,192,42315,1,0,0:0:0:0:
81,124,42526,1,4,3:2:0:0:
224,7,42737,1,0,0:0:0:0:
256,192,42949,1,10,3:2:0:0:
291,162,43054,1,2,0:2:0:0:
327,133,43160,1,2,0:2:0:0:
363,104,43265,1,2,0:2:0:0:
399,75,43371,69,2,3:2:0:0:
428,260,43582,1,0,0:2:0:0:
256,192,43794,5,8,3:2:0:0:
256,192,44005,1,0,0:0:0:0:
284,376,44216,1,0,3:2:0:0:
109,306,44427,1,0,0:0:0:0:
256,192,44639,69,10,3:2:0:0:
209,172,44745,1,2,0:2:0:0:
166,156,44850,1,2,0:2:0:0:
123,139,44956,1,2,0:2:0:0:
81,124,45061,1,2,3:2:0:0:
152,65,45273,1,0,0:2:0:0:
224,7,45484,1,8,3:2:0:0:
224,7,45695,1,0,0:0:0:0:
256,192,45906,5,4,3:2:0:0:
428,260,46118,1,0,0:0:0:0:
284,376,46329,69,10,3:2:0:0:
276,332,46434,1,2,0:2:0:0:
270,286,46540,1,2,0:2:0:0:
262,241,46645,1,2,0:2:0:0:
256,192,46751,5,6,3:2:0:0:
109,306,46963,1,0,0:2:0:0:
81,124,47174,1,8,3:2:0:0:
81,124,47385,1,0,0:0:0:0:
256,192,47596,1,4,3:2:0:0:
399,75,47808,1,0,0:0:0:0:
226,7,48019,69,14,3:2:0:0:
234,50,48124,1,2,0:2:0:0:
240,96,48230,1,2,0:2:0:0:
248,141,48335,1,2,0:2:0:0:
256,192,48441,1,6,3:2:0:0:
256,192,48653,1,4,0:2:0:0:
284,376,48864,5,10,3:2:0:0:
238,361,48969,1,2,0:2:0:0:
195,342,49075,1,2,0:2:0:0:
150,325,49180,1,2,0:2:0:0:
109,309,49287,1,4,3:2:0:0:
109,309,49709,69,10,0:2:0:0:
99,262,49814,1,2,0:2:0:0:
94,216,49920,1,2,0:2:0:0:
87,167,50025,1,2,0:2:0:0:
81,123,50132,1,2,3:2:0:0:
81,123,50554,5,8,3:2:0:0:
117,92,50659,1,2,0:0:0:0:
154,65,50765,1,0,0:0:0:0:
192,34,50870,1,2,0:0:0:0:
226,7,50977,69,0,3:2:0:0:
271,22,51082,1,2,0:0:0:0:
313,41,51188,1,0,0:0:0:0:
359,58,51293,1,2,0:0:0:0:
399,74,51399,5,10,3:2:0:0:
408,119,51504,1,2,0:2:0:0:
412,165,51610,1,2,0:2:0:0:
420,214,51715,1,2,0:2:0:0:
426,257,51822,70,0,L|283:375,1,184,2|8,3:2|3:2,0:0:0:0:
256,192,52456,1,0,0:0:0:0:
226,7,52667,5,4,3:2:0:0:
313,41,52878,1,0,0:0:0:0:
256,192,53089,69,10,3:2:0:0:
241,99,53300,1,2,0:2:0:0:
399,74,53512,5,6,3:2:0:0:
326,132,53723,1,0,0:2:0:0:
256,192,53934,69,8,3:2:0:0:
166,156,54146,1,0,0:0:0:0:
81,123,54357,1,4,3:0:0:0:
428,260,54780,5,2,0:0:0:0:
394,289,54885,1,2,0:0:0:0:
357,316,54991,1,2,0:0:0:0:
319,347,55096,1,2,0:0:0:0:
285,374,55202,1,2,3:2:0:0:
285,374,55625,69,2,0:0:0:0:
256,192,55836,1,2,0:0:0:0:
399,74,56047,2,0,L|227:7,1,184,6|2,3:2|3:2,0:0:0:0:
81,123,56681,1,2,0:2:0:0:
109,309,56892,1,2,3:2:0:0:
285,374,57103,1,2,0:2:0:0:
428,260,57315,1,2,3:2:0:0:
399,74,57526,1,2,0:2:0:0:
226,6,57737,5,2,3:2:0:0:
241,99,57949,1,2,0:2:0:0:
428,260,58160,69,2,3:2:0:0:
341,226,58372,1,2,0:2:0:0:
109,309,58582,5,2,3:2:0:0:
182,247,58794,1,2,0:2:0:0:
256,192,59005,69,2,3:2:0:0:
81,123,59216,1,2,0:2:0:0:
109,309,59427,2,0,L|284:374,1,184,2|2,3:2|3:2,0:0:0:0:
428,260,60061,1,2,0:2:0:0:
399,74,60272,1,2,3:2:0:0:
226,6,60483,1,2,0:2:0:0:
83,123,60695,1,2,3:2:0:0:
109,309,60906,1,2,0:2:0:0:
285,374,61117,5,2,3:2:0:0:
256,192,61329,1,2,0:2:0:0:
83,123,61540,1,2,3:2:0:0:
256,192,61752,1,2,0:2:0:0:
399,74,61963,1,2,3:2:0:0:
399,74,62385,69,2,0:2:0:0:
256,192,62596,1,2,0:2:0:0:
226,6,62808,2,0,L|82:124,1,184,6|10,3:2|3:1,0:0:0:0:
109,309,63442,1,2,0:2:0:0:
285,374,63653,1,2,3:2:0:0:
428,260,63864,1,2,0:2:0:0:
399,74,64076,1,10,3:1:0:0:
226,6,64287,1,2,0:2:0:0:
83,123,64498,5,2,3:2:0:0:
166,156,64710,1,2,0:2:0:0:
399,74,64921,69,10,3:1:0:0:
326,132,65133,1,2,0:2:0:0:
285,374,65343,5,2,3:2:0:0:
270,286,65555,1,2,0:2:0:0:
256,192,65766,69,10,3:1:0:0:
109,308,65977,1,2,0:2:0:0:
428,260,66188,5,4,3:2:0:0:
226,6,67033,1,4,3:2:0:0:
109,308,67878,1,6,3:2:0:0:
399,74,68089,1,2,3:2:0:0:
285,374,68301,1,2,0:2:0:0:
83,123,68512,1,2,0:2:0:0:
428,260,68723,1,6,3:2:0:0:
226,7,69146,1,2,0:0:0:0:
234,50,69251,1,2,0:0:0:0:
240,96,69357,1,2,0:0:0:0:
248,141,69462,1,2,0:0:0:0:
256,192,69568,69,12,3:2:0:0:
341,226,69991,1,8,3:2:0:0:
428,260,70413,1,8,3:2:0:0:
412,165,70836,1,8,3:2:0:0:
399,74,71258,1,8,3:2:0:0:
326,132,71681,1,8,3:2:0:0:
256,192,72103,1,8,3:2:0:0:
256,192,72949,5,12,3:2:0:0:
166,156,73372,1,8,3:2:0:0:
83,123,73794,1,8,3:2:0:0:
94,216,74217,1,8,3:2:0:0:
109,308,74639,1,8,3:2:0:0:
182,247,75062,1,8,3:2:0:0:
256,192,75484,1,8,3:2:0:0:
256,192,76329,69,12,3:2:0:0:
326,132,76540,1,8,0:2:0:0:
399,74,76751,1,8,0:2:0:0:
313,41,76963,1,8,0:2:0:0:
226,7,77174,1,8,0:2:0:0:
229,29,77279,1,8,0:2:0:0:
233,52,77385,1,8,0:2:0:0:
236,75,77490,1,8,0:2:0:0:
240,97,77596,1,8,0:2:0:0:
243,120,77702,1,8,0:2:0:0:
247,143,77807,1,8,0:2:0:0:
251,166,77913,1,8,0:2:0:0:
256,192,78019,5,12,3:2:0:0:
182,247,78230,1,8,0:2:0:0:
109,308,78441,1,8,0:2:0:0:
195,342,78653,1,8,0:2:0:0:
285,376,78864,1,8,0:2:0:0:
281,353,78969,1,8,0:2:0:0:
277,330,79075,1,8,0:2:0:0:
274,307,79180,1,8,0:2:0:0:
270,285,79286,1,8,0:2:0:0:
267,262,79392,1,8,0:2:0:0:
263,239,79497,1,8,0:2:0:0:
259,216,79603,1,8,0:2:0:0:
256,192,79709,69,12,3:2:0:0:
428,260,79920,1,8,0:2:0:0:
399,75,80132,1,8,0:2:0:0:
363,104,80238,1,8,0:2:0:0:
327,133,80343,1,8,0:2:0:0:
291,162,80449,1,8,0:2:0:0:
256,192,80554,5,12,3:2:0:0:
83,123,80765,1,8,0:2:0:0:
109,306,80977,1,8,0:2:0:0:
145,277,81083,1,8,0:2:0:0:
182,247,81188,1,8,0:2:0:0:
219,219,81294,1,8,0:2:0:0:
256,192,81399,69,12,3:2:0:0:
226,7,81716,1,12,3:2:0:0:
428,260,81927,1,12,3:2:0:0:
428,260,82033,1,12,3:2:0:0:
109,306,82244,5,12,3:2:0:0:
256,192,82667,69,0,0:0:0:0:
256,192,82773,1,0,0:0:0:0:
256,192,82878,1,0,0:0:0:0:
256,192,82984,1,0,0:0:0:0:
256,192,83089,5,6,3:2:0:0:
209,172,83195,1,2,0:0:0:0:
166,156,83300,1,2,0:2:0:0:
123,139,83406,1,2,0:0:0:0:
81,123,83512,69,2,3:2:0:0:
87,167,83619,1,2,0:0:0:0:
94,216,83724,1,2,0:2:0:0:
99,262,83830,1,2,0:0:0:0:
109,306,83934,5,2,3:2:0:0:
128,294,84039,1,2,0:0:0:0:
145,280,84145,1,2,0:2:0:0:
164,266,84250,1,2,0:0:0:0:
181,251,84356,1,2,3:2:0:0:
199,237,84462,1,2,0:0:0:0:
217,222,84567,1,2,0:2:0:0:
235,207,84673,1,2,0:0:0:0:
256,192,84779,69,2,3:2:0:0:
235,207,84885,1,2,0:0:0:0:
217,222,84991,1,2,0:2:0:0:
199,237,85096,1,2,0:0:0:0:
181,251,85202,1,2,3:2:0:0:
164,266,85308,1,2,0:0:0:0:
145,280,85413,1,2,0:2:0:0:
128,294,85519,1,2,0:0:0:0:
109,306,85624,5,2,3:2:0:0:
81,123,85836,1,2,0:2:0:0:
256,192,86047,69,2,3:2:0:0:
256,192,86153,1,2,0:0:0:0:
256,192,86258,1,2,0:2:0:0:
256,192,86364,1,2,0:0:0:0:
256,192,86470,5,2,3:2:0:0:
299,208,86576,1,2,0:0:0:0:
342,225,86681,1,2,0:2:0:0:
385,242,86787,1,2,0:0:0:0:
426,257,86891,69,2,3:2:0:0:
419,212,86999,1,2,0:0:0:0:
412,165,87104,1,2,0:2:0:0:
405,120,87210,1,2,0:0:0:0:
399,75,87315,5,2,3:2:0:0:
381,89,87420,1,2,0:0:0:0:
363,103,87526,1,2,0:2:0:0:
345,118,87631,1,2,0:0:0:0:
327,132,87737,1,2,3:2:0:0:
309,147,87843,1,2,0:0:0:0:
291,161,87948,1,2,0:2:0:0:
273,176,88054,1,2,0:0:0:0:
256,192,88161,69,2,3:2:0:0:
291,162,88266,1,2,0:0:0:0:
327,133,88371,1,2,0:2:0:0:
363,104,88477,1,2,0:0:0:0:
399,75,88581,5,2,3:2:0:0:
405,120,88688,1,2,0:0:0:0:
412,165,88794,1,2,0:2:0:0:
419,212,88899,1,2,0:0:0:0:
426,257,89005,69,2,3:2:0:0:
256,192,89427,5,2,0:2:0:0:
256,192,89533,1,2,0:2:0:0:
256,192,89639,1,2,0:2:0:0:
256,192,89744,1,2,0:2:0:0:
256,192,89850,69,6,3:2:0:0:
248,141,89956,1,2,0:0:0:0:
240,96,90061,1,2,0:2:0:0:
234,50,90167,1,2,0:0:0:0:
226,7,90273,5,10,3:1:0:0:
192,34,90378,1,2,0:0:0:0:
154,65,90484,1,2,0:2:0:0:
117,92,90589,1,2,0:0:0:0:
81,123,90695,69,2,3:2:0:0:
123,139,90801,1,2,0:0:0:0:
166,156,90907,1,2,0:2:0:0:
209,172,91012,1,2,0:0:0:0:
256,192,91118,5,10,3:1:0:0:
256,192,91223,1,2,0:0:0:0:
256,192,91329,1,2,0:2:0:0:
256,192,91434,1,2,0:0:0:0:
256,192,91540,69,2,3:2:0:0:
277,200,91645,1,2,0:0:0:0:
298,208,91751,1,2,0:2:0:0:
320,216,91856,1,2,0:0:0:0:
341,224,91962,1,10,3:1:0:0:
363,232,92068,1,2,0:0:0:0:
384,241,92173,1,2,0:2:0:0:
406,249,92279,1,2,0:0:0:0:
426,257,92385,5,2,3:2:0:0:
394,289,92491,1,2,0:0:0:0:
357,316,92597,1,2,0:2:0:0:
319,347,92702,1,2,0:0:0:0:
285,374,92809,69,10,3:1:0:0:
276,332,92914,1,2,0:0:0:0:
270,286,93020,1,2,0:2:0:0:
262,241,93125,1,2,0:0:0:0:
256,192,93230,5,2,3:2:0:0:
209,172,93336,1,2,0:0:0:0:
166,156,93441,1,2,0:2:0:0:
123,139,93547,1,2,0:0:0:0:
81,123,93653,69,10,3:1:0:0:
117,92,93758,1,2,0:0:0:0:
154,65,93864,1,2,0:2:0:0:
192,34,93970,1,2,0:0:0:0:
226,7,94075,5,2,3:2:0:0:
271,22,94181,1,2,0:0:0:0:
313,41,94287,1,2,0:2:0:0:
359,58,94392,1,2,0:0:0:0:
399,74,94498,69,10,3:1:0:0:
363,104,94603,1,2,0:0:0:0:
327,133,94709,1,2,0:2:0:0:
291,162,94815,1,2,0:0:0:0:
256,192,94920,5,2,3:2:0:0:
262,241,95026,1,2,0:0:0:0:
270,286,95132,1,2,0:2:0:0:
277,333,95237,1,2,0:0:0:0:
284,376,95343,69,10,3:1:0:0:
238,361,95449,1,2,0:0:0:0:
195,342,95554,1,2,0:2:0:0:
150,325,95660,1,2,0:0:0:0:
109,309,95765,1,2,3:2:0:0:
399,74,96188,1,2,3:2:0:0:
399,74,96294,1,2,0:2:0:0:
399,74,96399,1,2,0:2:0:0:
399,74,96505,1,2,0:2:0:0:
399,74,96611,5,6,3:2:0:0:
359,58,96717,1,2,0:0:0:0:
313,41,96822,1,2,0:2:0:0:
271,22,96928,1,2,0:0:0:0:
226,7,97033,69,10,3:1:0:0:
234,50,97139,1,2,0:0:0:0:
240,96,97245,1,2,0:2:0:0:
248,141,97350,1,2,0:0:0:0:
256,192,97456,5,2,3:2:0:0:
233,182,97561,1,2,0:0:0:0:
212,174,97667,1,2,0:2:0:0:
190,165,97772,1,2,0:0:0:0:
169,157,97878,1,10,3:1:0:0:
148,148,97984,1,2,0:0:0:0:
126,140,98089,1,2,0:2:0:0:
105,131,98195,1,2,0:0:0:0:
81,123,98301,69,2,3:2:0:0:
89,167,98405,1,2,0:0:0:0:
95,214,98512,1,2,0:2:0:0:
103,259,98618,1,2,0:0:0:0:
110,309,98723,5,10,3:1:0:0:
149,278,98829,1,2,0:0:0:0:
184,249,98934,1,2,0:2:0:0:
221,220,99040,1,2,0:0:0:0:
256,192,99146,69,2,3:2:0:0:
426,257,99357,1,2,0:2:0:0:
110,309,99568,1,10,3:1:0:0:
110,309,99674,1,2,0:0:0:0:
110,309,99779,1,2,0:2:0:0:
110,309,99885,1,2,0:0:0:0:
110,309,99991,5,2,3:2:0:0:
150,325,100097,1,2,0:0:0:0:
196,342,100202,1,2,0:2:0:0:
238,361,100308,1,2,0:0:0:0:
283,376,100413,69,10,3:1:0:0:
275,333,100519,1,2,0:0:0:0:
269,287,100625,1,2,0:2:0:0:
261,242,100730,1,2,0:0:0:0:
256,192,100836,5,2,3:2:0:0:
275,200,100941,1,2,0:0:0:0:
296,208,101047,1,2,0:2:0:0:
318,217,101152,1,2,0:0:0:0:
339,225,101258,1,10,3:1:0:0:
360,234,101364,1,2,0:0:0:0:
382,242,101469,1,2,0:2:0:0:
403,251,101575,1,2,0:0:0:0:
426,257,101681,69,2,3:2:0:0:
419,212,101787,1,2,0:0:0:0:
412,165,101892,1,2,0:2:0:0:
405,120,101998,1,2,0:0:0:0:
399,74,102103,5,10,3:1:0:0:
360,105,102209,1,2,0:0:0:0:
325,134,102315,1,2,0:2:0:0:
288,163,102420,1,2,0:0:0:0:
256,192,102526,69,2,3:2:0:0:
81,123,102949,1,10,0:1:0:0:
81,123,103054,1,2,0:2:0:0:
81,123,103160,1,2,0:2:0:0:
81,123,103265,1,2,0:2:0:0:
81,123,103371,5,6,3:2:0:0:
117,92,103477,1,2,0:0:0:0:
154,65,103582,1,2,0:2:0:0:
192,34,103688,1,2,0:0:0:0:
226,7,103794,69,10,3:1:0:0:
234,50,103899,1,2,0:0:0:0:
240,96,104005,1,2,0:2:0:0:
248,141,104111,1,2,0:0:0:0:
256,192,104216,5,2,3:2:0:0:
273,176,104322,1,2,0:0:0:0:
291,161,104427,1,2,0:2:0:0:
309,147,104533,1,2,0:0:0:0:
327,132,104639,1,10,3:1:0:0:
345,118,104745,1,2,0:0:0:0:
363,103,104850,1,2,0:2:0:0:
381,89,104956,1,2,0:0:0:0:
399,74,105062,69,6,3:2:0:0:
405,120,105167,1,2,0:0:0:0:
412,165,105273,1,2,0:2:0:0:
419,212,105378,1,2,0:0:0:0:
426,257,105484,5,10,3:1:0:0:
385,242,105589,1,2,0:0:0:0:
342,225,105695,1,2,0:2:0:0:
299,208,105801,1,2,0:0:0:0:
256,192,105906,69,2,3:2:0:0:
239,208,106012,1,2,0:0:0:0:
221,223,106117,1,2,0:2:0:0:
203,237,106223,1,2,0:0:0:0:
185,252,106329,1,10,3:1:0:0:
167,266,106435,1,2,0:0:0:0:
149,281,106540,1,2,0:2:0:0:
131,295,106646,1,2,0:0:0:0:
110,309,106751,5,6,3:2:0:0:
103,259,106856,1,2,0:0:0:0:
95,214,106962,1,2,0:2:0:0:
89,167,107068,1,2,0:0:0:0:
83,124,107173,69,10,3:1:0:0:
117,92,107279,1,2,0:0:0:0:
154,65,107385,1,2,0:2:0:0:
192,34,107491,1,2,0:0:0:0:
226,7,107596,2,0,L|237:67,1,46,2|2,3:2|0:0,0:0:0:0:
256,192,107808,1,2,0:2:0:0:
256,192,107913,1,2,0:0:0:0:
256,192,108019,5,10,3:1:0:0:
273,176,108125,1,2,0:0:0:0:
291,161,108230,1,2,0:2:0:0:
309,147,108336,1,2,0:0:0:0:
327,132,108442,69,2,3:2:0:0:
309,147,108548,1,2,0:0:0:0:
291,161,108654,1,2,0:2:0:0:
273,176,108759,1,2,0:0:0:0:
256,192,108864,5,10,3:1:0:0:
291,161,108970,1,2,0:0:0:0:
327,132,109075,1,2,0:2:0:0:
363,103,109181,1,2,0:0:0:0:
399,74,109287,2,0,L|428:269,1,184,2|2,3:2|3:2,0:0:0:0:
283,376,109920,1,2,0:2:0:0:
256,192,110132,69,6,3:2:0:0:
256,192,116892,5,12,0:2:0:0:
269,282,117315,1,8,0:2:0:0:
283,374,117737,1,8,0:2:0:0:
356,314,118160,1,8,0:2:0:0:
428,257,118582,1,14,0:2:0:0:
342,223,119005,1,8,0:2:0:0:
256,192,119427,1,8,0:2:0:0:
256,192,119850,1,0,3:0:0:0:
256,192,120273,69,12,0:2:0:0:
240,96,120696,1,8,0:2:0:0:
227,8,121118,1,8,0:2:0:0:
153,63,121541,1,8,0:2:0:0:
81,122,121963,1,12,3:2:0:0:
81,122,122174,1,0,0:0:0:0:
169,157,122386,1,12,3:2:0:0:
169,157,122596,1,0,0:0:0:0:
256,192,122808,1,12,3:2:0:0:
256,192,123654,5,12,3:2:0:0:
326,132,123865,1,8,0:2:0:0:
399,74,124076,1,8,0:2:0:0:
414,165,124288,1,8,0:2:0:0:
429,258,124499,1,8,0:2:0:0:
409,250,124604,1,8,0:2:0:0:
387,242,124710,1,8,0:2:0:0:
365,233,124815,1,8,0:2:0:0:
344,226,124921,1,8,0:2:0:0:
323,217,125027,1,8,0:2:0:0:
301,209,125132,1,8,0:2:0:0:
279,201,125238,1,8,0:2:0:0:
256,192,125344,69,12,3:2:0:0:
182,247,125555,1,8,0:2:0:0:
109,308,125766,1,8,0:2:0:0:
95,215,125977,1,8,0:2:0:0:
81,124,126189,1,8,0:2:0:0:
103,132,126294,1,8,0:2:0:0:
124,140,126400,1,8,0:2:0:0:
146,149,126505,1,8,0:2:0:0:
167,156,126611,1,8,0:2:0:0:
188,165,126717,1,8,0:2:0:0:
210,173,126822,1,8,0:2:0:0:
232,181,126928,1,8,0:2:0:0:
256,192,127034,5,12,3:2:0:0:
428,260,127244,1,8,0:2:0:0:
284,373,127456,1,8,0:2:0:0:
277,328,127562,1,8,0:2:0:0:
270,282,127667,1,8,0:2:0:0:
263,236,127773,1,8,0:2:0:0:
256,192,127878,69,12,3:2:0:0:
83,123,128089,1,8,0:2:0:0:
227,8,128301,1,8,0:2:0:0:
236,53,128407,1,8,0:2:0:0:
243,100,128512,1,8,0:2:0:0:
249,146,128618,1,8,0:2:0:0:
256,192,128723,5,12,3:2:0:0:
284,373,129040,1,12,3:2:0:0:
399,74,129251,1,12,3:2:0:0:
399,74,129357,1,12,3:2:0:0:
83,123,129568,1,12,3:2:0:0:
83,123,129991,69,2,0:0:0:0:
256,192,130202,1,2,0:0:0:0:
284,373,130413,2,0,L|106:307,1,184,6|2,3:2|3:2,0:0:0:0:
83,123,131047,1,2,0:2:0:0:
227,8,131258,1,2,3:2:0:0:
399,74,131470,1,2,0:2:0:0:
428,260,131681,1,2,3:2:0:0:
284,373,131892,1,2,0:2:0:0:
110,308,132103,5,2,3:2:0:0:
182,247,132315,1,2,0:2:0:0:
227,7,132526,69,2,3:2:0:0:
243,100,132738,1,2,0:2:0:0:
428,259,132949,5,2,3:2:0:0:
340,227,133161,1,2,0:2:0:0:
256,192,133371,1,2,3:2:0:0:
399,74,133582,1,2,0:2:0:0:
428,259,133794,70,0,L|268:385,1,184,2|2,3:2|3:2,0:0:0:0:
110,308,134427,1,2,0:2:0:0:
83,123,134639,1,2,3:2:0:0:
227,7,134850,1,2,0:2:0:0:
399,74,135061,1,2,3:2:0:0:
428,259,135273,1,2,0:2:0:0:
284,373,135484,5,2,3:2:0:0:
256,192,135695,1,2,0:2:0:0:
83,123,135906,1,2,3:2:0:0:
256,192,136117,1,2,0:2:0:0:
399,74,136329,1,2,3:2:0:0:
399,74,136540,1,2,3:2:0:0:
399,74,136751,69,2,0:2:0:0:
256,192,136963,1,2,0:2:0:0:
83,123,137174,2,0,L|229:6,1,184,6|10,3:2|3:1,0:0:0:0:
399,74,137808,1,2,0:2:0:0:
428,259,138019,1,2,3:2:0:0:
284,373,138230,1,2,0:2:0:0:
110,308,138442,1,10,3:1:0:0:
83,123,138653,1,2,0:2:0:0:
227,7,138864,5,2,3:2:0:0:
243,100,139075,1,2,0:2:0:0:
109,308,139287,69,10,3:1:0:0:
182,247,139498,1,2,0:2:0:0:
428,259,139709,5,2,3:2:0:0:
340,227,139920,1,2,0:2:0:0:
256,192,140132,1,10,3:1:0:0:
284,374,140343,1,2,0:2:0:0:
399,74,140554,69,4,3:2:0:0:
83,123,141399,1,4,3:2:0:0:
428,259,142244,1,6,3:2:0:0:
109,308,142456,1,2,3:2:0:0:
399,74,142667,1,2,0:2:0:0:
284,374,142878,1,2,0:2:0:0:
227,7,143089,1,6,3:2:0:0:
227,7,143301,1,0,3:0:0:0:
428,259,143934,6,0,L|399:70,1,184,6|8,0:0|2:1,0:0:0:0:
83,124,144780,2,0,L|112:313,1,184,2|8,0:0|0:1,0:0:0:0:
285,376,145625,1,2,0:0:0:0:
281,353,145730,1,2,0:0:0:0:
277,330,145836,1,2,0:0:0:0:
274,307,145941,1,2,0:0:0:0:
270,285,146047,1,10,0:1:0:0:
267,262,146153,1,2,0:0:0:0:
263,239,146258,1,2,0:0:0:0:
259,216,146364,1,2,0:0:0:0:
256,192,146470,70,0,L|227:9,1,184,2|8,0:0|0:1,0:0:0:0:
109,308,147315,5,2,0:0:0:0:
196,342,147526,1,2,0:0:0:0:
256,192,147737,69,10,0:1:0:0:
182,247,147949,1,2,0:0:0:0:
285,376,148160,5,2,3:2:0:0:
256,192,148371,1,2,3:2:0:0:
256,192,148794,1,0,3:0:0:0:
227,8,149005,70,0,L|78:127,1,184,6|8,3:2|0:1,0:0:0:0:
283,374,149851,2,0,L|432:255,1,184,2|8,0:0|0:1,0:0:0:0:
400,73,150696,1,0,0:0:0:0:
382,88,150801,1,0,0:0:0:0:
365,103,150907,1,0,0:0:0:0:
346,117,151012,1,0,0:0:0:0:
329,132,151118,1,8,0:1:0:0:
311,146,151224,1,0,0:0:0:0:
293,161,151329,1,0,0:0:0:0:
275,176,151435,1,0,0:0:0:0:
256,192,151541,6,0,L|111:307,1,184,0|8,0:0|0:1,0:0:0:0:
227,7,152385,1,4,0:0:0:0:
227,7,153019,1,0,0:0:0:0:
227,7,153230,69,2,0:0:0:0:
313,41,153442,1,2,0:0:0:0:
256,192,153653,5,2,0:0:0:0:
241,100,153865,1,2,0:0:0:0:
400,73,154075,69,4,3:2:0:0:
256,192,154287,1,0,3:2:0:0:
256,192,154709,1,2,0:0:0:0:
283,374,154920,5,4,3:2:0:0:
256,192,155131,1,0,3:2:0:0:
256,192,155553,1,0,0:0:0:0:
83,124,155765,69,4,3:2:0:0:
83,124,156187,1,0,0:0:0:0:
83,124,156610,5,2,3:2:0:0:
104,132,156715,1,2,0:2:0:0:
125,140,156821,1,2,0:2:0:0:
147,149,156926,1,2,0:2:0:0:
168,157,157032,1,2,3:2:0:0:
190,165,157138,1,2,0:2:0:0:
211,174,157243,1,2,0:2:0:0:
233,182,157349,1,2,0:2:0:0:
254,190,157455,1,2,3:2:0:0:
429,260,158300,69,6,0:0:0:0:
415,167,158511,1,2,0:0:0:0:
256,192,158722,5,10,0:1:0:0:
340,227,158934,1,2,0:0:0:0:
400,73,159146,69,2,0:0:0:0:
256,192,159357,1,0,0:0:0:0:
256,192,159780,1,2,0:0:0:0:
110,307,159991,6,0,L|289:376,1,184,6|8,0:0|0:1,0:0:0:0:
400,73,160836,2,0,L|221:4,1,184,2|8,0:0|0:1,0:0:0:0:
256,192,161681,69,2,0:0:0:0:
256,192,161787,1,2,0:0:0:0:
256,192,161892,1,2,0:0:0:0:
256,192,161998,1,2,0:0:0:0:
256,192,162103,1,2,0:0:0:0:
256,192,162209,1,2,0:0:0:0:
256,192,162315,1,2,0:0:0:0:
256,192,162420,1,2,0:0:0:0:
256,192,162526,1,6,0:0:0:0:
429,260,163371,5,2,0:0:0:0:
81,122,164216,69,2,0:0:0:0:
95,215,164427,1,2,0:0:0:0:
256,192,164639,5,2,0:0:0:0:
170,155,164850,1,2,0:0:0:0:
110,309,165061,69,4,3:0:0:0:
256,192,165273,1,0,3:0:0:0:
256,192,165695,1,0,0:0:0:0:
400,75,165906,6,0,L|221:6,1,184,4|0,3:2|0:0,0:0:0:0:
256,192,166540,1,2,3:2:0:0:
110,307,166751,70,0,L|289:376,1,184,6|0,3:2|0:0,0:0:0:0:
256,192,167385,1,2,3:2:0:0:
227,7,167596,5,6,3:2:0:0:
81,122,167808,1,2,3:2:0:0:
284,376,168019,69,6,3:2:0:0:
430,261,168230,1,2,3:2:0:0:
256,192,168442,5,6,3:2:0:0:
256,192,168864,69,2,0:0:0:0:
256,192,169287,5,6,0:0:0:0:
256,192,169392,12,6,170977,0:0:0:0:
