osu file format v14

[General]
AudioFilename: audio.mp3
AudioLeadIn: 0
PreviewTime: 10298
Countdown: 0
SampleSet: Soft
StackLeniency: 0.6
Mode: 0
LetterboxInBreaks: 0
WidescreenStoryboard: 1

[Editor]
DistanceSpacing: 0.8
BeatDivisor: 2
GridSize: 4
TimelineZoom: 3.599999

[Metadata]
Title:Plan 8
TitleUnicode:Plan 8
Artist:Ryu*
ArtistUnicode:Ryu☆
Creator:Luscent
Version:Normal
Source:beatmania IIDX 20 tricoro
Tags:cellina Reana HAPPY GABBA KONAMI BEMANI jubeat saucer plus DanceDanceRevolution instrumental electronic video game jukebeat music pack 57 prop clan fulfil Qubell festo 21 SPADA INFINITAS 楽曲パック vol 4 ultimate mobile
BeatmapID:3055126
BeatmapSetID:1466536

[Difficulty]
HPDrainRate:3
CircleSize:3.4
OverallDifficulty:5
ApproachRate:6
SliderMultiplier:1.2
SliderTickRate:1

[Events]
//Background and Video events
0,0,"iidx.jpg",0,0
//Break Periods
2,46760,49755
2,90911,94189
//Storyboard Layer 0 (Background)
//Storyboard Layer 1 (Fail)
//Storyboard Layer 2 (Pass)
//Storyboard Layer 3 (Foreground)
//Storyboard Layer 4 (Overlay)
//Storyboard Sound Samples

[TimingPoints]
145,283.018867924528,4,2,1,60,1,0
6937,-100,4,2,1,65,0,0
8069,-100,4,2,1,70,0,0
9201,-100,4,2,1,75,0,0
10050,-100,4,2,1,60,0,0
10333,-100,4,2,1,80,0,0
19390,-125,4,2,1,60,0,0
27314,-125,4,2,1,70,0,0
28446,-100,4,2,1,70,0,0
45428,-100,4,2,1,60,0,0
54484,-100,4,2,1,70,0,0
55616,-100,4,2,1,80,0,0
63541,-100,4,2,1,60,0,0
72597,-100,4,2,1,50,0,0
73729,-125,4,2,1,50,0,0
88446,-200,4,2,1,50,0,0
90711,-200,4,2,1,60,0,0
95239,-100,4,2,1,70,0,0
97503,-100,4,2,1,75,0,0
99201,-100,4,2,1,50,0,0
99272,-100,4,2,1,46,0,0
99343,-100,4,2,1,42,0,0
99413,-100,4,2,1,38,0,0
99484,-100,4,2,1,34,0,0
99555,-100,4,2,1,30,0,0
99626,-100,4,2,1,26,0,0
99696,-100,4,2,1,22,0,0
99767,-100,4,2,1,18,0,0
99838,-100,4,2,1,14,0,0
99909,-100,4,2,1,10,0,0
99979,-100,4,2,1,6,0,0
100050,-100,4,2,1,60,0,0
100899,-100,4,2,1,80,0,0
109956,-100,4,2,1,90,0,0
119225,-100,4,2,1,5,0,0

[Colours]
Combo1 : 173,255,95
Combo2 : 193,132,255
Combo3 : 17,254,176
Combo4 : 255,138,108

[HitObjects]
18,277,145,6,0,B|73:306|73:306|146:293,1,120,4|8,1:2|0:0,0:0:0:0:
214,340,711,1,8,0:0:0:0:
285,275,994,1,8,0:0:0:0:
368,322,1277,2,0,L|508:337,2,120,8|8|10,0:0|0:0|0:0,0:0:0:0:
192,244,2409,6,0,P|171:177|191:103,1,120,8|8,0:0|0:0,0:0:0:0:
249,63,2975,1,8,0:0:0:0:
344,76,3258,1,8,0:0:0:0:
378,165,3541,2,0,P|365:241|363:309,2,120,8|8|10,0:0|0:0|0:0,0:0:0:0:
435,88,4390,1,10,1:2:0:0:
358,30,4673,6,0,L|223:45,1,120,12|8,1:2|0:0,0:0:0:0:
164,104,5239,2,0,P|88:94|10:83,1,120,8|8,0:2|0:2,0:0:0:0:
11,177,5805,2,0,P|-4:234|5:293,2,120,8|8|10,0:0|0:0|0:0,0:0:0:0:
124,307,6937,5,4,1:2:0:0:
217,287,7220,1,0,1:0:0:0:
282,216,7503,1,0,1:0:0:0:
277,120,7786,1,0,1:0:0:0:
194,70,8069,6,0,P|61:181|245:270,1,420,0|0,1:2|1:0,1:0:0:0:
247,323,9201,2,0,B|277:266|277:266|280:213|280:213|327:185|327:185|344:129|344:129|394:92|394:92|398:14,1,360,0|4,1:0|1:2,1:0:0:0:
223,46,10333,6,0,P|166:41|105:-11,2,120,6|2|2,1:0|1:0|1:0,0:0:0:0:
275,17,11041,1,2,1:1:0:0:
275,17,11182,1,2,1:0:0:0:
359,102,11465,2,0,P|354:152|345:198,1,60,2|0,1:1|1:1,0:0:0:0:
299,190,11748,2,0,P|258:188|224:183,1,60,2|2,1:1|1:1,0:0:0:0:
195,227,12031,2,0,P|226:291|237:360,1,120,2|4,1:0|1:2,0:0:0:0:
355,340,12597,6,0,P|412:310|485:298,2,120,6|2|2,1:0|1:0|1:1,0:0:0:0:
314,384,13305,1,2,1:1:0:0:
314,384,13446,1,2,1:0:0:0:
197,351,13729,2,0,P|168:352|138:356,1,60,6|2,1:1|1:1,0:0:0:0:
84,330,14012,2,0,P|78:284|77:247,1,60,2|2,1:1|1:2,0:0:0:0:
117,225,14295,1,6,1:1:0:0:
232,256,14578,1,6,1:1:0:0:
343,212,14861,6,0,B|357:131|357:131|344:83,2,120,6|2|2,1:0|1:0|1:0,0:0:0:0:
329,270,15569,1,2,1:1:0:0:
329,270,15711,1,2,1:0:0:0:
216,310,15994,2,0,L|143:299,1,60,2|0,1:1|1:1,0:0:0:0:
103,329,16277,2,0,P|93:277|83:243,1,60,2|2,1:1|1:1,0:0:0:0:
45,231,16560,2,0,P|120:226|181:179,1,120,2|4,1:0|1:2,0:0:0:0:
259,141,17126,6,0,L|331:151,2,60,6|0|2,1:0|1:0|1:0,0:0:0:0:
158,76,17692,2,0,L|86:86,2,60,2|2|2,1:0|1:0|1:0,0:0:0:0:
254,4,18258,2,0,P|412:29|379:197,1,360,2|4,1:0|1:0,0:0:0:0:
317,257,19390,6,0,P|267:253|200:249,1,96,6|2,1:2|0:0,0:0:0:0:
132,285,19956,1,2,0:0:0:0:
72,209,20239,2,0,P|68:167|68:129,2,48,2|2|2,0:0|0:0|0:0,0:0:0:0:
15,286,20805,2,0,P|30:341|41:393,1,96,2|2,0:0|0:0,0:0:0:0:
228,350,21654,6,0,P|252:278|242:216,1,96,2|2,0:0|0:0,0:0:0:0:
200,177,22220,1,2,0:0:0:0:
261,103,22503,2,0,L|342:111,2,48,2|2|2,0:0|0:0|0:0,0:0:0:0:
207,23,23069,2,0,P|153:50|103:53,1,96,2|2,0:0|0:0,0:0:0:0:
25,29,23635,1,6,1:2:0:0:
1,122,23918,6,0,L|18:223,1,96,6|2,3:2|3:2,0:0:0:0:
5,263,24343,2,0,L|112:239,1,96,2|2,3:2|3:2,0:0:0:0:
140,264,24767,1,2,3:2:0:0:
227,225,25050,2,0,P|230:162|212:106,2,96,0|2|0,3:2|3:2|3:2,0:0:0:0:
247,274,25758,1,2,3:2:0:0:
247,274,25899,1,2,3:2:0:0:
317,338,26182,6,0,L|440:326,1,96,0|0,1:0|1:0,0:0:0:0:
485,266,26748,2,0,L|463:134,1,96,0|0,1:0|1:0,0:0:0:0:
402,102,27314,2,0,P|267:139|273:274,1,288,0|0,1:0|1:0,0:0:0:0:
150,291,28446,6,0,P|115:295|81:300,1,60,6|0,1:2|0:2,0:2:0:0:
40,265,28729,2,0,P|54:343|59:389,2,120,2|2|2,1:2|1:2|1:2,0:2:0:0:
18,208,29437,1,2,0:2:0:0:
18,208,29578,1,2,1:2:0:0:
103,123,29861,1,2,1:2:0:0:
196,197,30144,2,0,P|263:202|328:206,1,120,2|2,1:2|1:2,0:0:0:0:
433,231,30711,6,0,P|437:178|443:144,1,60,2|0,1:2|0:2,0:2:0:0:
406,119,30994,2,0,P|449:67|460:0,2,120,2|2|2,1:2|1:2|1:2,0:2:0:0:
346,119,31701,1,2,0:2:0:0:
346,119,31843,1,2,1:2:0:0:
255,39,32126,1,2,1:2:0:0:
159,110,32409,2,0,L|30:122,1,120,2|2,1:2|1:2,0:0:0:0:
41,241,32975,6,0,P|89:241|131:242,1,60,2|0,1:2|0:2,0:2:0:0:
152,272,33258,2,0,P|168:203|206:132,2,120,2|2|2,1:2|1:2|1:2,0:2:0:0:
162,330,33965,1,2,0:2:0:0:
162,330,34107,1,2,1:2:0:0:
273,373,34390,1,2,1:2:0:0:
371,305,34673,2,0,P|360:254|343:175,1,120,2|2,1:2|1:2,0:0:0:0:
237,136,35239,6,0,P|201:135|165:136,1,60,2|0,1:2|0:2,0:2:0:0:
124,165,35522,2,0,P|99:89|107:20,2,120,2|2|0,1:2|1:2|0:0,0:2:0:0:
130,224,36229,1,2,1:2:0:0:
130,224,36371,1,2,0:0:0:0:
278,329,37503,5,4,1:0:0:0:
278,329,37644,2,0,L|361:321,1,60,2|2,1:0|1:0,0:0:0:0:
438,257,38069,2,0,P|455:302|462:366,2,90,2|2|2,1:0|1:0|1:0,0:0:0:0:
397,220,38635,1,0,0:0:0:0:
397,220,38777,2,0,L|325:231,1,60,2|2,1:0|1:0,0:0:0:0:
222,195,39201,2,0,P|206:133|209:80,2,90,2|2|2,1:0|1:0|1:0,0:0:0:0:
210,257,39767,5,0,0:0:0:0:
210,257,39909,2,0,L|147:264,1,60,2|2,1:0|1:0,0:0:0:0:
35,297,40333,2,0,P|57:349|65:397,2,90,2|2|2,1:0|1:0|1:0,0:0:0:0:
9,246,40899,5,0,1:0:0:0:
9,246,41041,2,0,P|2:217|0:188,1,60,2|2,1:0|1:0,0:0:0:0:
96,115,41465,2,0,P|89:58|79:9,2,90,2|2|2,1:0|1:0|1:0,0:0:0:0:
212,161,42173,5,2,1:0:0:0:
212,161,42315,1,2,1:0:0:0:
307,231,42597,2,0,P|354:224|395:216,2,90,2|2|2,1:0|1:0|1:0,0:0:0:0:
300,111,43305,5,2,1:0:0:0:
300,111,43446,1,2,1:0:0:0:
201,180,43729,2,0,P|154:172|112:164,2,90,2|2|2,1:0|1:0|1:0,0:0:0:0:
230,66,44437,5,2,1:0:0:0:
230,66,44579,1,2,1:0:0:0:
325,136,44861,2,0,P|371:128|413:120,2,90,2|2|2,1:0|1:0|1:0,0:0:0:0:
271,164,45428,6,0,P|249:218|256:291,1,120,2|2,0:2|0:2,0:0:0:0:
342,357,45994,2,0,P|399:349|459:306,1,120,2|4,0:2|1:1,0:0:0:0:
455,190,46560,1,4,1:0:0:0:
256,192,50805,5,4,1:0:0:0:
256,192,51088,1,4,1:0:0:0:
199,292,53352,5,0,1:0:0:0:
314,322,53635,1,0,1:0:0:0:
413,254,53918,1,0,1:0:0:0:
427,134,54201,1,0,1:0:0:0:
317,84,54484,6,0,P|221:122|298:331,1,360,0|4,1:0|0:2,1:0:0:0:
386,280,55616,6,0,P|398:207|418:136,2,120,6|2|2,1:0|1:1|1:0,0:0:0:0:
386,340,56324,1,2,1:0:0:0:
386,340,56465,1,2,1:0:0:0:
266,329,56748,2,0,P|214:334|180:338,1,60,2|0,1:0|1:0,0:0:0:0:
153,364,57031,2,0,P|141:314|135:297,1,60,2|2,1:0|1:0,0:0:0:0:
86,275,57314,2,0,P|127:204|127:147,1,120,2|4,1:0|1:2,0:0:0:0:
117,48,57880,6,0,P|53:50|-13:33,2,120,6|2|2,1:0|1:0|1:0,0:0:0:0:
173,27,58588,1,2,1:0:0:0:
173,27,58729,1,2,1:0:0:0:
235,129,59012,2,0,P|281:125|320:124,1,60,6|2,1:0|1:0,0:0:0:0:
353,137,59295,2,0,P|360:85|367:50,1,60,6|0,1:0|1:0,0:0:0:0:
396,28,59578,1,6,1:0:0:0:
482,111,59861,1,6,1:0:0:0:
413,209,60144,6,0,P|339:198|281:196,2,120,6|2|2,1:0|1:0|1:0,0:0:0:0:
472,219,60852,1,2,1:0:0:0:
472,219,60994,1,2,1:0:0:0:
408,320,61277,2,0,P|376:316|334:313,1,60,2|0,1:0|1:0,0:0:0:0:
297,345,61560,2,0,P|259:326|228:317,1,60,2|2,1:0|1:0,0:0:0:0:
182,328,61843,2,0,P|150:265|160:202,1,120,2|4,1:0|1:2,0:0:0:0:
257,157,62409,6,0,P|248:73|251:13,2,120,6|2|2,1:0|1:0|1:0,0:0:0:0:
271,215,63116,1,2,1:0:0:0:
271,215,63258,1,2,1:0:0:0:
380,174,63541,2,0,P|368:73|213:60,1,240,2|2,0:0|0:0,0:0:0:0:
8,36,64673,6,0,P|22:140|25:209,1,120,6|2,1:2|0:0,0:0:0:0:
39,273,65239,1,2,0:2:0:0:
39,273,65522,1,2,0:2:0:0:
134,345,65805,2,0,P|219:335|286:332,1,120,2|2,0:2|0:2,0:0:0:0:
371,355,66371,1,2,0:2:0:0:
371,355,66654,1,6,1:2:0:0:
469,286,66937,6,0,P|425:222|344:218,1,120,6|0,1:2|0:0,0:0:0:0:
267,217,67503,2,0,P|197:221|134:216,1,120,6|0,1:2|0:0,0:0:0:0:
68,126,68069,2,0,P|102:77|171:71,1,120,6|0,1:2|0:0,0:0:0:0:
267,18,68635,2,0,P|261:93|263:144,1,120,6|2,1:2|1:2,0:0:0:0:
168,212,69201,5,4,1:0:0:0:
254,295,69484,1,0,1:0:0:0:
369,262,69767,1,0,1:0:0:0:
434,161,70050,1,0,1:0:0:0:
363,63,70333,6,0,B|179:23|189:159|17:109,1,360,0|0,1:0|1:0,0:0:0:0:
256,192,71465,12,4,72597,1:0:0:0:
78,182,73729,6,0,P|60:94|137:13,2,192,2|2|2,0:0|0:0|0:0,0:0:0:0:
2,353,75994,2,0,P|114:321|216:312,1,192,2|2,0:0|0:0,0:0:0:0:
280,341,76843,1,2,1:2:0:0:
370,309,77126,2,0,P|331:152|168:236,1,384,4|2,1:0|0:0,0:0:0:0:
48,74,78824,2,0,P|99:113|242:105,1,192,2|2,0:0|0:0,0:0:0:0:
413,27,80239,1,2,0:0:0:0:
486,88,80522,2,0,P|480:142|477:214,1,96,2|2,0:0|0:0,0:0:0:0:
393,230,81088,2,0,P|334:223|284:221,1,96,2|2,0:0|0:0,0:0:0:0:
220,163,81654,6,0,P|29:203|81:370,1,384,4|2,1:0|0:0,0:0:0:0:
246,356,83352,2,0,P|263:261|244:155,1,192,2|2,0:0|0:0,0:0:0:0:
20,29,85050,1,2,0:0:0:0:
80,211,85616,2,0,P|128:211|204:207,1,96,2|0,0:0|1:0,0:0:0:0:
247,272,86182,6,0,P|379:249|390:20,1,384,4|2,1:0|0:0,0:0:0:0:
210,44,87880,1,2,0:0:0:0:
86,191,88446,6,0,B|259:256|262:131|445:187,1,360,2|2,0:0|0:0,0:0:0:0:
437,184,90711,5,8,1:2:0:0:
480,317,95239,5,12,1:2:0:0:
364,283,95522,1,8,1:2:0:0:
262,346,95805,1,8,1:2:0:0:
160,282,96088,1,8,1:2:0:0:
41,302,96371,2,0,P|40:231|42:175,1,120,8|8,1:2|1:2,0:0:0:0:
130,101,96937,2,0,P|200:103|276:103,1,120,8|8,1:2|1:2,0:0:0:0:
256,192,97503,12,0,99767,1:0:0:0:
119,268,100899,6,0,P|118:226|123:169,1,60,4|2,1:2|0:1,0:0:0:0:
149,156,101182,1,2,1:0:0:0:
91,50,101465,2,0,P|59:52|13:54,2,60,2|2|0,1:0|0:1|0:0,0:0:0:0:
146,22,101890,1,2,1:0:0:0:
146,22,102031,2,0,P|213:38|228:114,1,120,0|0,1:0|1:0,0:0:0:0:
204,196,102597,2,0,P|283:177|340:170,1,120,2|2,1:0|1:0,0:0:0:0:
415,97,103163,5,2,1:0:0:0:
480,197,103446,1,0,1:0:0:0:
408,293,103729,1,2,1:0:0:0:
408,293,103871,2,0,P|349:284|288:280,1,120,2|2,1:1|1:0,0:0:0:0:
236,308,104295,2,0,P|202:252|224:174,1,120,0|0,1:0|1:0,0:0:0:0:
291,114,104861,2,0,P|322:110|378:99,2,60,2|0|2,1:0|1:0|1:0,0:0:0:0:
196,39,105428,6,0,P|141:43|113:144,1,120,4|2,1:2|1:0,0:0:0:0:
84,210,105994,2,0,P|53:216|20:218,2,60,2|2|0,1:0|0:1|0:0,0:0:0:0:
139,188,106418,1,2,1:0:0:0:
139,188,106560,2,0,P|211:197|262:236,1,120,0|0,1:0|1:0,0:0:0:0:
237,341,107126,2,0,P|319:322|363:321,1,120,2|2,1:0|1:0,0:0:0:0:
469,356,107692,6,0,P|458:270|464:197,1,120,2|0,1:0|1:0,0:0:0:0:
408,128,108258,1,2,1:0:0:0:
408,128,108399,2,0,P|329:153|319:238,1,120,2|2,0:1|0:1,0:0:0:0:
276,228,108824,2,0,B|187:216|187:216|155:179,2,120,2|2|2,0:0|0:0|0:0,0:0:0:0:
408,128,109956,6,0,L|322:114,1,60,4|0,1:2|1:0,0:0:0:0:
306,75,110239,1,0,1:0:0:0:
306,75,110380,2,0,P|230:85|172:88,1,120,0|0,1:0|1:0,0:0:0:0:
134,58,110805,1,0,1:0:0:0:
38,130,111088,2,0,P|39:166|41:202,1,60,0|0,1:0|1:0,0:0:0:0:
17,245,111371,2,0,P|69:238|96:238,1,60,0|0,1:0|1:0,0:0:0:0:
134,223,111654,2,0,P|170:271|170:340,1,120,0|0,1:0|1:0,0:0:0:0:
286,368,112220,6,0,P|395:360|443:239,1,240,0|0,1:0|1:0,0:0:0:0:
394,219,112928,2,0,P|377:144|378:74,1,120,0|0,1:0|1:0,0:0:0:0:
413,54,113352,2,0,P|448:55|485:52,2,60,0|0|0,1:0|1:0|1:0,0:0:0:0:
288,22,113918,2,0,P|298:103|295:165,1,120,0|4,1:0|1:0,0:0:0:0:
277,259,114484,6,0,P|245:254|202:252,1,60,4|0,1:0|1:0,0:0:0:0:
167,283,114767,1,0,1:0:0:0:
167,283,114909,2,0,P|130:226|82:180,1,120,0|0,1:0|1:0,0:0:0:0:
33,184,115333,1,0,1:0:0:0:
122,104,115616,6,0,P|169:108|208:107,1,60,4|0,1:0|1:0,0:0:0:0:
238,128,115899,2,0,P|257:80|273:56,1,60,0|0,1:0|1:0,0:0:0:0:
311,40,116182,2,0,P|397:54|431:113,1,120,0|0,1:0|1:0,0:0:0:0:
485,173,116748,5,4,1:0:0:0:
422,275,117031,1,0,1:0:0:0:
308,252,117314,1,4,1:0:0:0:
308,252,117456,2,0,P|241:259|177:279,1,120,0|0,1:0|1:0,0:0:0:0:
133,257,117880,2,0,B|115:170|115:170|133:134,2,120,4|0|0,1:0|1:0|1:0,1:0:0:0:
167,371,118729,1,4,1:1:0:0:
284,345,119012,1,4,1:2:0:0:
