osu file format v14

[General]
AudioFilename: audio.mp3
AudioLeadIn: 0
PreviewTime: 10298
Countdown: 0
SampleSet: Soft
StackLeniency: 0.6
Mode: 0
LetterboxInBreaks: 0
WidescreenStoryboard: 1

[Editor]
DistanceSpacing: 0.5
BeatDivisor: 4
GridSize: 4
TimelineZoom: 3.599999

[Metadata]
Title:Plan 8
TitleUnicode:Plan 8
Artist:Ryu*
ArtistUnicode:Ryu☆
Creator:Luscent
Version:Hard
Source:beatmania IIDX 20 tricoro
Tags:cellina Reana HAPPY GABBA KONAMI BEMANI jubeat saucer plus DanceDanceRevolution instrumental electronic video game jukebeat music pack 57 prop clan fulfil Qubell festo 21 SPADA INFINITAS 楽曲パック vol 4 ultimate mobile
BeatmapID:3055125
BeatmapSetID:1466536

[Difficulty]
HPDrainRate:4
CircleSize:3.6
OverallDifficulty:6
ApproachRate:8
SliderMultiplier:1.3
SliderTickRate:1

[Events]
//Background and Video events
0,0,"iidx.jpg",0,0
//Break Periods
2,46760,50055
2,51288,52602
2,90911,94206
//Storyboard Layer 0 (Background)
//Storyboard Layer 1 (Fail)
//Storyboard Layer 2 (Pass)
//Storyboard Layer 3 (Foreground)
//Storyboard Layer 4 (Overlay)
//Storyboard Sound Samples

[TimingPoints]
145,283.018867924528,4,2,1,60,1,0
6937,-100,4,2,1,65,0,0
8069,-100,4,2,1,70,0,0
9201,-100,4,2,1,75,0,0
10050,-100,4,2,1,60,0,0
10333,-90.9090909090909,4,2,1,80,0,0
19390,-125,4,2,1,60,0,0
27314,-125,4,2,1,70,0,0
28446,-100,4,2,1,70,0,0
45428,-100,4,2,1,60,0,0
54484,-100,4,2,1,70,0,0
55616,-90.9090909090909,4,2,1,80,0,0
63541,-133.333333333333,4,2,1,60,0,0
72597,-133.333333333333,4,2,1,50,0,0
73729,-166.666666666667,4,2,1,50,0,0
88446,-250,4,2,1,50,0,0
90711,-250,4,2,1,60,0,0
95239,-250,4,2,1,70,0,0
97503,-100,4,2,1,75,0,0
99201,-100,4,2,1,50,0,0
99272,-100,4,2,1,46,0,0
99343,-100,4,2,1,42,0,0
99413,-100,4,2,1,38,0,0
99484,-100,4,2,1,34,0,0
99555,-100,4,2,1,30,0,0
99626,-100,4,2,1,26,0,0
99696,-100,4,2,1,22,0,0
99767,-100,4,2,1,50,0,0
100899,-90.9090909090909,4,2,1,80,0,0
109956,-83.3333333333333,4,2,1,90,0,0
119225,-83.3333333333333,4,2,1,5,0,0

[Colours]
Combo1 : 173,255,95
Combo2 : 193,132,255
Combo3 : 17,254,176
Combo4 : 255,138,108

[HitObjects]
94,96,145,6,0,P|121:150|117:231,1,130,4|8,1:2|0:0,0:0:0:0:
78,310,569,1,0,0:0:0:0:
78,310,640,1,0,0:0:0:0:
78,310,711,2,0,P|129:305|167:303,1,65,8|0,0:0|0:0,0:0:0:0:
226,372,994,2,0,P|237:316|248:279,1,65,8|0,0:0|0:0,0:0:0:0:
329,268,1277,6,0,P|348:213|346:176,1,65,8|0,0:0|0:0,0:0:0:0:
262,147,1560,2,0,L|218:151,2,32.5,8|0|0,0:0|0:0|0:0,0:0:0:0:
331,79,1843,6,2,L|320:-13,1,65,10|2,0:0|0:0,0:0:0:0:
409,70,2126,2,2,L|398:-22,1,65,10|2,0:0|0:0,0:0:0:0:
506,172,2409,5,8,0:0:0:0:
506,172,2692,2,0,L|416:162,1,65,8|0,0:0|0:0,0:0:0:0:
425,164,2904,1,0,0:0:0:0:
408,164,2975,2,0,P|386:209|383:251,1,65,8|0,0:0|0:0,0:0:0:0:
380,344,3258,2,0,P|346:319|314:305,1,65,8|0,0:0|0:0,0:0:0:0:
158,279,3541,6,0,L|231:272,1,65,8|0,0:0|0:0,0:0:0:0:
283,191,3824,2,0,L|328:197,2,32.5,8|0|0,0:0|0:0|0:0,0:0:0:0:
206,122,4107,6,2,L|198:36,1,65,10|2,0:0|0:0,0:0:0:0:
128,130,4390,2,2,L|120:44,1,65,10|2,1:2|0:0,0:0:0:0:
37,35,4673,5,12,1:2:0:0:
37,35,4956,1,8,0:0:0:0:
0,113,5097,1,0,0:0:0:0:
0,113,5168,1,0,0:0:0:0:
0,113,5239,2,0,P|7:164|11:193,1,65,8|0,0:0|0:0,0:0:0:0:
0,262,5522,2,0,P|45:254|91:249,1,65,8|0,0:0|0:0,0:0:0:0:
132,318,5805,6,0,P|165:286|204:263,1,65,8|0,0:0|0:0,0:0:0:0:
266,233,6088,2,0,L|308:240,2,32.5,8|0|0,0:0|0:0|0:0,0:0:0:0:
230,149,6371,6,2,L|223:66,1,65,10|2,0:0|0:0,0:0:0:0:
310,142,6654,2,2,L|303:59,1,65,10|2,0:0|0:0,0:0:0:0:
373,16,6937,5,4,1:2:0:0:
424,20,7078,1,0,1:0:0:0:
466,50,7220,1,0,1:0:0:0:
490,95,7361,1,0,1:0:0:0:
484,146,7503,1,0,1:0:0:0:
459,191,7644,1,0,1:0:0:0:
412,214,7786,1,0,1:0:0:0:
360,206,7928,1,0,1:0:0:0:
318,175,8069,6,0,L|316:127,7,32.5,0|0|0|0|0|0|0|0,1:2|1:0|1:0|1:0|1:0|1:0|1:0|1:0,1:0:0:0:
279,208,8635,2,0,L|229:196,7,32.5,0|0|0|0|0|0|0|0,1:0|1:0|1:0|1:0|1:0|1:0|1:0|1:0,1:0:0:0:
298,256,9201,2,0,L|299:279,24,16.25,0|0|0|0|0|0|0|0|0|0|0|0|0|0|0|0|0|0|0|0|0|0|0|0|4,1:0|1:0|1:0|1:0|1:0|1:0|1:0|1:0|1:0|1:0|1:0|1:0|1:0|1:0|1:0|1:0|1:0|1:0|1:0|1:0|1:0|1:0|1:0|1:0|1:2,1:0:0:0:
150,260,10333,6,0,P|195:319|211:406,2,143.000004364014,6|2|2,1:0|1:0|1:0,0:0:0:0:
68,231,11041,1,2,1:1:0:0:
25,158,11182,2,0,P|20:116|24:67,1,71.5000021820069,2|0,1:0|1:0,0:0:0:0:
29,66,11394,1,0,1:0:0:0:
41,48,11465,1,2,1:1:0:0:
118,85,11607,2,0,P|161:89|207:87,1,71.5000021820069,0|2,1:1|1:1,0:0:0:0:
252,28,11890,1,2,1:1:0:0:
325,121,12031,1,2,1:0:0:0:
325,121,12314,5,4,1:2:0:0:
252,275,12597,6,0,B|155:291|155:291|96:262,2,143.000004364014,6|2|2,1:0|1:0|1:1,0:0:0:0:
326,317,13305,1,2,1:1:0:0:
386,257,13446,2,0,L|396:162,1,71.5000021820069,2|0,1:0|1:0,0:0:0:0:
397,164,13659,1,0,1:0:0:0:
400,143,13729,1,6,1:1:0:0:
314,168,13871,1,2,1:1:0:0:
245,122,14012,2,0,L|159:134,1,71.5000021820069,2|2,1:1|1:2,0:0:0:0:
90,111,14295,6,0,L|75:24,1,71.5000021820069,6|2,1:1|1:1,0:0:0:0:
215,18,14578,2,0,L|227:88,1,71.5000021820069,6|2,1:1|1:1,0:0:0:0:
142,222,14861,6,0,L|-12:206,2,143.000004364014,6|2|2,1:0|1:0|1:0,0:0:0:0:
208,276,15569,1,2,1:1:0:0:
281,231,15711,2,0,P|290:184|294:129,1,71.5000021820069,2|0,1:0|1:0,0:0:0:0:
295,137,15923,1,0,1:0:0:0:
291,115,15994,1,2,1:1:0:0:
376,156,16135,2,0,P|423:143|457:123,1,71.5000021820069,0|2,1:1|1:1,0:0:0:0:
488,57,16418,1,2,1:1:0:0:
416,0,16560,1,2,1:0:0:0:
416,0,16843,5,4,1:2:0:0:
153,63,17126,6,0,L|162:153,1,71.5000021820069,6|0,1:0|1:0,0:0:0:0:
242,183,17409,1,2,1:0:0:0:
242,183,17550,1,0,1:0:0:0:
337,181,17692,6,0,L|328:271,1,71.5000021820069,2|2,1:0|1:0,0:0:0:0:
248,301,17975,1,2,1:0:0:0:
248,301,18116,1,0,1:0:0:0:
166,357,18258,2,0,L|116:350,11,35.7500010910034,2|0|2|0|2|0|2|0|2|0|0|0,1:0|1:0|1:0|1:0|1:0|1:0|1:0|1:0|1:0|1:0|1:0|1:0,0:0:0:0:
206,365,19107,1,4,1:0:0:0:
343,286,19390,5,6,1:2:0:0:
400,175,19673,1,2,0:0:0:0:
317,81,19956,1,2,0:0:0:0:
202,130,20239,1,2,0:0:0:0:
202,130,20380,1,2,0:0:0:0:
202,130,20522,2,0,P|207:193|211:256,2,104,2|2|2,0:0|0:0|0:0,0:0:0:0:
194,55,21229,1,2,0:0:0:0:
194,55,21371,1,2,0:0:0:0:
18,207,21654,5,2,0:0:0:0:
125,142,21937,1,2,0:0:0:0:
209,233,22220,1,2,0:0:0:0:
321,179,22503,1,2,0:0:0:0:
321,179,22644,1,2,0:0:0:0:
321,179,22786,2,0,L|331:67,2,104,2|2|2,0:0|0:0|0:0,0:0:0:0:
313,255,23494,1,0,0:0:0:0:
313,255,23635,1,6,1:2:0:0:
56,357,23918,6,0,P|105:341|157:338,1,104,6|2,3:2|3:2,0:0:0:0:
223,288,24343,2,0,P|237:208|233:148,1,104,2|2,3:2|3:2,0:0:0:0:
180,123,24767,1,2,3:2:0:0:
233,54,24909,2,0,L|228:10,2,26,0|0|0,3:2|3:2|3:2,0:0:0:0:
313,128,25192,2,0,L|306:166,2,26,2|0|2,3:2|3:2|3:2,0:0:0:0:
413,93,25475,1,2,3:2:0:0:
413,93,25616,2,0,L|472:99,2,52,0|2|2,3:2|3:2|3:2,0:0:0:0:
395,186,26182,5,0,1:0:0:0:
395,195,26323,1,0,1:0:0:0:
396,205,26465,1,0,1:0:0:0:
397,215,26606,1,0,1:0:0:0:
398,224,26748,1,0,1:0:0:0:
399,234,26889,1,0,1:0:0:0:
399,244,27031,1,0,1:0:0:0:
400,254,27172,1,0,1:0:0:0:
401,263,27314,6,0,L|441:260,12,26,0|0|0|0|0|0|0|0|0|0|0|0|0,1:0|1:0|1:0|1:0|1:0|1:0|1:0|1:0|1:0|1:0|1:0|1:0|1:0,0:0:0:0:
297,342,28446,6,0,P|258:333|219:323,1,65,6|0,1:2|0:2,0:2:0:0:
146,369,28729,2,0,L|136:234,1,130,2|2,1:2|1:2,0:2:0:0:
218,188,29154,1,0,1:2:0:0:
218,188,29225,1,0,1:2:0:0:
218,188,29295,2,0,P|231:225|228:267,1,65,2|2,1:2|0:2,0:0:0:0:
57,289,29578,6,0,P|44:252|47:210,1,65,2|0,1:2|0:2,0:2:0:0:
0,156,29861,2,0,P|41:110|106:95,1,130,2|2,1:2|1:2,0:2:0:0:
179,120,30286,1,2,0:2:0:0:
250,87,30428,1,2,1:2:0:0:
271,12,30569,1,2,0:2:0:0:
343,41,30711,6,0,P|385:47|425:50,1,65,2|0,1:2|0:2,0:2:0:0:
490,25,30994,2,0,P|484:67|481:107,1,65,2|0,1:2|0:2,0:2:0:0:
499,170,31277,2,0,P|457:164|417:161,1,65,2|0,1:2|0:2,0:2:0:0:
360,201,31560,1,2,1:2:0:0:
360,201,31630,1,0,0:0:0:0:
360,201,31701,1,2,0:2:0:0:
272,175,31843,6,0,P|203:197|150:247,2,130,2|2|2,1:2|1:2|1:2,0:2:0:0:
341,122,32550,1,2,0:2:0:0:
348,45,32692,1,2,1:2:0:0:
162,14,32975,6,0,P|169:58|174:103,1,65,2|0,1:2|0:2,0:2:0:0:
88,127,33258,2,0,P|126:167|165:257,1,130,2|2,1:2|1:2,0:2:0:0:
153,325,33682,1,0,0:2:0:0:
153,325,33753,1,0,0:2:0:0:
153,325,33824,2,0,L|65:334,1,65,2|2,1:2|0:2,0:0:0:0:
242,374,34107,6,0,P|254:327|276:285,1,65,2|0,1:2|0:2,0:2:0:0:
352,276,34390,2,0,P|313:223|297:161,1,130,2|2,1:2|1:2,0:2:0:0:
311,85,34814,1,2,0:2:0:0:
369,32,34956,1,2,1:2:0:0:
511,73,35239,6,0,P|507:112|501:173,1,65,2|0,1:2|0:2,0:2:0:0:
439,181,35522,2,0,P|400:177|362:174,1,65,2|0,1:2|0:2,0:2:0:0:
313,223,35805,1,2,1:2:0:0:
237,205,35946,1,0,0:2:0:0:
237,205,36017,1,2,1:2:0:0:
237,205,36088,2,0,P|188:215|156:231,1,65,0|2,0:0|1:2,0:0:0:0:
84,198,36371,6,0,L|97:290,6,65,2|2|2|2|2|2|2,0:0|0:0|0:0|0:0|0:0|0:0|0:0,0:0:0:0:
51,47,37503,5,4,1:0:0:0:
51,47,37644,1,2,1:0:0:0:
51,47,37786,1,2,1:0:0:0:
136,165,38069,2,0,L|129:287,2,97.5,2|2|2,1:0|1:0|1:0,0:0:0:0:
232,117,38635,5,0,0:0:0:0:
232,117,38776,1,2,1:0:0:0:
232,117,38918,1,2,1:0:0:0:
361,204,39201,2,0,P|442:192|480:168,2,97.5,2|2|2,1:0|1:0|1:0,0:0:0:0:
294,310,39767,5,0,0:0:0:0:
294,310,39908,1,2,1:0:0:0:
294,310,40050,1,2,1:0:0:0:
145,263,40333,2,0,P|139:214|137:165,2,97.5,2|2|2,1:0|1:0|1:0,0:0:0:0:
108,352,40899,5,0,1:0:0:0:
108,352,41041,2,0,P|63:361|22:368,1,65,2|2,1:0|1:0,0:0:0:0:
196,384,41323,1,0,1:0:0:0:
259,319,41465,2,0,P|255:254|238:200,2,97.5,2|2|2,1:0|1:0|1:0,0:0:0:0:
355,349,42031,5,4,1:0:0:0:
355,349,42173,1,2,1:0:0:0:
355,349,42314,1,2,1:0:0:0:
413,204,42597,2,0,P|465:208|513:212,2,97.5,2|2|2,1:0|1:0|1:0,0:0:0:0:
348,242,43163,5,0,0:0:0:0:
348,242,43305,1,2,1:0:0:0:
348,242,43446,1,2,1:0:0:0:
209,170,43729,2,0,L|105:180,2,97.5,2|2|2,1:0|1:0|1:0,0:0:0:0:
271,114,44295,5,0,0:0:0:0:
271,114,44437,1,2,1:0:0:0:
271,114,44578,1,2,1:0:0:0:
417,60,44861,2,0,P|422:118|414:170,2,97.5,2|2|2,1:0|1:0|1:0,0:0:0:0:
352,14,45428,5,2,0:2:0:0:
271,114,45711,1,2,0:2:0:0:
389,167,45994,1,2,0:2:0:0:
470,67,46277,1,4,1:1:0:0:
352,14,46560,5,4,1:0:0:0:
257,192,50805,5,4,1:0:0:0:
257,192,51088,1,4,1:0:0:0:
256,192,53352,5,0,1:0:0:0:
256,192,53494,1,0,1:0:0:0:
256,192,53635,1,0,1:0:0:0:
256,192,53777,1,0,1:0:0:0:
256,192,53919,1,0,1:0:0:0:
256,192,54060,1,0,1:0:0:0:
256,192,54201,1,0,1:0:0:0:
256,192,54343,1,0,1:0:0:0:
348,192,54484,6,0,L|346:240,11,32.5,0|0|0|0|0|0|0|0|0|0|0|0,1:0|1:0|1:0|1:0|1:0|1:0|1:0|1:0|1:0|1:0|1:0|1:0,1:0:0:0:
349,157,55333,1,4,0:2:0:0:
267,48,55616,6,0,L|194:57,1,71.5000021820069,6|0,1:0|0:0,0:0:0:0:
117,20,55899,2,0,P|69:90|88:175,1,143.000004364014,2|2,1:1|1:0,0:0:0:0:
31,220,56324,1,2,1:0:0:0:
110,250,56465,2,0,P|157:243|197:239,1,71.5000021820069,2|0,1:0|1:0,0:0:0:0:
202,238,56678,1,0,1:0:0:0:
223,235,56748,1,2,1:0:0:0:
296,279,56890,2,0,P|306:232|322:183,1,71.5000021820069,0|2,1:0|1:0,0:0:0:0:
378,156,57173,1,2,1:0:0:0:
292,74,57314,1,2,1:0:0:0:
292,74,57597,5,4,1:2:0:0:
487,173,57880,6,0,L|499:26,2,143.000004364014,6|2|2,1:0|1:0|1:0,0:0:0:0:
458,254,58588,1,2,1:0:0:0:
375,230,58729,2,0,P|332:228|288:226,1,71.5000021820069,2|0,1:0|1:0,0:0:0:0:
281,226,58942,1,0,1:0:0:0:
259,226,59012,1,6,1:0:0:0:
213,152,59154,1,2,1:0:0:0:
272,90,59295,2,0,P|312:94|356:98,1,71.5000021820069,6|0,1:0|1:0,0:0:0:0:
428,104,59578,6,0,P|436:138|439:174,1,71.5000021820069,6|2,1:0|1:0,0:0:0:0:
319,241,59861,2,0,P|310:206|307:170,1,71.5000021820069,6|2,1:0|1:0,0:0:0:0:
482,281,60144,6,0,L|399:275,1,71.5000021820069,6|0,1:0|0:0,0:0:0:0:
348,356,60428,2,0,P|283:320|214:312,1,143.000004364014,2|2,1:0|1:0,0:0:0:0:
132,333,60852,1,2,1:0:0:0:
66,277,60994,2,0,P|62:241|64:205,1,71.5000021820069,2|0,1:0|1:0,0:0:0:0:
72,185,61206,1,0,1:0:0:0:
82,166,61277,1,2,1:0:0:0:
167,173,61418,2,0,L|251:182,1,71.5000021820069,0|2,1:0|1:0,0:0:0:0:
302,111,61701,1,2,1:0:0:0:
249,23,61843,1,2,1:0:0:0:
249,23,62126,5,4,1:2:0:0:
69,53,62409,6,0,P|62:124|94:197,2,143.000004364014,6|2|2,1:0|1:0|1:0,0:0:0:0:
152,11,63116,1,2,1:0:0:0:
152,11,63258,1,2,1:0:0:0:
299,88,63541,6,0,L|368:94,2,48.750001859665,2|2|2,0:0|0:0|0:0,0:0:0:0:
252,123,63965,1,2,0:0:0:0:
202,155,64107,2,2,L|153:150,2,48.750001859665,2|0|2,0:0|0:0|0:0,0:0:0:0:
361,191,64673,6,0,L|430:197,2,48.750001859665,6|2|2,1:2|0:0|0:0,0:0:0:0:
314,226,65097,1,2,0:0:0:0:
264,258,65239,2,2,L|215:253,2,48.750001859665,2|2|2,0:2|0:2|0:2,0:2:0:0:
423,294,65805,6,0,L|492:300,2,48.750001859665,2|2|2,0:2|0:2|0:2,0:0:0:0:
376,329,66229,1,2,0:2:0:0:
326,361,66371,2,2,L|277:356,2,48.750001859665,2|2|6,0:2|0:2|1:2,0:2:0:0:
349,237,66937,5,6,1:2:0:0:
139,340,67503,1,6,1:2:0:0:
15,141,68069,1,6,1:2:0:0:
224,35,68635,1,6,1:2:0:0:
224,35,68918,1,2,1:2:0:0:
160,140,69201,5,4,1:0:0:0:
178,137,69342,1,0,1:0:0:0:
196,135,69484,1,0,1:0:0:0:
214,133,69625,1,0,1:0:0:0:
232,131,69767,1,0,1:0:0:0:
250,128,69908,1,0,1:0:0:0:
268,126,70050,1,0,1:0:0:0:
287,124,70191,1,0,1:0:0:0:
305,122,70333,6,0,L|349:116,12,24.3750009298325,0|0|0|0|0|0|0|0|0|0|0|0|0,1:0|1:0|1:0|1:0|1:0|1:0|1:0|1:0|1:0|1:0|1:0|1:0|1:0,0:0:0:0:
256,192,71465,12,4,72597,1:0:0:0:
103,268,73729,6,0,P|72:198|79:121,2,155.999995239258,2|2|2,0:0|0:0|0:0,0:0:0:0:
235,363,75994,2,0,P|309:337|395:327,1,155.999995239258,2|2,0:0|0:0,0:0:0:0:
484,335,76843,1,2,1:2:0:0:
494,236,77126,6,0,P|356:235|294:68,1,311.999990478516,4|2,1:0|0:0,0:0:0:0:
148,16,78824,1,2,0:0:0:0:
26,112,79390,6,0,L|49:358,1,233.999992858887,2|2,0:0|0:0,0:0:0:0:
130,375,80522,1,2,0:0:0:0:
205,316,80805,1,2,0:0:0:0:
281,363,81088,1,2,0:0:0:0:
353,307,81371,1,2,0:0:0:0:
439,324,81654,6,0,P|451:225|276:199,1,311.999990478516,4|2,1:0|0:0,0:0:0:0:
158,263,83352,1,2,0:0:0:0:
314,360,83918,6,0,B|378:289|338:215|338:215|244:172|276:66,1,311.999990478516,2|2,0:0|0:0,0:0:0:0:
472,131,85616,1,2,0:0:0:0:
438,209,85899,1,0,1:0:0:0:
361,241,86182,6,0,P|236:233|211:66,1,311.999990478516,4|2,1:0|0:0,0:0:0:0:
354,80,87880,1,2,0:0:0:0:
361,241,88446,6,0,P|197:216|28:209,1,312,2|2,0:0|0:0,0:0:0:0:
48,91,90711,1,8,1:2:0:0:
256,192,94956,5,8,1:2:0:0:
172,292,95239,5,12,1:2:0:0:
181,292,95380,1,0,1:0:0:0:
191,292,95522,1,8,1:2:0:0:
201,292,95663,1,0,1:0:0:0:
211,292,95805,1,8,1:2:0:0:
220,292,95946,1,0,1:0:0:0:
230,292,96088,1,8,1:2:0:0:
240,292,96229,1,0,1:0:0:0:
250,292,96371,1,8,1:2:0:0:
259,292,96512,1,0,1:0:0:0:
269,292,96654,1,8,1:2:0:0:
279,292,96795,1,0,1:0:0:0:
289,292,96937,1,8,1:2:0:0:
298,292,97078,1,0,1:0:0:0:
308,292,97220,1,8,1:2:0:0:
318,292,97361,1,0,1:0:0:0:
328,292,97503,2,0,L|364:292,28,32.5,8|0|0|0|8|0|0|0|8|0|0|0|8|0|0|0|8|0|0|0|8|0|0|0|8|0|0|0|0,1:2|1:2|1:2|1:2|1:2|1:2|1:2|1:2|1:2|1:2|1:2|1:2|1:2|1:2|1:2|1:2|1:2|1:2|1:2|1:2|1:2|1:2|1:2|1:2|1:2|1:0|1:0|1:0|1:0,1:2:0:0:
387,370,99767,6,0,P|404:295|440:229,3,130,0|8|8|2,1:0|0:0|0:0|1:1,0:0:0:0:
320,134,100899,6,0,P|283:148|248:152,1,71.5000021820069,4|2,1:2|0:1,0:0:0:0:
182,222,101182,2,2,P|162:150|109:70,1,143.000004364014,2|2,1:0|1:0,0:0:0:0:
42,100,101607,2,0,L|-6:104,2,35.7500010910034,2|0|0,1:1|1:0|1:0,0:0:0:0:
100,0,101890,1,2,1:0:0:0:
207,14,102031,6,0,P|215:75|217:106,1,71.5000021820069,0|0,1:0|0:0,0:0:0:0:
134,198,102314,2,0,P|177:190|221:186,1,71.5000021820069,0|0,1:0|0:0,0:0:0:0:
306,252,102597,2,0,P|321:182|363:125,2,143.000004364014,2|2|2,1:0|1:0|1:0,0:0:0:0:
184,355,103446,5,0,1:0:0:0:
40,290,103729,1,2,1:0:0:0:
40,290,103871,2,0,L|29:189,1,71.5000021820069,2|0,1:1|1:0,0:0:0:0:
102,161,104154,1,2,1:0:0:0:
102,161,104225,1,0,1:0:0:0:
102,161,104295,2,0,L|190:172,1,71.5000021820069,0|0,1:0|0:0,0:0:0:0:
258,153,104578,2,0,P|281:85|271:1,1,143.000004364014,0|2,1:0|1:0,0:0:0:0:
194,0,105003,1,0,1:0:0:0:
194,0,105144,1,2,1:0:0:0:
48,69,105428,6,0,L|60:147,1,71.5000021820069,4|2,1:2|0:1,0:0:0:0:
24,232,105711,2,2,P|73:220|168:208,1,143.000004364014,2|2,1:0|1:0,0:0:0:0:
252,250,106135,2,0,L|260:292,2,35.7500010910034,2|0|0,1:1|1:0|1:0,0:0:0:0:
324,167,106418,1,2,1:0:0:0:
254,94,106560,6,0,P|213:101|175:105,1,71.5000021820069,0|0,1:0|0:0,0:0:0:0:
348,17,106843,2,0,P|389:10|427:6,1,71.5000021820069,0|0,1:0|0:0,0:0:0:0:
497,70,107126,2,0,P|516:139|507:210,2,143.000004364014,2|2|2,1:0|1:0|1:0,0:0:0:0:
324,167,107975,5,0,1:0:0:0:
398,291,108258,1,2,1:0:0:0:
398,291,108399,2,0,L|474:282,1,71.5000021820069,2|0,1:1|1:0,0:0:0:0:
283,244,108682,1,2,0:1:0:0:
283,244,108753,1,0,0:0:0:0:
283,244,108824,2,0,P|247:313|250:389,2,143.000004364014,2|2|2,0:0|0:0|0:0,0:0:0:0:
412,125,109673,1,2,0:0:0:0:
287,26,109956,5,4,1:2:0:0:
287,26,110027,1,0,1:0:0:0:
287,26,110097,2,0,L|193:34,1,77.999997619629,0|0,1:0|1:0,0:0:0:0:
138,114,110380,1,0,1:0:0:0:
42,76,110522,2,0,P|32:34|30:-2,2,77.999997619629,0|0|0,1:0|1:0|1:0,0:0:0:0:
0,175,110946,1,0,1:0:0:0:
97,229,111088,6,0,P|144:223|187:218,1,77.999997619629,0|0,1:0|1:0,0:0:0:0:
249,165,111371,2,0,L|330:173,1,77.999997619629,0|0,1:0|1:0,0:0:0:0:
402,228,111654,1,0,1:0:0:0:
481,175,111795,1,0,1:0:0:0:
481,175,111866,1,0,1:0:0:0:
481,175,111937,2,0,L|475:115,2,38.9999988098145,0|0|0,1:0|1:0|1:0,0:0:0:0:
413,73,112220,6,0,P|372:79|334:82,1,77.999997619629,0|0,1:0|1:0,0:0:0:0:
263,141,112503,2,0,P|222:108|177:93,1,77.999997619629,0|0,1:0|1:0,0:0:0:0:
103,69,112786,1,0,1:0:0:0:
103,69,112857,1,0,1:0:0:0:
103,69,112928,2,0,L|56:74,4,38.9999988098145,0|0|0|0|0,1:0|1:0|1:0|1:0|1:0,0:0:0:0:
191,21,113352,6,0,P|198:59|197:109,1,77.999997619629,0|0,1:0|1:0,0:0:0:0:
101,168,113635,2,0,P|177:184|255:239,2,155.999995239258,0|0|4,1:0|1:0|1:0,0:0:0:0:
0,260,114484,6,0,L|8:347,1,77.999997619629,4|0,1:0|1:0,0:0:0:0:
88,282,114767,1,0,1:0:0:0:
88,282,114909,2,0,L|96:369,1,77.999997619629,0|0,1:0|1:0,0:0:0:0:
176,304,115192,1,0,1:0:0:0:
176,304,115333,2,0,L|184:391,1,77.999997619629,0|0,1:0|1:0,0:0:0:0:
268,329,115616,6,0,L|276:242,1,77.999997619629,4|0,1:0|1:0,0:0:0:0:
356,307,115899,1,0,1:0:0:0:
356,307,116041,2,0,L|364:220,1,77.999997619629,0|0,1:0|1:0,0:0:0:0:
444,285,116324,1,0,1:0:0:0:
444,285,116465,2,0,L|452:198,1,77.999997619629,0|0,1:0|1:0,0:0:0:0:
346,152,116748,6,0,L|293:148,2,38.9999988098145,4|0|0,1:0|1:0|1:0,0:0:0:0:
458,109,117031,2,0,L|466:22,1,77.999997619629,0|0,1:0|1:0,0:0:0:0:
337,172,117314,6,0,L|284:168,2,38.9999988098145,4|0|0,1:0|1:0|1:0,0:0:0:0:
472,103,117597,2,0,L|480:16,1,77.999997619629,0|0,1:0|1:0,0:0:0:0:
309,53,117880,6,0,B|221:73|221:73|191:55|144:56,2,155.999995239258,4|0|0,1:0|1:0|1:0,1:0:0:0:
415,153,118729,1,4,1:1:0:0:
415,153,119012,1,4,1:2:0:0:
256,192,119154,12,0,120003,0:0:0:0:
