osu file format v14

[General]
AudioFilename: audio.mp3
AudioLeadIn: 0
PreviewTime: 10298
Countdown: 0
SampleSet: Soft
StackLeniency: 0.2
Mode: 0
LetterboxInBreaks: 0
WidescreenStoryboard: 0

[Editor]
DistanceSpacing: 0.5
BeatDivisor: 4
GridSize: 4
TimelineZoom: 3.699999

[Metadata]
Title:Plan 8
TitleUnicode:Plan 8
Artist:Ryu*
ArtistUnicode:Ryu☆
Creator:Luscent
Version:Black Another
Source:beatmania IIDX 20 tricoro
Tags:cellina Reana HAPPY GABBA KONAMI BEMANI jubeat saucer plus DanceDanceRevolution instrumental electronic video game jukebeat music pack 57 prop clan fulfil Qubell festo 21 SPADA INFINITAS 楽曲パック vol 4 ultimate mobile
BeatmapID:3011793
BeatmapSetID:1466536

[Difficulty]
HPDrainRate:6
CircleSize:4
OverallDifficulty:9
ApproachRate:9.5
SliderMultiplier:1.7
SliderTickRate:1

[Events]
//Background and Video events
0,0,"iidx.jpg",0,0
//Break Periods
//Storyboard Layer 0 (Background)
//Storyboard Layer 1 (Fail)
//Storyboard Layer 2 (Pass)
//Storyboard Layer 3 (Foreground)
//Storyboard Layer 4 (Overlay)
//Storyboard Sound Samples

[TimingPoints]
145,283.018867924528,4,2,1,60,1,0
145,-66.6666666666667,4,2,1,60,0,0
428,-100,4,2,1,60,0,0
6937,-100,4,2,1,65,0,0
8069,-66.6666666666667,4,2,1,70,0,0
9201,-76.9230769230769,4,2,1,75,0,0
10050,-50,4,2,1,60,0,0
10333,-76.9230769230769,4,2,1,80,0,1
12031,-125,4,2,1,80,0,1
12314,-62.5,4,2,1,80,0,1
12597,-76.9230769230769,4,2,1,80,0,1
16560,-125,4,2,1,80,0,1
16843,-62.5,4,2,1,80,0,1
17126,-66.6666666666667,4,2,1,80,0,1
19390,-125,4,2,1,60,0,0
27314,-66.6666666666667,4,2,1,70,0,0
28446,-71.4285714285714,4,2,1,70,0,0
37503,-66.6666666666667,4,2,1,70,0,0
45428,-200,4,2,1,60,0,0
46560,-100,4,2,1,60,0,0
54484,-66.6666666666667,4,2,1,70,0,0
55333,-50,4,2,1,70,0,0
55616,-76.9230769230769,4,2,1,80,0,1
57314,-125,4,2,1,80,0,1
57597,-62.5,4,2,1,80,0,1
57880,-76.9230769230769,4,2,1,80,0,1
61843,-125,4,2,1,80,0,1
62126,-62.5,4,2,1,80,0,1
62409,-76.9230769230769,4,2,1,80,0,1
63541,-76.9230769230769,4,2,1,60,0,0
64107,-200,4,2,1,60,0,0
69201,-100,4,2,1,60,0,0
72597,-100,4,2,1,50,0,0
73729,-250,4,2,1,50,0,0
90711,-100,4,2,1,60,0,0
95239,-100,4,2,1,70,0,0
97503,-62.5,4,2,1,75,0,0
99201,-125,4,2,1,50,0,0
99272,-125,4,2,1,46,0,0
99343,-125,4,2,1,42,0,0
99413,-125,4,2,1,38,0,0
99484,-125,4,2,1,34,0,0
99555,-125,4,2,1,30,0,0
99626,-125,4,2,1,26,0,0
99696,-125,4,2,1,22,0,0
99767,-125,4,2,1,18,0,0
99838,-125,4,2,1,14,0,0
99909,-125,4,2,1,10,0,0
99979,-125,4,2,1,6,0,0
100050,-125,4,2,1,60,0,0
100899,-71.4285714285714,4,2,1,80,0,0
109956,-55.5555555555556,4,2,1,90,0,1
118163,-71.4285714285714,4,2,1,90,0,1
118446,-100,4,2,1,90,0,1
119012,-100,4,2,1,90,0,0
119225,-100,4,2,1,5,0,0

[Colours]
Combo1 : 173,255,95
Combo2 : 193,132,255
Combo3 : 17,254,176
Combo4 : 255,138,108

[HitObjects]
45,296,145,6,0,L|193:281,1,127.500004863739,4|0,1:2|0:0,0:0:0:0:
239,342,428,1,8,0:0:0:0:
298,275,569,1,0,0:0:0:0:
298,275,640,1,0,0:0:0:0:
298,275,711,1,8,0:0:0:0:
221,206,852,1,0,0:0:0:0:
351,339,994,1,8,0:0:0:0:
415,183,1135,1,0,0:0:0:0:
470,257,1277,6,0,L|520:262,2,42.5,8|0|0,0:0|0:0|0:0,0:0:0:0:
341,164,1560,1,8,0:0:0:0:
332,166,1630,1,0,0:0:0:0:
323,168,1701,1,0,0:0:0:0:
314,170,1772,1,0,0:0:0:0:
305,172,1843,6,2,L|212:187,1,85,10|2,0:0|0:0,0:0:0:0:
246,98,2126,2,2,L|153:113,1,85,10|2,0:0|0:0,0:0:0:0:
8,42,2409,6,0,L|-1:-23,2,42.5,8|0|0,0:0|0:0|0:0,0:0:0:0:
72,106,2692,1,8,0:0:0:0:
67,135,2762,1,0,0:0:0:0:
62,164,2833,1,0,0:0:0:0:
57,193,2904,1,0,0:0:0:0:
53,222,2975,1,8,0:0:0:0:
0,297,3116,1,0,0:0:0:0:
136,204,3258,1,8,0:0:0:0:
76,382,3399,1,0,0:0:0:0:
225,279,3541,5,8,0:0:0:0:
225,279,3824,1,8,0:0:0:0:
228,249,3894,1,0,0:0:0:0:
232,219,3965,1,0,0:0:0:0:
236,189,4036,1,0,0:0:0:0:
240,159,4107,6,2,L|229:70,1,85,10|2,0:0|0:0,0:0:0:0:
330,98,4390,2,2,L|319:9,1,85,10|2,1:2|0:0,0:0:0:0:
512,171,4673,5,12,1:2:0:0:
482,168,4744,1,0,0:0:0:0:
452,165,4814,1,0,0:0:0:0:
320,308,4956,1,8,0:0:0:0:
350,311,5026,1,0,0:0:0:0:
380,314,5097,1,0,0:0:0:0:
410,317,5168,1,0,0:0:0:0:
440,320,5238,1,8,0:0:0:0:
334,175,5380,1,0,0:0:0:0:
304,172,5450,1,0,0:0:0:0:
274,169,5521,1,8,0:0:0:0:
244,166,5592,1,0,0:0:0:0:
214,163,5662,1,0,0:0:0:0:
41,329,5805,6,0,L|-16:338,2,42.5,8|0|0,0:0|0:0|0:0,0:0:0:0:
121,372,6088,1,8,0:0:0:0:
235,286,6229,1,0,0:0:0:0:
235,286,6300,1,0,0:0:0:0:
235,286,6371,6,2,L|221:189,1,85,10|2,0:0|0:0,0:0:0:0:
271,122,6654,2,2,L|257:25,1,85,10|2,0:0|0:0,0:0:0:0:
51,39,6937,5,4,1:2:0:0:
51,39,7078,1,0,1:0:0:0:
51,39,7220,1,0,1:0:0:0:
51,39,7361,1,0,1:0:0:0:
51,39,7503,1,0,1:0:0:0:
51,39,7644,1,0,1:0:0:0:
51,39,7786,1,0,1:0:0:0:
51,39,7928,1,0,1:0:0:0:
51,39,8069,6,0,P|77:51|124:60,1,63.7500024318696,0|0,1:2|1:0,1:0:0:0:
238,192,8211,2,0,P|212:180|165:171,1,63.7500024318696,0|0,1:0|1:0,1:0:0:0:
429,116,8352,2,0,P|439:76|436:25,1,63.7500024318696,0|0,1:0|1:0,1:0:0:0:
234,9,8494,2,0,P|224:49|227:100,1,63.7500024318696,0|0,1:0|1:0,1:0:0:0:
339,212,8635,2,0,P|369:205|417:188,1,63.7500024318696,0|0,1:0|1:0,1:0:0:0:
104,229,8777,2,0,P|74:236|26:253,1,63.7500024318696,0|0,1:0|1:0,1:0:0:0:
308,69,8918,2,0,P|317:115|320:154,1,63.7500024318696,0|0,1:0|1:0,1:0:0:0:
203,341,9060,2,0,P|194:295|191:256,1,63.7500024318696,0|0,1:0|1:0,1:0:0:0:
16,173,9201,6,0,P|12:144|13:125,1,27.6249987354279,0|0,1:0|1:0,1:0:0:0:
26,118,9272,2,0,P|33:94|39:83,1,27.6249987354279,0|0,1:0|1:0,1:0:0:0:
71,85,9343,2,0,P|88:69|99:63,1,27.6249987354279,0|0,1:0|1:0,1:0:0:0:
121,63,9413,2,0,P|141:64|158:69,1,27.6249987354279,0|0,1:0|1:0,1:0:0:0:
173,80,9484,2,0,P|189:88|200:96,1,27.6249987354279,0|0,1:0|1:0,1:0:0:0:
219,110,9555,2,0,P|229:123|234:138,1,27.6249987354279,0|0,1:0|1:0,1:0:0:0:
238,161,9626,2,0,P|238:177|240:191,1,27.6249987354279,0|0,1:0|1:0,1:0:0:0:
245,215,9696,2,0,P|251:235|257:247,1,27.6249987354279,0|0,1:0|1:0,1:0:0:0:
271,263,9767,2,0,P|285:276|295:283,1,27.6249987354279,0|0,1:0|1:0,1:0:0:0:
318,292,9838,2,0,P|338:299|361:301,1,27.6249987354279,0|0,1:0|1:0,1:0:0:0:
373,292,9909,2,0,P|393:290|406:285,1,27.6249987354279,0|0,1:0|1:0,1:0:0:0:
426,280,9979,2,0,P|442:265|449:248,1,27.6249987354279,0|0,1:0|1:0,1:0:0:0:
458,235,10050,6,0,L|141:273,1,297.5,4|0,1:2|2:0,1:0:0:0:
135,294,10333,6,0,P|188:306|236:332,1,110.499994941712,6|0,1:0|0:0,0:0:0:0:
463,76,10616,2,2,P|386:122|290:114,1,165.749992412568,2|0,1:0|0:0,0:0:0:0:
286,108,10899,1,2,1:0:0:0:
512,178,11041,1,2,1:1:0:0:
203,282,11182,2,0,P|253:252|316:242,1,110.499994941712,2|0,1:0|1:2,0:0:0:0:
331,245,11394,1,0,1:0:0:0:
356,253,11465,5,2,1:1:0:0:
145,87,11607,1,0,1:1:0:0:
392,103,11748,5,2,1:1:0:0:
71,219,11890,1,2,1:1:0:0:
356,253,12031,2,0,P|408:272|441:297,1,68,2|0,1:0|0:0,0:0:0:0:
331,245,12314,6,0,P|415:227|464:180,1,136,4|0,1:2|0:0,0:0:0:0:
9,33,12597,6,0,P|17:103|71:176,1,110.499994941712,6|0,1:0|0:0,0:0:0:0:
226,354,12880,2,2,P|150:305|66:301,1,165.749992412568,2|0,1:0|0:0,0:0:0:0:
54,312,13163,1,2,1:1:0:0:
366,167,13305,1,2,1:1:0:0:
100,93,13446,2,0,P|141:126|226:137,1,110.499994941712,2|0,1:0|1:2,0:0:0:0:
229,132,13659,1,0,1:2:0:0:
257,116,13729,5,6,1:1:0:0:
14,222,13871,1,2,1:1:0:0:
366,167,14012,1,2,1:1:0:0:
100,93,14154,1,2,1:2:0:0:
310,281,14295,5,6,1:1:0:0:
343,37,14437,1,2,1:1:0:0:
310,281,14578,1,6,1:1:0:0:
343,37,14720,1,2,1:1:0:0:
20,151,14861,6,0,P|21:211|46:269,1,110.499994941712,6|0,1:0|1:2,0:0:0:0:
70,296,15074,1,0,1:2:0:0:
113,295,15144,2,0,P|172:276|243:277,1,110.499994941712,2|0,1:0|1:0,0:0:0:0:
265,276,15357,1,0,1:0:0:0:
303,297,15428,2,0,L|313:364,1,55.2499974708558,2|0,1:0|0:0,0:0:0:0:
402,200,15569,2,0,L|411:120,1,55.2499974708558,2|0,1:1|0:0,0:0:0:0:
512,299,15711,1,2,1:0:0:0:
480,308,15781,1,0,1:2:0:0:
449,314,15852,1,0,1:2:0:0:
416,319,15923,1,0,1:2:0:0:
384,314,15994,5,2,1:1:0:0:
163,204,16135,1,0,1:1:0:0:
486,161,16277,1,2,1:1:0:0:
229,75,16418,1,2,1:1:0:0:
452,7,16560,2,0,P|403:25|350:24,1,68,2|0,1:0|0:0,0:0:0:0:
469,5,16843,6,0,P|403:56|374:138,1,136,4|0,1:2|0:0,0:0:0:0:
238,355,17126,6,0,P|208:343|177:336,1,63.7500024318696,6|0,1:0|0:0,0:0:0:0:
119,160,17267,2,0,P|148:171|179:178,1,63.7500024318696,0|0,1:0|0:0,0:0:0:0:
302,251,17409,2,0,P|298:209|286:175,1,63.7500024318696,2|0,1:0|0:0,0:0:0:0:
41,257,17550,2,0,P|45:299|57:333,1,63.7500024318696,0|0,1:0|0:0,0:0:0:0:
438,179,17692,2,0,P|408:190|376:195,1,63.7500024318696,2|0,1:0|0:0,0:0:0:0:
145,267,17833,2,0,P|174:255|206:250,1,63.7500024318696,2|0,1:0|0:0,0:0:0:0:
433,310,17975,2,0,P|402:289|373:267,1,63.7500024318696,2|0,1:0|0:0,0:0:0:0:
192,83,18116,2,0,P|223:104|252:126,1,63.7500024318696,0|0,1:0|0:0,0:0:0:0:
483,377,18258,5,2,1:0:0:0:
485,355,18328,1,0,1:0:0:0:
487,334,18399,1,2,1:0:0:0:
490,313,18470,1,0,1:0:0:0:
492,292,18541,1,2,1:0:0:0:
495,271,18611,1,0,1:0:0:0:
497,250,18682,1,2,1:0:0:0:
499,229,18753,1,0,1:0:0:0:
502,208,18824,1,2,1:0:0:0:
504,186,18894,1,0,1:0:0:0:
507,165,18965,1,0,1:0:0:0:
509,144,19036,1,0,1:0:0:0:
512,123,19107,5,4,1:0:0:0:
512,123,19390,5,6,1:2:0:0:
465,133,19531,1,0,0:0:0:0:
419,127,19673,1,2,0:0:0:0:
378,103,19814,1,0,0:0:0:0:
349,66,19956,1,2,0:0:0:0:
335,20,20097,1,0,0:0:0:0:
189,109,20239,5,2,0:0:0:0:
212,105,20380,1,2,0:0:0:0:
293,143,20522,5,2,0:0:0:0:
115,76,20663,1,0,0:0:0:0:
234,198,20805,5,2,0:0:0:0:
181,20,20946,1,0,0:0:0:0:
46,134,21088,5,2,0:0:0:0:
71,173,21229,1,2,0:0:0:0:
88,217,21371,1,2,0:0:0:0:
95,263,21512,1,2,0:0:0:0:
233,331,21654,5,2,0:0:0:0:
154,339,21795,1,0,0:0:0:0:
233,331,21937,1,2,0:0:0:0:
154,339,22078,1,0,0:0:0:0:
233,331,22220,1,2,0:0:0:0:
154,339,22361,1,0,0:0:0:0:
316,384,22503,5,2,0:0:0:0:
319,364,22644,1,2,0:0:0:0:
403,322,22786,5,2,0:0:0:0:
378,289,22928,1,0,0:0:0:0:
362,251,23069,1,2,0:0:0:0:
357,210,23211,1,0,0:0:0:0:
180,167,23352,5,2,0:0:0:0:
194,189,23494,1,0,0:0:0:0:
398,103,23635,5,6,1:2:0:0:
260,133,23777,1,2,0:0:0:0:
59,11,23918,5,6,3:2:0:0:
0,97,24060,1,0,3:2:0:0:
3,113,24130,1,0,3:2:0:0:
6,129,24201,1,2,3:2:0:0:
74,196,24343,1,2,3:2:0:0:
74,196,24626,1,2,3:2:0:0:
152,142,24767,1,2,3:2:0:0:
168,145,24838,1,0,3:2:0:0:
184,148,24909,1,0,3:2:0:0:
200,150,24979,1,0,3:2:0:0:
216,152,25050,5,0,3:2:0:0:
366,240,25192,1,2,3:2:0:0:
343,246,25262,1,0,3:2:0:0:
319,251,25333,1,2,3:2:0:0:
134,300,25475,1,2,3:2:0:0:
157,306,25545,1,0,3:2:0:0:
181,311,25616,1,0,3:2:0:0:
284,377,25758,1,2,3:2:0:0:
284,377,25899,1,2,3:2:0:0:
493,324,26182,5,0,1:0:0:0:
495,310,26324,1,0,1:0:0:0:
497,296,26465,1,0,1:0:0:0:
499,282,26607,1,0,1:0:0:0:
501,268,26748,1,0,1:0:0:0:
503,254,26890,1,0,1:0:0:0:
505,240,27031,1,0,1:0:0:0:
507,226,27173,1,0,1:0:0:0:
422,34,27314,5,0,1:0:0:0:
419,55,27384,1,0,1:0:0:0:
416,76,27455,1,0,1:0:0:0:
413,97,27526,1,0,1:0:0:0:
410,118,27597,1,0,1:0:0:0:
408,139,27667,1,0,1:0:0:0:
405,160,27738,1,0,1:0:0:0:
402,181,27809,1,0,1:0:0:0:
399,202,27880,1,0,1:0:0:0:
397,223,27950,1,0,1:0:0:0:
394,244,28021,1,0,1:0:0:0:
391,265,28092,1,0,1:0:0:0:
388,286,28163,1,0,1:0:0:0:
20,55,28446,6,0,P|88:90|183:84,1,118.999996368408,6|0,1:2|0:2,0:2:0:0:
284,358,28729,2,0,P|222:331|144:327,1,118.999996368408,2|0,1:2|0:2,0:2:0:0:
142,347,28942,2,0,P|128:305|126:266,1,59.4999981842042,2|2,0:2|1:2,0:2:0:0:
403,186,29154,2,0,L|475:179,2,59.4999981842042,0|0|2,0:2|0:2|1:2,0:2:0:0:
195,34,29437,1,2,0:2:0:0:
272,0,29578,6,0,P|286:61|287:133,1,118.999996368408,2|0,1:2|0:2,0:2:0:0:
31,308,29861,2,0,P|17:247|16:175,1,118.999996368408,2|0,1:2|0:2,0:2:0:0:
20,161,30074,1,2,0:2:0:0:
34,135,30144,1,2,1:2:0:0:
238,173,30286,1,2,0:2:0:0:
199,370,30428,1,2,1:2:0:0:
0,335,30569,1,2,0:2:0:0:
326,233,30711,6,0,P|396:226|467:209,1,118.999996368408,2|0,1:2|0:2,0:2:0:0:
123,18,30994,2,0,P|117:84|140:153,1,118.999996368408,2|0,1:2|0:2,0:2:0:0:
286,354,31277,2,0,P|233:305|153:293,1,118.999996368408,2|0,1:2|0:2,0:2:0:0:
152,293,31489,2,0,P|144:249|146:211,1,59.4999981842042,2|2,0:2|1:2,0:2:0:0:
340,118,31701,1,2,0:2:0:0:
59,216,31843,6,0,P|63:274|79:331,1,118.999996368408,2|0,1:2|0:2,0:2:0:0:
453,168,32126,2,0,P|449:110|432:52,1,118.999996368408,2|0,1:2|0:2,0:2:0:0:
93,132,32409,5,2,1:2:0:0:
419,252,32550,1,2,0:2:0:0:
151,212,32692,5,2,1:2:0:0:
361,172,32833,1,2,0:2:0:0:
45,68,32975,6,0,P|115:90|195:72,1,118.999996368408,2|0,1:2|0:2,0:2:0:0:
374,353,33258,2,0,P|319:324|223:316,1,118.999996368408,2|0,1:2|0:2,0:2:0:0:
229,318,33470,2,0,P|214:272|211:240,1,59.4999981842042,2|2,0:2|1:2,0:2:0:0:
451,117,33682,2,0,L|461:40,2,59.4999981842042,0|0|2,0:2|0:2|1:2,0:2:0:0:
507,194,33965,1,2,0:2:0:0:
428,252,34107,6,0,P|370:251|304:240,1,118.999996368408,2|0,1:2|0:2,0:2:0:0:
97,12,34390,2,0,P|123:87|134:171,1,118.999996368408,2|2,1:2|0:2,0:2:0:0:
133,155,34602,1,2,0:2:0:0:
129,184,34673,1,2,1:2:0:0:
203,64,34814,1,2,0:2:0:0:
27,198,34956,1,2,1:2:0:0:
170,314,35097,1,2,0:2:0:0:
428,252,35239,6,0,P|440:181|432:105,1,118.999996368408,2|0,1:2|0:2,0:2:0:0:
130,377,35522,2,0,P|206:342|267:336,1,118.999996368408,2|0,1:2|0:2,0:2:0:0:
476,362,35805,1,2,1:2:0:0:
219,252,35946,1,2,0:2:0:0:
219,252,36017,1,2,1:2:0:0:
446,193,36159,1,2,0:2:0:0:
446,193,36229,1,2,1:2:0:0:
218,71,36371,5,2,0:0:0:0:
242,96,36512,1,2,0:0:0:0:
273,79,36654,1,2,0:0:0:0:
269,43,36795,1,2,0:0:0:0:
233,38,36937,1,2,0:0:0:0:
232,144,37078,5,2,0:0:0:0:
321,55,37220,1,2,0:0:0:0:
197,9,37361,1,2,0:0:0:0:
360,345,37503,5,4,1:0:0:0:
480,189,37644,6,0,P|448:196|409:196,1,63.7500024318696,2|0,1:0|0:0,0:0:0:0:
262,234,37786,2,0,P|340:252|414:288,1,127.500004863739,2|0,1:0|0:0,0:0:0:0:
40,281,38069,6,0,P|12:223|-1:161,1,127.500004863739,2|0,1:0|0:0,0:0:0:0:
20,115,38281,2,0,P|88:93|188:100,1,127.500004863739,2|0,1:0|0:0,0:0:0:0:
182,125,38494,1,2,1:0:0:0:
182,125,38564,1,0,0:0:0:0:
295,366,38777,6,0,P|304:335|315:305,1,63.7500024318696,2|0,1:0|0:0,0:0:0:0:
105,229,38918,2,0,P|185:269|245:254,1,127.500004863739,2|0,1:0|0:0,0:0:0:0:
491,155,39201,6,0,P|434:176|358:174,1,127.500004863739,2|0,1:0|0:0,0:0:0:0:
331,140,39413,2,0,P|309:58|314:-3,1,127.500004863739,2|0,1:0|0:0,0:0:0:0:
350,0,39626,1,2,1:0:0:0:
350,0,39696,1,0,0:0:0:0:
0,156,39909,6,0,P|39:161|81:171,1,63.7500024318696,2|0,1:0|0:0,0:0:0:0:
193,97,40050,2,0,P|162:173|160:260,1,127.500004863739,2|0,1:0|0:0,0:0:0:0:
102,371,40333,6,0,P|179:338|261:335,1,127.500004863739,2|0,1:0|0:0,0:0:0:0:
262,301,40545,2,0,P|351:311|416:339,1,127.500004863739,2|0,1:0|0:0,0:0:0:0:
420,362,40758,1,2,1:0:0:0:
314,125,40899,6,0,P|343:137|373:145,1,63.7500024318696,0|0,1:0|0:0,0:0:0:0:
492,204,41040,2,0,P|444:219|412:237,1,63.7500024318696,2|0,1:0|0:0,0:0:0:0:
208,197,41182,2,0,P|226:136|233:72,1,127.500004863739,2|0,1:0|0:0,0:0:0:0:
38,153,41465,5,2,1:0:0:0:
287,213,41607,1,0,0:0:0:0:
287,213,41678,1,2,1:0:0:0:
184,16,41819,1,0,0:0:0:0:
184,16,41890,1,2,1:0:0:0:
38,153,42031,5,4,1:0:0:0:
5,337,42173,6,0,P|49:349|97:350,1,63.7500024318696,2|0,1:0|0:0,0:0:0:0:
169,378,42314,2,0,P|191:305|195:225,1,127.500004863739,2|0,1:0|0:0,0:0:0:0:
385,6,42597,6,0,P|324:30|245:30,1,127.500004863739,2|0,1:0|0:0,0:0:0:0:
130,103,42810,2,0,P|216:114|284:148,1,127.500004863739,2|0,1:0|0:0,0:1:0:0:
346,167,43022,1,2,1:0:0:0:
346,167,43092,1,0,0:0:0:0:
495,322,43305,6,0,P|504:282|513:248,1,63.7500024318696,2|0,1:0|0:0,0:0:0:0:
396,384,43446,2,0,P|310:361|234:354,1,127.500004863739,2|0,1:0|0:0,0:0:0:0:
0,235,43729,6,0,P|62:227|119:198,1,127.500004863739,2|0,1:0|0:0,0:0:0:0:
253,129,43942,2,0,P|180:110|121:62,1,127.500004863739,2|0,1:0|0:0,0:0:0:0:
83,17,44154,1,2,1:0:0:0:
83,17,44225,1,0,0:0:0:0:
333,106,44437,6,0,P|328:74|325:42,1,63.7500024318696,2|0,1:0|0:0,0:0:0:0:
475,8,44578,2,0,P|488:98|489:171,1,127.500004863739,2|0,1:0|0:0,0:0:0:0:
512,272,44861,6,0,L|357:246,1,127.500004863739,2|0,1:0|0:0,0:0:0:0:
297,196,45074,2,0,L|170:212,1,127.500004863739,2|0,1:0|0:0,0:0:0:0:
84,221,45286,1,2,1:0:0:0:
15,84,45428,6,2,L|5:-11,2,85,2|2|2,0:2|0:2|0:2,0:2:0:0:
15,84,46277,1,4,1:1:0:0:
205,13,46560,5,4,1:0:0:0:
287,30,46701,1,0,3:0:0:0:
307,34,46772,1,0,0:0:0:0:
327,38,46843,1,0,0:0:0:0:
406,55,46984,1,0,3:0:0:0:
272,194,47126,5,0,0:0:0:0:
229,106,47267,1,0,3:0:0:0:
344,128,47409,1,0,0:0:0:0:
272,194,47550,1,0,3:0:0:0:
84,105,47692,5,0,0:0:0:0:
25,165,47833,1,0,3:0:0:0:
22,186,47904,1,0,0:0:0:0:
25,207,47975,1,0,0:0:0:0:
106,293,48116,1,0,3:0:0:0:
84,105,48258,5,0,0:0:0:0:
25,165,48399,1,0,3:0:0:0:
22,186,48470,1,0,0:0:0:0:
25,207,48541,1,0,0:0:0:0:
26,227,48611,1,0,0:0:0:0:
32,247,48682,1,0,3:0:0:0:
178,357,48824,5,0,0:0:0:0:
178,357,48965,1,0,3:0:0:0:
271,315,49107,1,0,0:0:0:0:
292,317,49178,1,0,0:0:0:0:
312,319,49248,1,0,3:0:0:0:
333,321,49319,1,0,0:0:0:0:
354,323,49390,1,0,0:0:0:0:
375,325,49461,1,0,0:0:0:0:
395,327,49531,1,0,3:0:0:0:
416,329,49602,1,0,0:0:0:0:
437,331,49673,1,0,0:0:0:0:
458,333,49744,1,0,0:0:0:0:
478,335,49814,1,0,3:0:0:0:
348,105,49956,5,0,0:0:0:0:
348,105,50097,1,0,3:0:0:0:
438,226,50239,1,0,0:0:0:0:
447,193,50310,1,0,0:0:0:0:
440,159,50380,1,0,3:0:0:0:
272,180,50522,1,0,0:0:0:0:
273,205,50593,1,0,0:0:0:0:
282,228,50663,1,0,3:0:0:0:
459,38,50805,5,4,1:0:0:0:
53,38,51088,5,4,1:0:0:0:
72,129,51229,1,0,3:0:0:0:
72,129,51300,1,0,0:0:0:0:
72,129,51371,1,0,0:0:0:0:
144,84,51512,1,0,3:0:0:0:
163,175,51653,1,0,0:0:0:0:
233,127,51795,1,0,3:0:0:0:
252,218,51937,1,0,0:0:0:0:
252,218,52008,1,0,0:0:0:0:
252,218,52078,1,0,3:0:0:0:
324,173,52220,1,0,0:0:0:0:
343,264,52361,1,0,3:0:0:0:
343,264,52432,1,0,0:0:0:0:
343,264,52503,1,0,0:0:0:0:
436,239,52644,1,0,3:0:0:0:
436,239,52715,1,0,0:0:0:0:
436,239,52786,1,0,0:0:0:0:
436,239,52857,1,0,0:0:0:0:
436,239,52928,1,0,3:0:0:0:
436,239,52998,1,0,0:0:0:0:
436,239,53069,1,0,0:0:0:0:
409,91,53352,5,0,1:0:0:0:
409,91,53494,1,0,1:0:0:0:
409,91,53635,1,0,1:0:0:0:
409,91,53777,1,0,1:0:0:0:
409,91,53918,1,0,1:0:0:0:
409,91,54060,1,0,1:0:0:0:
409,91,54201,1,0,1:0:0:0:
409,91,54343,1,0,1:0:0:0:
409,91,54484,6,0,P|371:107|318:111,1,63.7500024318696,0|0,1:0|1:0,1:0:0:0:
86,209,54626,2,0,P|129:221|162:236,1,63.7500024318696,0|0,1:0|1:0,1:0:0:0:
373,272,54767,2,0,P|385:226|385:179,1,63.7500024318696,0|0,1:0|1:0,1:0:0:0:
148,67,54909,2,0,P|136:113|136:160,1,63.7500024318696,0|0,1:0|1:0,1:0:0:0:
261,372,55050,2,0,P|275:331|277:272,1,63.7500024318696,0|0,1:0|1:0,1:0:0:0:
247,94,55192,2,0,P|261:132|268:178,1,63.7500024318696,0|0,1:0|1:0,1:0:0:0:
0,254,55333,6,0,L|331:228,1,297.5,4|0,0:2|0:0,0:0:0:0:
332,247,55616,6,0,P|280:267|236:303,1,110.499994941712,6|0,1:0|0:0,0:0:0:0:
98,47,55899,2,0,P|156:91|279:78,1,165.749992412568,2|0,1:1|0:0,0:0:0:0:
276,73,56182,1,2,1:0:0:0:
86,209,56324,1,2,1:0:0:0:
448,188,56465,2,0,P|400:162|328:148,1,110.499994941712,2|0,1:0|1:0,0:0:0:0:
317,146,56678,1,0,1:0:0:0:
289,148,56748,5,2,1:0:0:0:
485,29,56890,1,0,1:0:0:0:
215,27,57031,5,2,1:0:0:0:
512,139,57173,1,2,1:0:0:0:
264,154,57314,2,0,P|230:163|197:182,1,68,2|0,1:0|0:0,0:0:0:0:
289,148,57597,6,0,P|211:132|158:82,1,136,4|0,1:2|0:0,0:0:0:0:
23,321,57880,6,0,P|82:330|133:351,1,110.499994941712,6|0,1:0|0:0,0:0:0:0:
435,232,58163,2,2,P|353:256|290:326,1,165.749992412568,2|0,1:0|0:0,0:0:0:0:
287,345,58446,1,2,1:0:0:0:
512,180,58588,1,2,1:0:0:0:
186,113,58729,2,0,P|239:141|311:146,1,110.499994941712,2|0,1:0|1:0,0:0:0:0:
315,140,58942,1,0,1:0:0:0:
338,125,59012,5,6,1:0:0:0:
54,32,59154,1,2,1:0:0:0:
256,232,59295,1,6,1:0:0:0:
48,168,59437,1,0,1:0:0:0:
423,95,59578,5,6,1:0:0:0:
186,113,59720,1,2,1:0:0:0:
423,95,59861,1,6,1:0:0:0:
186,113,60003,1,2,1:0:0:0:
408,358,60144,6,0,P|400:301|417:243,1,110.499994941712,6|0,1:0|0:0,0:0:0:0:
96,158,60428,2,0,P|173:210|254:204,1,165.749992412568,2|0,1:0|0:0,0:0:0:0:
270,186,60711,1,2,1:0:0:0:
9,289,60852,1,2,1:0:0:0:
322,384,60994,2,0,P|263:355|207:351,1,110.499994941712,2|0,1:0|1:0,0:0:0:0:
191,354,61206,1,0,1:0:0:0:
164,361,61277,5,2,1:0:0:0:
478,308,61418,1,0,1:0:0:0:
163,208,61560,5,2,1:0:0:0:
405,353,61701,1,2,1:0:0:0:
313,115,61843,2,0,P|305:64|307:19,1,68,2|0,1:0|0:0,0:0:0:0:
328,135,62126,6,0,P|337:54|385:-24,1,136,4|0,1:2|0:0,0:0:0:0:
4,251,62409,6,0,P|58:258|135:284,1,110.499994941712,6|0,1:0|0:0,0:0:0:0:
229,32,62692,2,0,P|160:94|54:82,1,165.749992412568,2|0,1:0|0:0,0:0:0:0:
61,82,62975,1,2,1:0:0:0:
401,187,63116,1,2,1:0:0:0:
223,280,63258,2,0,P|226:224|242:172,1,110.499994941712,2|0,1:0|0:0,0:0:0:0:
254,147,63470,1,2,0:0:0:0:
269,123,63541,5,2,0:0:0:0:
338,281,63682,1,2,0:0:0:0:
401,187,63824,1,2,0:0:0:0:
473,237,63965,1,2,0:0:0:0:
512,171,64107,6,2,L|457:160,1,42.5,2|0,0:0|0:0,0:0:0:0:
506,161,64390,2,2,L|451:150,1,42.5,2|0,0:0|0:0,0:0:0:0:
243,123,64673,5,6,1:2:0:0:
174,281,64814,1,2,0:0:0:0:
111,187,64956,1,2,0:0:0:0:
39,237,65097,1,2,0:0:0:0:
0,171,65239,6,2,L|55:160,1,42.5,2|2,0:2|0:2,0:2:0:0:
6,161,65522,2,2,L|61:150,1,42.5,2|2,0:2|0:2,0:2:0:0:
269,123,65805,5,2,0:2:0:0:
338,281,65946,1,2,0:2:0:0:
401,187,66088,1,2,0:2:0:0:
473,237,66229,1,2,0:2:0:0:
512,171,66371,6,2,L|457:160,1,42.5,2|2,0:2|0:2,0:2:0:0:
506,161,66654,2,2,L|451:150,1,42.5,6|2,1:2|0:2,0:2:0:0:
0,171,66937,6,2,L|55:160,1,42.5,6|2,1:2|0:2,0:2:0:0:
6,161,67220,2,2,L|61:150,1,42.5,2|2,0:2|0:2,0:2:0:0:
512,171,67503,6,2,L|457:160,1,42.5,6|2,1:2|0:2,0:2:0:0:
506,161,67786,2,2,L|451:150,1,42.5,2|2,0:2|0:2,0:2:0:0:
0,171,68069,6,2,L|55:160,1,42.5,6|2,1:2|0:2,0:2:0:0:
6,161,68352,2,2,L|61:150,1,42.5,2|2,0:2|0:2,0:2:0:0:
512,171,68635,6,2,L|457:160,1,42.5,6|2,1:2|0:2,0:2:0:0:
506,161,68918,2,2,L|451:150,1,42.5,2|2,1:2|0:2,0:2:0:0:
469,237,69201,6,0,L|414:226,1,42.5,4|0,1:0|0:0,0:0:0:0:
391,159,69343,2,0,L|336:148,1,42.5,0|0,1:0|0:0,0:0:0:0:
326,252,69484,2,0,L|271:241,1,42.5,0|0,1:0|0:0,0:0:0:0:
290,100,69626,2,0,L|235:89,1,42.5,0|0,1:0|0:0,0:0:0:0:
175,260,69767,2,0,L|120:249,1,42.5,0|0,1:0|0:0,0:0:0:0:
187,45,69909,2,0,L|132:34,1,42.5,0|0,1:0|0:0,0:0:0:0:
41,268,70050,2,0,L|-14:257,1,42.5,0|0,1:0|0:0,0:0:0:0:
75,8,70192,2,0,L|20:-3,1,42.5,0|0,1:0|0:0,0:0:0:0:
0,130,70333,5,0,1:0:0:0:
41,135,70403,1,0,1:0:0:0:
84,140,70474,1,0,1:0:0:0:
126,147,70545,1,0,1:0:0:0:
169,152,70616,1,0,1:0:0:0:
210,159,70686,1,0,1:0:0:0:
253,164,70757,1,0,1:0:0:0:
295,171,70828,1,0,1:0:0:0:
338,176,70899,1,0,1:0:0:0:
381,182,70969,1,0,1:0:0:0:
422,189,71040,1,0,1:0:0:0:
465,195,71111,1,0,1:0:0:0:
507,201,71182,1,0,1:0:0:0:
256,192,71465,12,4,72597,1:0:0:0:
151,268,73729,6,0,P|110:279|9:221,2,136,2|2|2,0:0|0:0|0:0,0:0:0:0:
300,364,75994,2,0,L|314:215,1,136,2|2,0:0|0:0,0:0:0:0:
414,135,76843,1,2,1:2:0:0:
328,19,77126,6,0,P|263:100|92:75,1,272,4|2,1:0|0:0,0:0:0:0:
0,203,78824,1,2,0:0:0:0:
179,337,79390,2,0,P|193:247|247:123,1,204,2|2,0:0|0:0,0:0:0:0:
317,64,80522,1,2,0:0:0:0:
405,119,80805,1,2,0:0:0:0:
335,204,81088,1,2,0:0:0:0:
238,142,81371,1,2,0:0:0:0:
484,42,81654,6,0,P|493:161|481:320,1,272,4|2,1:0|0:0,0:0:0:0:
284,384,83352,1,2,0:0:0:0:
103,289,83918,2,0,P|172:268|388:257,1,272,2|2,0:0|0:0,0:0:0:0:
370,254,85616,1,2,0:0:0:0:
482,133,85899,1,0,1:0:0:0:
302,11,86182,6,0,P|248:104|298:276,1,272,4|2,1:0|0:0,0:0:0:0:
282,258,87880,1,2,0:0:0:0:
15,69,88446,6,0,P|72:144|358:126,1,408,2|2,0:0|0:0,0:0:0:0:
69,20,90711,5,8,1:2:0:0:
23,86,90852,2,0,L|33:163,1,42.5
86,184,90994,2,0,L|100:293,1,85,8|0,0:0|0:0,0:0:0:0:
104,361,91277,1,8,0:0:0:0:
194,312,91418,1,0,0:0:0:0:
227,316,91489,1,0,0:0:0:0:
260,320,91560,1,8,0:0:0:0:
293,324,91630,1,0,0:0:0:0:
326,329,91701,1,0,0:0:0:0:
439,284,91843,5,8,0:0:0:0:
443,288,91984,1,0,0:0:0:0:
446,291,92126,2,0,P|461:199|443:133,1,127.5,8|0,0:0|0:0,0:0:0:0:
433,138,92409,2,0,L|330:113,1,85,8|0,0:0|0:0,0:0:0:0:
232,233,92621,1,0,0:0:0:0:
232,233,92692,2,0,L|314:253,1,85,8|0,0:0|0:0,0:0:0:0:
79,12,92975,5,8,0:0:0:0:
83,16,93116,1,0,0:0:0:0:
86,19,93258,2,0,L|94:133,1,85,8|0,0:0|0:0,0:0:0:0:
350,117,93541,1,8,0:0:0:0:
274,163,93682,2,0,P|221:152|161:146,1,85,0|8,0:0|0:0,0:0:0:0:
3,197,93965,1,0,0:0:0:0:
6,200,94107,2,8,L|28:389,2,170
256,360,94956,1,8,1:2:0:0:
256,201,95239,5,12,1:2:0:0:
256,199,95380,1,0,1:0:0:0:
256,197,95522,1,8,1:2:0:0:
256,194,95663,1,0,1:0:0:0:
256,192,95805,1,8,1:2:0:0:
256,190,95946,1,0,1:0:0:0:
256,188,96088,1,8,1:2:0:0:
256,185,96229,1,0,1:0:0:0:
256,183,96371,1,8,1:2:0:0:
256,181,96512,1,0,1:0:0:0:
256,179,96654,1,8,1:2:0:0:
256,176,96795,1,0,1:0:0:0:
256,174,96937,1,8,1:2:0:0:
256,172,97078,1,0,1:0:0:0:
256,170,97220,1,8,1:2:0:0:
256,167,97361,1,0,1:0:0:0:
256,165,97503,6,0,P|267:126|272:77,1,68,8|0,1:2|1:2,1:2:0:0:
55,33,97644,2,0,P|44:72|39:121,1,68,0|0,1:2|1:2,1:2:0:0:
159,234,97786,2,0,P|122:242|74:257,1,68,8|0,1:2|1:2,1:2:0:0:
377,169,97928,2,0,P|411:177|442:185,1,68,0|0,1:2|1:2,1:2:0:0:
160,81,98069,2,0,P|166:34|187:-10,1,68,8|0,1:2|1:2,1:2:0:0:
334,261,98211,2,0,P|328:308|307:352,1,68,0|0,1:2|1:2,1:2:0:0:
408,46,98352,2,0,P|369:55|322:57,1,68,8|0,1:2|1:2,1:2:0:0:
111,165,98494,2,0,P|150:156|197:154,1,68,0|0,1:2|1:2,1:2:0:0:
442,185,98635,2,0,P|410:176|377:169,1,68,8|0,1:2|1:2,1:2:0:0:
270,99,98777,2,0,P|265:132|255:165,1,68,0|0,1:2|1:2,1:2:0:0:
320,327,98918,2,0,P|331:294|334:261,1,68,8|0,1:2|1:2,1:2:0:0:
159,234,99060,2,0,P|122:242|74:257,1,68,0|0,1:2|1:2,1:2:0:0:
11,313,99201,6,0,L|16:337,22,17,8|0|0|0|0|0|0|0|0|0|0|0|0|0|0|0|0|0|0|0|0|0|0,1:2|1:0|1:0|1:0|1:0|1:0|1:0|1:0|1:0|1:0|1:0|1:0|1:0|1:0|1:0|1:0|1:0|1:0|1:0|1:0|1:0|1:0|1:0,1:0:0:0:
0,258,100050,5,8,0:0:0:0:
3,261,100333,1,8,0:0:0:0:
6,264,100616,1,2,1:1:0:0:
74,36,100899,6,0,P|126:64|204:66,1,118.999996368408,4|2,1:2|0:1,0:0:0:0:
380,156,101182,2,2,P|284:176|207:227,1,178.499994552612,2|0,1:0|0:0,0:0:0:0:
201,243,101465,1,2,1:0:0:0:
461,183,101607,1,2,0:1:0:0:
461,183,101678,1,0,1:0:0:0:
184,69,101819,1,0,0:1:0:0:
184,69,101890,1,2,1:0:0:0:
338,2,102031,6,0,P|321:57|312:145,1,118.999996368408,0|0,1:0|0:0,0:0:0:0:
88,253,102314,2,0,P|177:271|262:311,1,178.499994552612,0|0,1:0|0:0,0:0:0:0:
280,331,102597,1,2,1:0:0:0:
109,151,102739,1,0,1:0:0:0:
62,163,102810,1,0,1:0:0:0:
14,160,102880,1,2,1:0:0:0:
312,117,103022,1,0,1:0:0:0:
181,0,103163,6,0,P|174:69|186:147,1,118.999996368408,2|0,1:0|0:0,0:0:0:0:
376,359,103446,2,0,P|417:260|483:188,1,178.499994552612,0|0,1:0|0:0,0:0:0:0:
486,186,103729,1,2,1:0:0:0:
234,180,103871,1,2,0:1:0:0:
234,180,103942,1,0,1:0:0:0:
437,64,104083,1,0,0:0:0:0:
437,64,104154,1,2,1:0:0:0:
301,275,104295,6,0,P|243:261|166:252,1,118.999996368408,0|0,1:0|0:0,0:0:0:0:
0,153,104578,2,0,P|38:238|58:327,1,178.499994552612,0|0,1:0|0:0,0:0:0:0:
62,361,104861,1,2,1:0:0:0:
227,149,105003,1,0,1:0:0:0:
172,154,105074,1,0,1:0:0:0:
120,139,105144,1,2,1:0:0:0:
85,98,105215,1,0,1:0:0:0:
63,49,105286,1,0,1:0:0:0:
316,245,105428,6,0,P|374:232|433:226,1,118.999996368408,4|2,1:2|0:1,0:0:0:0:
307,0,105711,2,2,P|261:63|123:54,1,178.499994552612,2|0,1:0|0:0,0:0:0:0:
134,55,105994,1,2,1:0:0:0:
183,280,106135,1,2,0:1:0:0:
183,280,106206,1,0,1:0:0:0:
309,150,106347,1,0,0:0:0:0:
309,150,106418,1,2,1:0:0:0:
0,196,106560,6,0,P|11:270|20:341,1,118.999996368408,0|0,1:0|0:0,0:0:0:0:
353,249,106843,2,0,P|286:217|177:204,1,178.499994552612,0|0,1:0|0:0,0:0:0:0:
150,209,107126,1,2,1:0:0:0:
430,114,107267,1,0,1:0:0:0:
389,139,107338,1,0,1:0:0:0:
341,146,107409,1,2,1:0:0:0:
211,26,107550,1,0,1:0:0:0:
481,47,107692,6,0,P|470:129|465:202,1,118.999996368408,2|0,1:0|0:0,0:0:0:0:
168,312,107975,2,0,P|229:275|343:255,1,178.499994552612,0|0,1:0|0:0,0:0:0:0:
363,268,108258,1,2,1:0:0:0:
128,193,108399,1,2,0:1:0:0:
274,366,108541,1,0,1:0:0:0:
14,285,108682,1,2,0:1:0:0:
248,156,108824,5,2,0:0:0:0:
250,144,109107,1,2,0:0:0:0:
252,132,109390,1,2,0:0:0:0:
254,120,109673,1,2,0:0:0:0:
1,45,109956,5,4,1:2:0:0:
1,45,110027,1,0,1:0:0:0:
0,45,110097,2,0,P|2:84|14:119,1,76.4999976654053,0|0,1:0|0:0,0:0:0:0:
205,205,110239,2,0,P|217:168|218:130,1,76.4999976654053,0|0,1:0|0:0,0:0:0:0:
174,20,110380,2,0,P|122:39|60:39,1,76.4999976654053,0|0,1:0|0:0,0:0:0:0:
0,223,110522,2,0,P|37:229|72:244,1,76.4999976654053,0|0,1:0|0:0,0:0:0:0:
298,302,110663,6,0,L|314:187,1,76.4999976654053,0|0,1:0|0:0,0:0:0:0:
133,111,110805,2,0,L|122:186,1,76.4999976654053,0|0,1:0|0:0,0:0:0:0:
318,317,110946,2,0,L|334:202,1,76.4999976654053,0|0,1:0|0:0,0:0:0:0:
366,125,111088,5,0,1:0:0:0:
330,140,111159,1,0,1:0:0:0:
292,146,111229,2,0,P|254:142|198:119,1,76.4999976654053,0|0,1:0|0:0,0:0:0:0:
450,116,111371,2,0,P|465:73|466:14,1,76.4999976654053,0|0,1:0|0:0,0:0:0:0:
275,0,111512,2,0,P|277:51|287:78,1,76.4999976654053,0|0,1:0|0:0,0:0:0:0:
488,218,111654,1,0,1:0:0:0:
491,221,111795,5,0,1:0:0:0:
447,234,111866,1,0,1:0:0:0:
408,259,111937,1,0,1:0:0:0:
377,293,112008,1,0,1:0:0:0:
358,334,112078,1,0,1:0:0:0:
6,204,112220,6,0,P|40:219|78:226,1,76.4999976654053,0|0,1:0|0:0,0:0:0:0:
220,343,112361,2,0,P|185:327|147:320,1,76.4999976654053,0|0,1:0|0:0,0:0:0:0:
340,137,112503,2,0,P|349:189|344:247,1,76.4999976654053,0|0,1:0|0:0,0:0:0:0:
166,233,112644,2,0,P|157:181|162:123,1,76.4999976654053,0|0,1:0|0:0,0:0:0:0:
16,30,112786,1,0,1:0:0:0:
48,32,112857,1,0,1:0:0:0:
80,35,112928,1,0,1:0:0:0:
112,38,112998,1,0,1:0:0:0:
144,41,113069,1,0,1:0:0:0:
177,44,113140,1,0,1:0:0:0:
209,47,113211,1,0,1:0:0:0:
476,161,113352,6,0,P|489:118|491:71,1,76.4999976654053,0|0,1:0|0:0,0:0:0:0:
283,57,113494,2,0,P|270:100|268:147,1,76.4999976654053,0|0,1:0|0:0,0:0:0:0:
381,258,113635,6,0,P|394:215|396:168,1,76.4999976654053,0|0,1:0|0:0,0:0:0:0:
188,154,113777,2,0,P|175:197|173:244,1,76.4999976654053,0|0,1:0|0:0,0:0:0:0:
290,364,113918,6,0,P|303:321|305:274,1,76.4999976654053,0|0,1:0|0:0,0:0:0:0:
97,260,114060,2,0,P|84:303|82:350,1,76.4999976654053,0|0,1:0|0:0,0:0:0:0:
297,208,114201,1,4,1:0:0:0:
297,208,114484,5,4,1:0:0:0:
252,150,114625,1,0,1:0:0:0:
184,126,114767,1,0,1:0:0:0:
114,143,114908,1,0,1:0:0:0:
65,196,115050,1,0,1:0:0:0:
52,267,115191,1,0,1:0:0:0:
81,334,115333,1,0,1:0:0:0:
131,15,115475,5,0,1:0:0:0:
131,15,115545,1,0,1:0:0:0:
131,15,115616,1,4,1:0:0:0:
126,98,115757,1,0,1:0:0:0:
153,178,115899,1,0,1:0:0:0:
210,240,116040,1,0,1:0:0:0:
286,276,116182,1,0,1:0:0:0:
370,279,116323,1,0,1:0:0:0:
449,250,116465,1,0,1:0:0:0:
510,192,116606,1,0,1:0:0:0:
385,379,116748,5,4,1:0:0:0:
357,339,116818,1,0,1:0:0:0:
324,305,116889,1,0,1:0:0:0:
286,276,116960,1,0,1:0:0:0:
244,253,117031,1,0,1:0:0:0:
199,237,117101,1,0,1:0:0:0:
152,228,117172,1,0,1:0:0:0:
105,227,117243,1,0,1:0:0:0:
57,233,117314,5,4,1:0:0:0:
103,243,117384,1,0,1:0:0:0:
151,243,117455,1,0,1:0:0:0:
198,234,117526,1,0,1:0:0:0:
242,216,117597,1,0,1:0:0:0:
281,189,117668,1,0,1:0:0:0:
314,154,117738,1,0,1:0:0:0:
339,114,117809,1,0,1:0:0:0:
356,69,117880,6,0,L|353:19,7,38.2499988327027,4|0|0|0|0|0|0|0,1:0|1:0|1:0|1:0|1:0|1:0|1:0|1:0,1:0:0:0:
266,71,118163,6,0,L|271:29,7,29.7499990921021,0|0|0|0|0|0|0|0,1:0|1:0|1:0|1:0|1:0|1:0|1:0|1:0,1:0:0:0:
180,68,118446,6,0,L|178:46,7,21.25,0|0|0|0|0|0|0|0,1:0|1:0|1:0|1:0|1:0|1:0|1:0|1:0,1:0:0:0:
93,64,118729,5,4,1:1:0:0:
93,64,119012,1,4,1:2:0:0:
256,192,119154,12,0,120003,0:0:0:0:
