osu file format v14

[General]
AudioFilename: audio.mp3
AudioLeadIn: 0
PreviewTime: 10298
Countdown: 0
SampleSet: Soft
StackLeniency: 0.2
Mode: 0
LetterboxInBreaks: 0
WidescreenStoryboard: 1

[Editor]
DistanceSpacing: 0.4
BeatDivisor: 4
GridSize: 4
TimelineZoom: 3.699999

[Metadata]
Title:Plan 8
TitleUnicode:Plan 8
Artist:Ryu*
ArtistUnicode:Ryu☆
Creator:Luscent
Version:Another
Source:beatmania IIDX 20 tricoro
Tags:cellina Reana HAPPY GABBA KONAMI BEMANI jubeat saucer plus DanceDanceRevolution instrumental electronic video game jukebeat music pack 57 prop clan fulfil Qubell festo 21 SPADA INFINITAS 楽曲パック vol 4 ultimate mobile
BeatmapID:3055124
BeatmapSetID:1466536

[Difficulty]
HPDrainRate:6
CircleSize:3.8
OverallDifficulty:8.5
ApproachRate:9.3
SliderMultiplier:1.6
SliderTickRate:1

[Events]
//Background and Video events
0,0,"iidx.jpg",0,0
//Break Periods
//Storyboard Layer 0 (Background)
//Storyboard Layer 1 (Fail)
//Storyboard Layer 2 (Pass)
//Storyboard Layer 3 (Foreground)
//Storyboard Layer 4 (Overlay)
//Storyboard Sound Samples

[TimingPoints]
145,283.018867924528,4,2,1,60,1,0
145,-71.4285714285714,4,2,1,60,0,0
428,-100,4,2,1,60,0,0
6937,-100,4,2,1,65,0,0
8069,-100,4,2,1,70,0,0
9201,-100,4,2,1,75,0,0
10050,-62.5,4,2,1,60,0,0
10333,-71.4285714285714,4,2,1,80,0,1
12314,-35.7142857142857,4,2,1,80,0,1
12597,-71.4285714285714,4,2,1,80,0,1
16843,-35.7142857142857,4,2,1,80,0,1
17126,-71.4285714285714,4,2,1,80,0,1
19390,-100,4,2,1,60,0,0
27314,-100,4,2,1,70,0,0
28446,-76.9230769230769,4,2,1,70,0,0
45428,-100,4,2,1,60,0,0
50239,-125,4,2,1,60,0,0
50522,-166.666666666667,4,2,1,60,0,0
51088,-100,4,2,1,60,0,0
54484,-100,4,2,1,70,0,0
55616,-71.4285714285714,4,2,1,80,0,1
57597,-35.7142857142857,4,2,1,80,0,1
57880,-71.4285714285714,4,2,1,80,0,1
62126,-35.7142857142857,4,2,1,80,0,1
62409,-71.4285714285714,4,2,1,80,0,1
63541,-71.4285714285714,4,2,1,60,0,0
64107,-100,4,2,1,60,0,0
66937,-125,4,2,1,60,0,0
72597,-125,4,2,1,50,0,0
73729,-200,4,2,1,50,0,0
90711,-100,4,2,1,60,0,0
95239,-100,4,2,1,70,0,0
97503,-100,4,2,1,75,0,0
99201,-100,4,2,1,50,0,0
99272,-100,4,2,1,46,0,0
99343,-100,4,2,1,42,0,0
99413,-100,4,2,1,38,0,0
99484,-100,4,2,1,34,0,0
99555,-100,4,2,1,30,0,0
99626,-100,4,2,1,26,0,0
99696,-100,4,2,1,22,0,0
99767,-100,4,2,1,18,0,0
99838,-100,4,2,1,14,0,0
99909,-100,4,2,1,10,0,0
99979,-100,4,2,1,6,0,0
100050,-100,4,2,1,60,0,0
100899,-71.4285714285714,4,2,1,80,0,0
108824,-100,4,2,1,80,0,0
109956,-71.4285714285714,4,2,1,90,0,1
119012,-71.4285714285714,4,2,1,90,0,0
119225,-71.4285714285714,4,2,1,5,0,0

[Colours]
Combo1 : 173,255,95
Combo2 : 193,132,255
Combo3 : 17,254,176
Combo4 : 255,138,108

[HitObjects]
54,308,145,6,0,L|178:296,1,111.999996582031,4|0,1:2|0:0,0:0:0:0:
248,345,428,1,8,0:0:0:0:
325,278,569,1,0,0:0:0:0:
325,278,640,1,0,0:0:0:0:
325,278,711,1,8,0:0:0:0:
252,221,852,1,0,0:0:0:0:
377,345,994,1,8,0:0:0:0:
480,269,1135,1,0,0:0:0:0:
397,231,1277,6,0,L|405:299,2,40,8|0|0,0:0|0:0|0:0,0:0:0:0:
474,156,1560,1,8,0:0:0:0:
473,148,1630,1,0,0:0:0:0:
472,139,1701,1,0,0:0:0:0:
471,130,1772,1,0,0:0:0:0:
470,121,1843,2,2,L|459:19,1,80,10|2,0:0|0:0,0:0:0:0:
308,134,2126,2,2,L|297:32,1,80,10|2,0:0|0:0,0:0:0:0:
56,29,2409,6,0,L|12:34,2,40,8|0|0,0:0|0:0|0:0,0:0:0:0:
179,45,2692,1,8,0:0:0:0:
178,53,2762,1,0,0:0:0:0:
177,62,2833,1,0,0:0:0:0:
176,71,2904,1,0,0:0:0:0:
175,80,2975,2,0,L|164:182,1,80,8|0,0:0|0:0,0:0:0:0:
41,175,3258,2,0,L|54:289,1,80,8|0,0:0|0:0,0:0:0:0:
206,349,3541,1,8,0:0:0:0:
209,352,3824,5,8,0:0:0:0:
217,353,3894,1,0,0:0:0:0:
226,354,3965,1,0,0:0:0:0:
235,355,4036,1,0,0:0:0:0:
244,356,4107,2,2,L|346:367,1,80,10|2,0:0|0:0,0:0:0:0:
204,240,4390,2,2,L|102:229,1,80,10|2,1:2|0:0,0:0:0:0:
429,325,4673,5,12,1:2:0:0:
498,264,4814,1,0,0:0:0:0:
503,236,4885,1,0,0:0:0:0:
500,207,4956,1,8,0:0:0:0:
429,146,5097,1,0,0:0:0:0:
336,238,5239,1,8,0:0:0:0:
429,325,5380,1,0,0:0:0:0:
463,236,5522,2,0,L|394:237,2,40,8|0|0,0:0|0:0|0:0,0:0:0:0:
256,184,5805,6,0,L|256:72,1,80,8|0,0:0|0:0,0:0:0:0:
256,8,6088,1,8,0:0:0:0:
360,48,6229,1,0,0:0:0:0:
360,48,6300,1,0,0:0:0:0:
360,48,6371,2,2,P|364:96|356:136,1,80,10|2,0:0|0:0,0:0:0:0:
153,127,6654,2,2,P|147:87|152:48,1,80,10|2,0:0|0:0,0:0:0:0:
256,192,6937,5,4,1:2:0:0:
256,192,7078,1,0,1:0:0:0:
256,192,7220,1,0,1:0:0:0:
256,192,7361,1,0,1:0:0:0:
256,192,7503,1,0,1:0:0:0:
256,192,7644,1,0,1:0:0:0:
256,192,7785,1,0,1:0:0:0:
256,192,7927,1,0,1:0:0:0:
256,192,8069,5,0,1:2:0:0:
221,212,8140,1,0,1:0:0:0:
181,216,8211,1,0,1:0:0:0:
142,204,8281,1,0,1:0:0:0:
102,196,8352,1,0,1:0:0:0:
62,203,8423,1,0,1:0:0:0:
34,231,8494,1,0,1:0:0:0:
25,269,8564,1,0,1:0:0:0:
31,308,8635,1,0,1:0:0:0:
51,342,8706,1,0,1:0:0:0:
87,358,8777,1,0,1:0:0:0:
126,356,8847,1,0,1:0:0:0:
165,346,8918,1,0,1:0:0:0:
201,329,8989,1,0,1:0:0:0:
239,317,9060,1,0,1:0:0:0:
278,321,9130,1,0,1:0:0:0:
315,335,9201,6,0,L|338:350,6,20,0|0|0|0|0|0|0,1:0|1:0|1:0|1:0|1:0|1:0|1:0,1:0:0:0:
354,311,9484,2,0,L|376:304,6,20,0|0|0|0|0|0|0,1:0|1:0|1:0|1:0|1:0|1:0|1:0,1:0:0:0:
367,272,9767,2,0,L|387:259,6,20,0|0|0|0|0|0|0,1:0|1:0|1:0|1:0|1:0|1:0|1:0,1:0:0:0:
340,235,10050,6,0,L|96:263,1,224,4|0,1:2|2:0,1:0:0:0:
87,283,10333,6,0,P|144:298|198:329,1,111.999996582031,6|0,1:0|0:0,0:0:0:0:
336,102,10616,2,2,P|271:162|169:154,1,167.999994873047,2|0,1:0|0:0,0:0:0:0:
169,154,10899,1,2,1:0:0:0:
465,206,11041,1,2,1:1:0:0:
329,305,11182,2,0,P|337:249|362:196,1,111.999996582031,2|0,1:0|1:0,0:0:0:0:
370,178,11394,1,0,1:0:0:0:
384,161,11465,5,2,1:1:0:0:
415,307,11607,1,0,1:1:0:0:
249,239,11748,1,2,1:1:0:0:
465,206,11890,1,2,1:1:0:0:
271,22,12031,6,0,L|285:145,1,111.999996582031,2|0,1:0|0:0,0:0:0:0:
287,137,12314,6,0,L|274:25,1,111.999996582031,4|0,1:2|0:0,0:0:0:0:
0,24,12597,6,0,P|49:49|110:45,1,111.999996582031,6|0,1:0|0:0,0:0:0:0:
287,137,12880,2,2,P|206:159|137:206,1,167.999994873047,2|0,1:0|0:0,0:0:0:0:
124,231,13163,1,2,1:1:0:0:
341,79,13305,1,2,1:1:0:0:
187,0,13446,2,0,P|196:70|201:144,1,111.999996582031,2|0,1:0|1:0,0:0:0:0:
201,133,13659,1,0,1:0:0:0:
205,154,13729,5,6,1:1:0:0:
267,59,13871,1,2,1:1:0:0:
263,243,14012,1,2,1:1:0:0:
105,160,14154,1,2,1:2:0:0:
339,191,14295,5,6,1:1:0:0:
145,225,14437,1,2,1:1:0:0:
339,191,14578,1,6,1:1:0:0:
145,225,14720,1,2,1:1:0:0:
371,266,14861,6,0,P|426:257|481:250,1,111.999996582031,6|0,1:0|0:0,0:0:0:0:
195,18,15144,2,0,P|182:103|249:205,1,167.999994873047,2|0,1:0|0:0,0:0:0:0:
232,198,15428,1,2,1:0:0:0:
274,20,15569,1,2,1:1:0:0:
93,135,15711,1,2,1:0:0:0:
310,118,15852,5,0,1:0:0:0:
310,118,15923,1,0,1:0:0:0:
310,118,15994,1,2,1:1:0:0:
111,24,16135,1,0,1:1:0:0:
140,235,16276,1,2,1:1:0:0:
381,159,16418,1,2,1:1:0:0:
327,304,16560,6,0,L|211:281,1,111.999996582031,2|0,1:0|0:0,0:0:0:0:
221,286,16843,6,0,L|330:307,1,111.999996582031,4|0,1:2|0:0,0:0:0:0:
409,355,17126,5,6,1:0:0:0:
413,359,17267,1,0,1:0:0:0:
256,215,17409,5,2,1:0:0:0:
260,219,17550,1,0,1:0:0:0:
453,141,17692,5,2,1:0:0:0:
457,145,17833,1,2,1:0:0:0:
409,355,17975,5,2,1:0:0:0:
413,359,18116,1,0,1:0:0:0:
327,285,18258,5,2,1:0:0:0:
308,287,18328,1,0,1:0:0:0:
290,289,18399,1,2,1:0:0:0:
271,292,18470,1,0,1:0:0:0:
253,294,18541,1,2,1:0:0:0:
234,297,18611,1,0,1:0:0:0:
216,299,18682,1,2,1:0:0:0:
197,302,18753,1,0,1:0:0:0:
179,304,18824,1,2,1:0:0:0:
160,307,18894,1,0,1:0:0:0:
142,309,18965,1,0,1:0:0:0:
123,312,19036,1,0,1:0:0:0:
105,314,19107,1,4,1:0:0:0:
105,314,19390,5,6,1:2:0:0:
52,264,19531,1,0,0:0:0:0:
33,194,19673,1,2,0:0:0:0:
65,129,19814,1,0,0:0:0:0:
130,97,19956,1,2,0:0:0:0:
200,110,20097,1,0,0:0:0:0:
265,139,20239,1,2,0:0:0:0:
336,135,20380,1,2,0:0:0:0:
394,92,20522,5,2,0:0:0:0:
398,76,20805,1,2,0:0:0:0:
393,60,21088,1,2,0:0:0:0:
331,113,21229,5,2,0:0:0:0:
310,62,21370,1,2,0:0:0:0:
324,13,21512,1,2,0:0:0:0:
477,48,21654,5,2,0:0:0:0:
477,119,21795,1,0,0:0:0:0:
429,173,21937,1,2,0:0:0:0:
359,189,22078,1,0,0:0:0:0:
287,179,22220,1,2,0:0:0:0:
217,163,22361,1,0,0:0:0:0:
147,183,22503,1,2,0:0:0:0:
111,245,22644,1,2,0:0:0:0:
134,313,22786,5,2,0:0:0:0:
140,327,23069,1,2,0:0:0:0:
151,337,23352,1,2,0:0:0:0:
227,384,23494,5,0,0:0:0:0:
251,308,23635,1,6,1:2:0:0:
190,253,23777,1,2,0:0:0:0:
70,358,23918,5,6,3:2:0:0:
4,283,24060,1,0,3:2:0:0:
4,283,24130,1,0,3:2:0:0:
4,283,24201,1,2,3:2:0:0:
56,193,24343,1,2,3:2:0:0:
298,307,24626,5,2,3:2:0:0:
276,209,24767,1,2,3:2:0:0:
276,209,24838,1,0,3:2:0:0:
276,209,24909,1,0,3:2:0:0:
276,209,24979,1,0,3:2:0:0:
276,209,25050,1,0,3:2:0:0:
400,266,25192,1,2,3:2:0:0:
400,266,25262,1,0,3:2:0:0:
400,266,25333,1,2,3:2:0:0:
476,215,25475,5,2,3:2:0:0:
352,181,25616,1,0,3:2:0:0:
313,308,25758,1,2,3:2:0:0:
446,341,25899,1,2,3:2:0:0:
256,192,26182,5,0,1:0:0:0:
250,192,26323,1,0,1:0:0:0:
244,193,26465,1,0,1:0:0:0:
238,193,26606,1,0,1:0:0:0:
233,194,26748,1,0,1:0:0:0:
227,194,26889,1,0,1:0:0:0:
221,195,27031,1,0,1:0:0:0:
216,195,27172,1,0,1:0:0:0:
55,82,27314,5,0,1:0:0:0:
66,93,27384,1,0,1:0:0:0:
79,104,27455,1,0,1:0:0:0:
93,113,27526,1,0,1:0:0:0:
108,120,27597,1,0,1:0:0:0:
124,125,27667,1,0,1:0:0:0:
140,128,27738,1,0,1:0:0:0:
157,129,27809,1,0,1:0:0:0:
174,128,27880,1,0,1:0:0:0:
190,126,27950,1,0,1:0:0:0:
206,121,28021,1,0,1:0:0:0:
221,114,28092,1,0,1:0:0:0:
236,105,28163,1,0,1:0:0:0:
137,269,28446,6,0,P|198:277|249:290,1,103.999995239258,6|0,1:2|0:2,0:2:0:0:
431,207,28729,2,0,P|380:260|344:336,1,155.999992858887,2|0,1:2|0:2,0:2:0:0:
337,366,29012,1,2,1:2:0:0:
237,199,29154,2,0,P|229:160|225:122,2,51.999997619629,0|0|2,1:2|0:2|1:2,0:2:0:0:
111,295,29437,1,2,1:2:0:0:
12,209,29578,6,0,P|-1:155|2:104,1,103.999995239258,2|0,1:2|0:2,0:2:0:0:
251,28,29861,2,0,P|193:78|89:65,1,155.999992858887,2|0,1:2|0:2,0:2:0:0:
89,65,30144,1,2,1:2:0:0:
313,128,30286,1,2,0:2:0:0:
114,179,30428,1,2,1:2:0:0:
313,128,30569,1,2,0:2:0:0:
344,269,30711,6,0,P|364:206|394:145,1,103.999995239258,2|0,1:2|0:2,0:2:0:0:
345,20,30994,2,0,P|409:95|482:89,1,155.999992858887,2|0,1:2|0:0,0:2:0:0:
493,81,31277,1,2,1:2:0:0:
246,161,31418,2,0,P|240:124|237:94,2,51.999997619629,0|0|2,1:2|0:2|1:2,0:0:0:0:
443,243,31701,1,2,0:2:0:0:
347,297,31843,6,0,P|291:304|223:315,1,103.999995239258,2|0,1:2|0:2,0:2:0:0:
46,176,32126,2,0,P|102:223|191:213,1,155.999992858887,2|0,1:2|0:0,0:2:0:0:
200,196,32409,1,2,1:2:0:0:
87,110,32550,1,2,0:2:0:0:
172,296,32692,1,2,1:2:0:0:
349,193,32833,1,2,0:2:0:0:
188,93,32975,6,0,P|188:142|205:210,1,103.999995239258,2|0,1:2|0:2,0:2:0:0:
456,25,33258,2,0,P|376:78|315:63,1,155.999992858887,2|0,1:2|0:2,0:2:0:0:
295,48,33541,1,2,1:2:0:0:
428,185,33682,2,0,L|490:178,2,51.999997619629,0|0|2,1:2|0:2|1:2,0:2:0:0:
265,123,33965,1,2,0:2:0:0:
315,290,34107,6,0,P|342:233|347:165,1,103.999995239258,2|0,1:2|0:2,0:2:0:0:
38,281,34390,2,0,P|110:294|182:346,1,155.999992858887,2|0,1:2|0:2,0:2:0:0:
193,365,34673,1,2,1:2:0:0:
143,216,34814,1,2,0:2:0:0:
72,357,34956,1,2,1:2:0:0:
243,225,35097,1,2,0:2:0:0:
49,106,35239,6,0,L|68:213,1,103.999995239258,2|0,1:2|0:2,0:2:0:0:
307,331,35522,2,0,L|325:228,1,103.999995239258,2|0,1:2|0:2,0:2:0:0:
203,18,35805,1,2,1:2:0:0:
148,185,35946,1,0,0:2:0:0:
148,185,36017,1,2,1:2:0:0:
148,185,36088,1,0,0:0:0:0:
316,137,36229,1,2,1:2:0:0:
63,116,36371,5,2,0:0:0:0:
28,180,36512,1,2,0:0:0:0:
38,252,36654,1,2,0:0:0:0:
78,311,36795,1,2,0:0:0:0:
163,349,36937,5,2,0:0:0:0:
252,321,37078,1,2,0:0:0:0:
317,253,37220,1,2,0:0:0:0:
322,159,37361,1,2,0:0:0:0:
28,180,37503,5,4,1:0:0:0:
227,103,37645,1,2,1:0:0:0:
231,107,37787,1,2,1:0:0:0:
100,61,37928,1,0,0:0:0:0:
159,221,38069,2,0,P|194:216|223:214,1,51.999997619629,2|0,1:0|0:0,0:0:0:0:
382,233,38211,1,0,1:0:0:0:
382,233,38281,2,0,P|347:169|336:71,1,155.999992858887,2|2,1:0|1:0,0:0:0:0:
317,314,38635,5,0,0:0:0:0:
444,185,38777,1,2,1:0:0:0:
448,189,38918,1,2,1:0:0:0:
263,130,39060,1,0,0:0:0:0:
429,266,39201,2,0,P|464:271|496:277,1,51.999997619629,2|0,1:0|0:0,0:0:0:0:
210,214,39343,1,0,1:0:0:0:
210,214,39413,2,0,P|231:281|245:378,1,155.999992858887,2|2,1:0|1:0,0:0:0:0:
0,242,39767,5,0,0:0:0:0:
72,141,39909,1,2,1:0:0:0:
76,145,40050,1,2,1:0:0:0:
164,312,40192,1,0,0:0:0:0:
241,227,40333,2,0,P|235:193|229:161,1,51.999997619629,2|0,1:0|0:0,0:0:0:0:
183,17,40474,1,2,1:0:0:0:
183,17,40545,2,0,P|150:69|164:173,1,155.999992858887,0|2,1:0|1:0,0:0:0:0:
369,183,40899,5,0,1:0:0:0:
238,99,41041,1,2,1:0:0:0:
113,224,41182,1,2,1:0:0:0:
269,306,41324,1,0,1:0:0:0:
401,210,41465,2,0,P|408:132|418:55,2,155.999992858887,2|2|2,1:0|1:0|1:0,0:0:0:0:
153,368,42031,5,4,1:0:0:0:
45,232,42173,1,2,1:0:0:0:
192,284,42314,1,2,1:0:0:0:
16,312,42456,1,0,0:0:0:0:
128,219,42597,1,2,1:0:0:0:
128,219,42668,2,0,P|122:179|120:150,1,51.999997619629,0|0,1:0|0:0,0:0:0:0:
95,70,42810,1,2,1:0:0:0:
95,70,42880,2,0,P|148:98|219:98,1,103.999995239258,0|2,1:0|1:0,0:0:0:0:
425,94,43163,5,0,0:0:0:0:
257,49,43305,1,2,1:0:0:0:
370,169,43446,1,2,1:0:0:0:
332,0,43588,1,0,0:0:0:0:
289,169,43729,1,2,1:0:0:0:
289,169,43800,2,0,P|293:206|295:252,1,51.999997619629,0|0,1:0|0:0,0:0:0:0:
404,277,43942,1,2,1:0:0:0:
404,277,44012,2,0,P|358:301|318:334,1,103.999995239258,0|2,1:0|1:0,0:0:0:0:
52,264,44295,5,0,0:0:0:0:
197,293,44437,1,2,1:0:0:0:
31,286,44578,1,2,1:0:0:0:
190,197,44720,1,0,0:0:0:0:
123,363,44861,1,2,1:0:0:0:
123,363,44932,2,0,P|119:321|117:281,1,51.999997619629,0|0,1:0|0:0,0:0:0:0:
0,215,45074,1,2,1:0:0:0:
0,215,45144,2,0,P|-6:178|-10:135,1,51.999997619629,0|0,1:0|0:0,0:0:0:0:
132,81,45286,5,2,1:0:0:0:
132,81,45357,1,0,0:0:0:0:
132,81,45428,2,2,B|212:74|198:128|288:116,2,160,2|2|2,0:2|0:2|0:2,0:2:0:0:
132,81,46277,1,4,1:1:0:0:
396,12,46560,5,4,1:0:0:0:
475,74,46701,1,0,3:0:0:0:
475,74,46772,1,0,0:0:0:0:
475,74,46843,2,0,L|465:159,1,80,0|0,0:0|3:0,0:0:0:0:
342,234,47126,1,0,0:0:0:0:
300,175,47267,1,0,3:0:0:0:
325,107,47409,1,0,0:0:0:0:
396,102,47550,1,0,3:0:0:0:
421,243,47692,6,0,L|271:226,1,80,0|0,0:0|3:0,0:0:0:0:
325,245,47904,1,0,0:0:0:0:
308,256,47975,2,0,L|158:239,1,80,0|0,0:0|3:0,0:0:0:0:
127,173,48258,1,0,0:0:0:0:
26,232,48399,1,0,3:0:0:0:
21,261,48469,1,0,0:0:0:0:
24,291,48540,1,0,0:0:0:0:
34,319,48611,1,0,0:0:0:0:
51,344,48682,1,0,3:0:0:0:
200,319,48824,6,0,L|279:328,2,80,0|0|0,0:0|3:0|0:0,0:0:0:0:
178,300,49178,1,0,0:0:0:0:
162,276,49248,1,0,3:0:0:0:
154,248,49319,1,0,0:0:0:0:
152,219,49390,1,0,0:0:0:0:
161,192,49461,1,0,0:0:0:0:
177,169,49531,1,0,3:0:0:0:
197,149,49602,1,0,0:0:0:0:
224,142,49673,2,0,L|274:146,2,40,0|0|0,0:0|0:0|3:0,0:0:0:0:
43,13,49956,6,0,P|50:52|57:92,1,80,0|0,0:0|3:0,0:0:0:0:
282,254,50239,6,0,P|314:215|340:190,1,64,0|0,0:0|3:0,0:0:0:0:
238,57,50522,6,0,P|220:55|174:47,1,47.9999985351563,0|0,0:0|3:0,0:0:0:0:
0,149,50805,1,4,1:0:0:0:
159,240,51088,5,4,1:0:0:0:
84,323,51229,1,0,3:0:0:0:
84,323,51300,1,0,0:0:0:0:
84,323,51371,2,0,P|34:329|-10:336,1,80,0|0,0:0|3:0,0:0:0:0:
185,336,51654,5,0,0:0:0:0:
67,233,51795,1,0,3:0:0:0:
67,233,51866,1,0,0:0:0:0:
67,233,51937,2,0,P|57:181|64:130,1,80,0|0,0:0|3:0,0:0:0:0:
238,134,52220,2,0,P|263:138|291:144,2,40,0|0|0,0:0|0:0|3:0,0:0:0:0:
72,61,52503,5,0,0:0:0:0:
163,0,52644,2,0,P|167:24|170:45,1,40,0|0,3:0|0:0,0:0:0:0:
238,134,52786,2,0,P|250:100|256:76,1,40
339,53,52928,1,0,3:0:0:0:
433,91,53069,2,0,L|478:96,2,40
256,214,53352,5,0,1:0:0:0:
256,214,53494,1,0,1:0:0:0:
256,214,53635,1,0,1:0:0:0:
256,214,53777,1,0,1:0:0:0:
256,214,53918,1,0,1:0:0:0:
256,214,54060,1,0,1:0:0:0:
256,214,54201,1,0,1:0:0:0:
256,214,54343,1,0,1:0:0:0:
256,214,54484,5,0,1:0:0:0:
219,228,54554,1,0,1:0:0:0:
179,229,54625,1,0,1:0:0:0:
142,215,54696,1,0,1:0:0:0:
112,188,54767,1,0,1:0:0:0:
94,153,54837,1,0,1:0:0:0:
90,113,54908,1,0,1:0:0:0:
101,75,54979,1,0,1:0:0:0:
125,43,55050,1,0,1:0:0:0:
159,22,55120,1,0,1:0:0:0:
198,15,55191,1,0,1:0:0:0:
237,23,55262,1,0,1:0:0:0:
271,44,55333,5,4,0:2:0:0:
271,44,55616,6,0,P|322:71|379:71,1,111.999996582031,6|0,1:0|0:0,0:0:0:0:
357,271,55899,2,0,P|294:237|195:233,1,167.999994873047,2|0,1:1|0:0,0:0:0:0:
172,241,56182,1,2,1:0:0:0:
422,154,56324,1,2,1:0:0:0:
271,44,56465,2,0,L|282:172,1,111.999996582031,2|0,1:0|1:0,0:0:0:0:
283,183,56678,1,0,1:0:0:0:
286,210,56748,1,2,1:0:0:0:
355,101,56890,1,0,1:0:0:0:
173,206,57031,1,2,1:0:0:0:
340,312,57173,1,2,1:0:0:0:
185,306,57314,6,0,L|73:300,1,111.999996582031,2|0,1:0|0:0,0:0:0:0:
69,304,57597,6,0,L|180:309,1,111.999996582031,4|0,1:2|0:0,0:0:0:0:
22,224,57880,6,0,P|0:172|0:116,1,111.999996582031,6|0,1:0|0:0,0:0:0:0:
286,208,58163,2,2,P|222:162|127:161,1,167.999994873047,2|0,1:0|0:0,0:0:0:0:
110,170,58446,1,2,1:0:0:0:
342,40,58588,1,2,1:0:0:0:
189,19,58729,2,0,P|233:50|306:56,1,111.999996582031,2|0,1:0|1:0,0:0:0:0:
317,52,58942,1,0,1:0:0:0:
342,40,59012,5,6,1:0:0:0:
488,166,59154,1,2,1:0:0:0:
274,149,59295,1,6,1:0:0:0:
436,48,59437,1,0,1:0:0:0:
374,252,59578,5,6,1:0:0:0:
386,119,59720,1,2,1:0:0:0:
374,252,59861,1,6,1:0:0:0:
386,119,60003,1,2,1:0:0:0:
297,281,60144,6,0,P|244:289|173:298,1,111.999996582031,6|0,1:0|0:0,0:0:0:0:
22,198,60428,2,0,P|72:253|97:346,1,167.999994873047,2|0,1:0|0:0,0:0:0:0:
98,372,60711,1,2,1:0:0:0:
223,159,60852,1,2,1:0:0:0:
297,281,60994,2,0,P|244:263|188:258,1,111.999996582031,2|0,1:0|1:0,0:0:0:0:
165,257,61206,1,0,1:0:0:0:
143,263,61277,5,2,1:0:0:0:
341,175,61418,1,0,1:0:0:0:
140,114,61560,1,2,1:0:0:0:
388,63,61701,1,2,1:0:0:0:
204,14,61843,6,0,L|219:132,1,111.999996582031,2|0,1:0|0:0,0:0:0:0:
222,129,62126,6,0,L|208:18,1,111.999996582031,4|0,1:2|0:0,0:0:0:0:
147,324,62409,6,0,P|197:311|256:303,1,111.999996582031,6|0,1:0|0:0,0:0:0:0:
465,203,62692,2,0,P|393:200|322:129,1,167.999994873047,2|0,1:0|0:0,0:0:0:0:
320,109,62975,1,2,1:0:0:0:
432,42,63116,1,2,1:0:0:0:
248,182,63258,2,0,P|229:129|231:73,1,111.999996582031,2|0,1:0|0:0,0:0:0:0:
235,45,63470,1,2,0:0:0:0:
247,19,63541,5,2,0:0:0:0:
324,6,63682,1,2,0:0:0:0:
366,72,63824,1,2,0:0:0:0:
335,143,63965,1,2,0:0:0:0:
160,182,64107,6,2,L|73:176,2,80,2|0|2,0:0|0:0|0:0,0:0:0:0:
203,112,64673,5,6,1:2:0:0:
121,105,64814,1,2,0:0:0:0:
80,176,64956,1,2,0:0:0:0:
109,249,65097,1,2,0:0:0:0:
295,280,65239,6,2,L|382:275,2,80,2|2|2,0:2|0:2|0:2,0:2:0:0:
253,213,65805,5,2,0:2:0:0:
331,204,65946,1,2,0:2:0:0:
375,276,66088,1,2,0:2:0:0:
340,347,66229,1,2,0:2:0:0:
161,384,66371,6,2,L|71:376,2,80,2|2|6,0:2|0:2|1:2,0:2:0:0:
239,294,66795,1,2,0:2:0:0:
52,240,66937,6,2,P|51:271|58:303,1,64,6|2,1:2|0:2,0:2:0:0:
293,234,67220,2,2,L|282:138,1,64,2|2,0:2|0:2,0:2:0:0:
60,232,67503,6,2,P|59:263|66:295,1,64,6|2,1:2|0:2,0:2:0:0:
301,226,67786,2,2,L|290:130,1,64,2|2,0:2|0:2,0:2:0:0:
68,224,68069,6,2,P|67:255|74:287,1,64,6|2,1:2|0:2,0:2:0:0:
309,218,68352,2,2,L|298:122,1,64,2|2,0:2|0:2,0:2:0:0:
76,216,68635,6,2,P|75:247|82:279,1,64,6|2,1:2|0:2,0:2:0:0:
317,210,68918,2,2,L|306:114,1,64,2|2,1:2|0:2,0:2:0:0:
119,123,69201,5,4,1:0:0:0:
136,130,69343,1,0,1:0:0:0:
154,122,69484,1,0,1:0:0:0:
161,105,69626,1,0,1:0:0:0:
154,87,69767,1,0,1:0:0:0:
136,80,69909,1,0,1:0:0:0:
119,87,70050,1,0,1:0:0:0:
111,105,70192,1,0,1:0:0:0:
58,197,70333,5,0,1:0:0:0:
85,212,70403,1,0,1:0:0:0:
116,220,70474,1,0,1:0:0:0:
148,219,70545,1,0,1:0:0:0:
179,210,70616,1,0,1:0:0:0:
206,193,70686,1,0,1:0:0:0:
227,170,70757,1,0,1:0:0:0:
242,141,70828,1,0,1:0:0:0:
248,110,70899,1,0,1:0:0:0:
246,78,70969,1,0,1:0:0:0:
235,48,71040,1,0,1:0:0:0:
217,22,71111,1,0,1:0:0:0:
193,1,71182,1,0,1:0:0:0:
256,192,71324,12,4,72597,1:0:0:0:
187,266,73729,6,0,P|123:278|38:228,2,160,2|2|2,0:0|0:0|0:0,0:0:0:0:
328,347,75994,1,2,0:0:0:0:
446,295,76560,2,0,P|452:250|457:187,1,80,2|2,0:0|1:2,0:0:0:0:
183,31,77126,6,0,P|227:155|398:131,1,320,4|2,1:0|0:0,0:0:0:0:
410,49,78824,1,2,0:0:0:0:
142,226,79390,6,0,P|241:244|158:291,1,240,2|2,0:0|0:0,0:0:0:0:
113,223,80522,1,2,0:0:0:0:
218,167,80805,1,2,0:0:0:0:
293,271,81088,1,2,0:0:0:0:
209,363,81371,1,2,0:0:0:0:
12,320,81654,6,0,P|9:209|4:-4,1,320,4|2,1:0|0:0,0:0:0:0:
4,0,83352,1,2,0:0:0:0:
347,25,83918,6,0,P|289:140|114:121,1,320,2|2,0:0|0:0,0:0:0:0:
139,45,85616,1,2,0:0:0:0:
156,49,85899,1,0,1:0:0:0:
270,17,86182,6,0,B|194:180|330:166|260:340,1,320,4|2,1:0|0:0,0:0:0:0:
265,325,87880,1,2,0:0:0:0:
480,359,88446,6,0,P|443:163|242:271,1,480,2|2,0:0|0:0,0:0:0:0:
149,366,90711,5,8,1:2:0:0:
79,302,90852,2,0,L|0:311,2,80,0|8|0,0:0|0:0|0:0,0:0:0:0:
137,231,91277,1,8,0:0:0:0:
212,298,91418,1,0,0:0:0:0:
231,301,91489,1,0,0:0:0:0:
250,304,91560,1,8,0:0:0:0:
269,307,91630,1,0,0:0:0:0:
288,311,91701,1,0,0:0:0:0:
378,268,91843,5,8,0:0:0:0:
381,271,91984,1,0,0:0:0:0:
385,275,92126,2,0,P|405:208|403:165,1,80,8|0,0:0|0:0,0:0:0:0:
230,36,92409,2,0,P|166:94|177:167,1,160,8|8,0:0|0:0,0:0:0:0:
352,114,92975,6,0,L|514:132,2,160,8|8|8,0:0|0:0|0:0,0:0:0:0:
253,205,93682,1,0,0:0:0:0:
253,205,93753,1,0,0:0:0:0:
253,205,93824,2,0,L|160:198,1,80,8|0,0:0|0:0,0:0:0:0:
53,192,94107,6,8,P|69:228|83:265,1,80,8|0,0:0|0:0,0:0:0:0:
227,104,94390,2,0,P|187:100|147:94,1,80,8|0,0:0|0:0,0:0:0:0:
233,299,94673,2,0,P|256:266|281:235,1,80,8|0,0:0|0:0,0:0:0:0:
461,205,94956,1,8,1:2:0:0:
356,148,95239,5,12,1:2:0:0:
355,145,95380,1,0,1:0:0:0:
355,142,95522,1,8,1:2:0:0:
355,140,95663,1,0,1:0:0:0:
355,137,95805,1,8,1:2:0:0:
354,134,95946,1,0,1:0:0:0:
354,132,96088,1,8,1:2:0:0:
354,129,96229,1,0,1:0:0:0:
354,126,96371,1,8,1:2:0:0:
353,124,96512,1,0,1:0:0:0:
353,121,96654,1,8,1:2:0:0:
353,118,96795,1,0,1:0:0:0:
353,116,96937,1,8,1:2:0:0:
352,113,97078,1,0,1:0:0:0:
352,110,97220,1,8,1:2:0:0:
352,108,97361,1,0,1:0:0:0:
333,6,97503,5,8,1:2:0:0:
294,17,97573,1,0,1:2:0:0:
263,41,97644,1,0,1:2:0:0:
243,76,97715,1,0,1:2:0:0:
236,115,97786,1,8,1:2:0:0:
245,154,97856,1,0,1:2:0:0:
267,187,97927,1,0,1:2:0:0:
299,210,97998,1,0,1:2:0:0:
338,220,98069,2,0,L|385:214,7,40,8|0|0|0|8|0|0|0,1:2|1:2|1:2|1:2|1:2|1:2|1:2|1:2,1:2:0:0:
449,137,98635,6,0,L|441:201,1,40,8|0,1:2|1:2,1:2:0:0:
276,299,98777,2,0,L|348:286,1,40,0|0,1:2|1:2,1:2:0:0:
463,154,98918,2,0,L|455:218,1,40,8|0,1:2|1:2,1:2:0:0:
290,309,99060,2,0,L|362:296,1,40,0|0,1:2|1:2,1:2:0:0:
454,301,99201,6,0,L|458:330,22,20,8|0|0|0|0|0|0|0|0|0|0|0|0|0|0|0|0|0|0|0|0|0|0,1:2|1:0|1:0|1:0|1:0|1:0|1:0|1:0|1:0|1:0|1:0|1:0|1:0|1:0|1:0|1:0|1:0|1:0|1:0|1:0|1:0|1:0|1:0,1:0:0:0:
395,242,100050,5,8,0:0:0:0:
395,242,100333,1,8,0:0:0:0:
395,242,100616,1,2,1:1:0:0:
83,124,100899,6,0,P|135:146|205:139,1,111.999996582031,4|2,1:2|0:1,0:0:0:0:
432,138,101182,2,2,P|329:157|276:213,1,167.999994873047,2|0,1:0|0:0,0:0:0:0:
272,223,101465,1,2,1:0:0:0:
130,16,101607,1,2,0:1:0:0:
130,16,101678,1,0,1:0:0:0:
130,16,101748,2,0,P|182:53|268:67,1,111.999996582031,0|2,0:0|1:0,0:0:0:0:
358,46,102031,5,0,1:0:0:0:
140,140,102173,1,0,0:0:0:0:
358,143,102314,1,0,1:0:0:0:
154,225,102456,1,0,0:0:0:0:
329,233,102597,2,0,P|384:248|447:277,1,111.999996582031,2|0,1:0|1:0,0:0:0:0:
462,288,102810,1,0,1:0:0:0:
462,288,102880,1,2,1:0:0:0:
56,340,103163,6,0,P|43:237|14:97,2,223.999993164063,2|0|2,1:0|1:0|1:0,0:0:0:0:
244,260,103871,1,2,0:1:0:0:
244,260,103942,1,0,1:0:0:0:
243,260,104012,2,0,P|200:295|146:310,1,111.999996582031,0|2,0:0|1:0,0:0:0:0:
216,75,104295,2,0,P|256:113|278:164,1,111.999996582031,0|0,1:0|0:0,0:0:0:0:
336,353,104578,2,0,P|393:270|482:229,1,167.999994873047,0|0,1:0|0:0,0:0:0:0:
477,240,104861,1,2,1:0:0:0:
346,105,105003,1,0,1:0:0:0:
346,105,105074,1,0,1:0:0:0:
346,105,105144,1,2,1:0:0:0:
27,218,105428,6,0,P|85:211|148:205,1,111.999996582031,4|2,1:2|0:1,0:0:0:0:
81,25,105711,2,2,P|140:87|249:66,1,167.999994873047,2|0,1:0|0:0,0:0:0:0:
243,69,105994,1,2,1:0:0:0:
42,133,106135,1,2,0:1:0:0:
42,133,106206,1,0,1:0:0:0:
42,133,106277,1,0,0:0:0:0:
305,174,106418,1,2,1:0:0:0:
120,251,106560,6,0,P|168:224|224:216,1,111.999996582031,0|0,1:0|0:0,0:0:0:0:
488,160,106843,2,0,P|421:202|322:185,1,167.999994873047,0|0,1:0|0:0,0:0:0:0:
305,174,107126,1,2,1:0:0:0:
374,322,107267,1,0,1:0:0:0:
374,322,107338,1,0,1:0:0:0:
374,322,107409,1,2,1:0:0:0:
12,150,107692,6,0,P|32:255|45:380,2,223.999993164063,2|0|2,1:0|1:0|1:0,0:0:0:0:
210,85,108399,1,2,1:1:0:0:
210,85,108470,1,0,1:0:0:0:
210,85,108541,2,0,P|153:140|91:134,1,111.999996582031,0|2,1:0|0:1,0:0:0:0:
214,257,108824,6,0,P|248:216|217:260,3,160,2|2|2|2,0:0|0:0|0:0|0:0,0:0:0:0:
444,339,109956,5,4,1:2:0:0:
444,339,110027,1,0,1:0:0:0:
444,339,110097,2,0,L|434:258,1,55.9999982910157,0|0,1:0|0:0,0:0:0:0:
512,226,110239,2,0,L|502:145,1,55.9999982910157,0|0,1:0|0:0,0:0:0:0:
368,130,110380,2,0,L|358:49,1,55.9999982910157,0|0,1:0|0:0,0:0:0:0:
430,22,110522,5,0,1:0:0:0:
275,146,110663,2,0,L|164:132,2,111.999996582031,0|0|0,1:0|1:0|1:0,0:0:0:0:
60,38,111088,5,0,1:0:0:0:
60,38,111159,1,0,1:0:0:0:
60,38,111229,2,0,P|50:76|55:112,1,55.9999982910157,0|0,1:0|0:0,0:0:0:0:
0,163,111371,2,0,P|27:190|61:204,1,55.9999982910157,0|0,1:0|0:0,0:0:0:0:
78,277,111512,2,0,P|115:266|144:244,1,55.9999982910157,0|0,1:0|0:0,0:0:0:0:
203,206,111654,1,0,1:0:0:0:
283,339,111795,1,0,1:0:0:0:
255,341,111865,1,0,1:0:0:0:
227,344,111936,1,0,1:0:0:0:
199,350,112007,1,0,1:0:0:0:
172,357,112078,1,0,1:0:0:0:
340,254,112220,6,0,L|367:375,2,111.999996582031,0|0|0,1:0|1:0|1:0,0:0:0:0:
331,227,112574,1,0,1:0:0:0:
336,199,112644,1,0,1:0:0:0:
350,174,112715,1,0,1:0:0:0:
371,155,112786,1,0,1:0:0:0:
396,144,112857,1,0,1:0:0:0:
423,139,112928,1,0,1:0:0:0:
450,142,112998,1,0,1:0:0:0:
474,156,113069,2,0,P|481:187|479:220,2,55.9999982910157,0|0|0,1:0|1:0|1:0,0:0:0:0:
243,158,113352,5,0,1:0:0:0:
408,222,113494,1,0,1:0:0:0:
369,54,113635,1,0,1:0:0:0:
300,249,113777,5,0,1:0:0:0:
426,132,113918,1,0,1:0:0:0:
267,60,114060,1,0,1:0:0:0:
338,151,114201,5,4,1:0:0:0:
21,147,114484,5,4,1:0:0:0:
21,158,114625,1,0,1:0:0:0:
22,171,114767,1,0,1:0:0:0:
23,183,114908,1,0,1:0:0:0:
24,196,115050,1,0,1:0:0:0:
24,208,115191,1,0,1:0:0:0:
25,221,115333,1,0,1:0:0:0:
26,233,115474,1,0,1:0:0:0:
174,289,115616,5,4,1:0:0:0:
175,267,115757,1,0,1:0:0:0:
177,244,115899,1,0,1:0:0:0:
177,223,116040,1,0,1:0:0:0:
179,200,116182,1,0,1:0:0:0:
181,178,116323,1,0,1:0:0:0:
182,155,116465,1,0,1:0:0:0:
182,136,116606,1,0,1:0:0:0:
262,39,116748,5,4,1:0:0:0:
294,26,116818,1,0,1:0:0:0:
329,22,116889,1,0,1:0:0:0:
364,29,116960,1,0,1:0:0:0:
396,45,117031,1,0,1:0:0:0:
421,69,117101,1,0,1:0:0:0:
440,99,117172,1,0,1:0:0:0:
449,134,117243,1,0,1:0:0:0:
448,169,117314,1,4,1:0:0:0:
438,202,117384,1,0,1:0:0:0:
419,233,117455,1,0,1:0:0:0:
392,256,117526,1,0,1:0:0:0:
360,271,117597,1,0,1:0:0:0:
326,277,117667,1,0,1:0:0:0:
290,273,117738,1,0,1:0:0:0:
257,258,117809,1,0,1:0:0:0:
230,236,117880,6,0,L|227:194,6,27.9999991455078,4|0|0|0|0|0|0,1:0|1:0|1:0|1:0|1:0|1:0|1:0,1:0:0:0:
166,152,118163,6,0,L|200:128,6,27.9999991455078,0|0|0|0|0|0|0,1:0|1:0|1:0|1:0|1:0|1:0|1:0,1:0:0:0:
206,54,118446,6,0,L|243:72,6,27.9999991455078,0|0|0|0|0|0|0,1:0|1:0|1:0|1:0|1:0|1:0|1:0,1:0:0:0:
309,95,118729,5,4,1:1:0:0:
309,95,119012,1,4,1:2:0:0:
256,192,119154,12,0,120003,0:0:0:0:
