osu file format v14

[General]
AudioFilename: audio.mp3
AudioLeadIn: 0
PreviewTime: 55060
Countdown: 0
SampleSet: Soft
StackLeniency: 0.3
Mode: 0
LetterboxInBreaks: 0
WidescreenStoryboard: 1

[Editor]
DistanceSpacing: 0.7
BeatDivisor: 4
GridSize: 16
TimelineZoom: 2.899999

[Metadata]
Title:Mind Mapping (kors k mix)
TitleUnicode:Mind Mapping (kors k mix)
Artist:Ryu*
ArtistUnicode:Ryu☆
Creator:AJT
Version:chill's EXTRA
Source:REFLEC BEAT limelight
Tags:electronic instrumental video game electro-tech + plus konami music pack 17 bemani beatmania IIDX 16 EMPRESS starmine cyber beatnation 2 -Hi Speed conclusion- wring pocket- yf_bmp wyrio Down Frey Dada Aranel YokesPai Niva Nivalis verychill CallieCube Allice ObamaCube Smokebloke
BeatmapID:3998607
BeatmapSetID:1774369

[Difficulty]
HPDrainRate:5
CircleSize:4.5
OverallDifficulty:9
ApproachRate:9
SliderMultiplier:2
SliderTickRate:1

[Events]
//Background and Video events
0,0,"bg.jpg",0,0
//Break Periods
//Storyboard Layer 0 (Background)
//Storyboard Layer 1 (Fail)
//Storyboard Layer 2 (Pass)
//Storyboard Layer 3 (Foreground)
//Storyboard Layer 4 (Overlay)
//Storyboard Sound Samples

[TimingPoints]
1290,327.868852459016,4,2,0,70,1,0
11781,-86.9565217391304,4,2,0,70,0,0
18257,-86.9565217391304,4,2,0,5,0,0
18339,-86.9565217391304,4,2,0,70,0,0
21945,-57.1428571428571,4,2,0,70,0,0
22191,-57.1428571428571,4,2,0,5,0,0
22273,-86.9565217391304,4,2,0,70,0,0
24896,-133.333333333333,4,2,0,50,0,0
35388,-100,4,2,0,60,0,0
40634,-100,4,2,0,70,0,0
45880,-250,4,2,0,70,0,0
47191,-166.666666666667,4,2,0,70,0,0
48503,-125,4,2,0,70,0,0
51126,-100,4,2,0,70,0,0
52437,-100,4,2,0,75,0,0
53749,-142.857142857143,4,2,0,80,0,0
55060,-142.857142857143,4,2,0,70,0,0
56044,-57.1428571428571,4,2,0,70,0,0
56289,-57.1428571428571,4,2,0,5,0,0
56371,-68.9655172413793,4,2,0,85,0,1
77027,-57.1428571428571,4,2,0,85,0,0
77273,-57.1428571428571,4,2,0,5,0,0
77355,-80,4,2,0,85,0,1
81126,-100,4,2,0,85,0,1
81781,-133.333333333333,4,2,0,85,0,1
82601,-80,4,2,0,85,0,1
92109,-100,4,2,0,85,0,1
92437,-133.333333333333,4,2,0,85,0,1
93093,-80,4,2,0,85,0,1
98339,-80,4,2,0,85,0,0

[Colours]
Combo1 : 227,121,124
Combo2 : 0,64,128
Combo3 : 66,151,255
Combo4 : 198,51,54

[HitObjects]
62,368,1290,5,4,1:0:0:0:
140,351,1453,1,2,0:0:0:0:
290,288,1617,1,8,1:0:0:0:
193,266,1780,1,2,0:0:0:0:
124,143,1945,1,2,1:3:0:0:
127,152,2027,1,2,0:3:0:0:
130,161,2109,1,2,0:3:0:0:
133,170,2191,1,2,0:3:0:0:
136,179,2273,1,8,1:0:0:0:
8,221,2437,2,0,P|54:234|98:258,1,100,2|0,0:0|1:0,0:0:0:0:
299,220,2765,5,2,0:0:0:0:
257,193,2847,1,2,0:0:0:0:
245,145,2929,1,8,1:0:0:0:
308,2,3093,1,2,0:0:0:0:
448,72,3257,1,2,1:3:0:0:
434,104,3339,1,2,0:3:0:0:
407,126,3421,1,2,0:3:0:0:
374,138,3503,1,2,0:3:0:0:
339,135,3585,1,8,1:0:0:0:
308,2,3749,1,2,0:0:0:0:
111,55,3912,37,0,1:0:0:0:
189,72,4075,1,2,0:0:0:0:
339,135,4239,1,8,1:0:0:0:
242,157,4404,1,2,0:0:0:0:
173,280,4567,1,2,1:3:0:0:
176,271,4649,1,2,0:3:0:0:
179,262,4731,1,2,0:3:0:0:
182,253,4813,1,2,0:3:0:0:
185,244,4895,1,8,1:0:0:0:
373,342,5060,6,0,P|326:360|282:384,1,100,2|0,0:0|1:0,0:0:0:0:
421,268,5388,2,0,P|464:292|511:310,1,100,2|8,0:0|1:0,0:0:0:0:
370,50,5716,2,0,P|346:59|324:71,1,50,2|0,0:0|0:0,0:0:0:0:
235,92,5880,1,0,1:0:0:0:
247,125,5961,1,2,0:0:0:0:
273,150,6043,1,2,0:0:0:0:
304,167,6125,1,2,0:0:0:0:
338,177,6207,1,8,1:0:0:0:
374,178,6289,1,2,0:0:0:0:
408,170,6371,1,2,0:0:0:0:
439,153,6453,1,2,0:0:0:0:
459,125,6535,37,0,1:0:0:0:
476,47,6698,1,2,0:0:0:0:
374,178,6862,1,8,1:0:0:0:
396,275,7027,1,2,0:0:0:0:
251,109,7190,1,2,1:3:0:0:
260,112,7272,1,2,0:3:0:0:
269,115,7354,1,2,0:3:0:0:
278,118,7436,1,2,0:3:0:0:
287,121,7518,1,8,1:0:0:0:
351,0,7682,2,0,P|363:49|375:123,1,100,2|0,0:0|1:0,0:0:0:0:
261,230,8011,5,2,0:0:0:0:
303,257,8093,1,2,0:0:0:0:
315,305,8175,1,8,1:0:0:0:
167,355,8339,1,2,0:0:0:0:
83,223,8503,1,2,1:3:0:0:
50,236,8585,1,2,0:3:0:0:
29,264,8667,1,2,0:3:0:0:
24,298,8749,1,2,0:3:0:0:
38,330,8831,1,8,1:0:0:0:
167,355,8995,1,2,0:0:0:0:
180,157,9158,37,0,1:0:0:0:
162,79,9321,1,2,0:0:0:0:
265,210,9485,1,8,1:0:0:0:
243,307,9650,1,2,0:0:0:0:
388,141,9813,1,2,1:3:0:0:
379,144,9895,1,2,0:3:0:0:
370,147,9977,1,2,0:3:0:0:
361,150,10059,1,2,0:3:0:0:
352,153,10141,1,8,1:0:0:0:
117,222,10305,1,2,0:0:0:0:
0,141,10470,5,0,1:0:0:0:
32,56,10634,1,2,0:0:0:0:
119,34,10798,1,8,1:0:0:0:
195,82,10962,1,2,0:0:0:0:
235,213,11126,38,0,P|238:240|244:264,1,50,4|0,1:0|0:0,0:0:0:0:
368,264,11289,2,0,P|385:281|408:288,1,50,2|0,0:0|0:0,0:0:0:0:
479,185,11453,2,0,P|510:169|496:136,1,50,8|0,1:0|0:0,0:0:0:0:
436,29,11617,2,0,P|417:17|421:37,1,50,6|0,0:0|0:0,0:0:0:0:
426,115,11781,6,0,P|374:129|351:80,1,115.000002193451,4|2,1:0|0:0,0:0:0:0:
351,80,12027,1,2,0:0:0:0:
351,80,12109,1,8,1:0:0:0:
319,194,12273,2,0,P|313:222|310:250,1,57.5000010967255,2|0,0:0|0:0,0:0:0:0:
260,123,12437,1,2,1:3:0:0:
264,88,12519,1,2,0:3:0:0:
242,60,12601,1,2,0:3:0:0:
207,57,12683,1,2,0:3:0:0:
184,83,12765,1,8,1:0:0:0:
294,0,12929,1,2,0:0:0:0:
104,117,13093,38,0,P|92:90|97:62,1,57.5000010967255,0|0,1:0|0:0,0:0:0:0:
168,187,13257,1,2,0:0:0:0:
118,215,13339,1,2,0:0:0:0:
63,202,13421,1,8,1:0:0:0:
217,325,13585,1,2,0:0:0:0:
266,145,13749,1,2,1:3:0:0:
312,146,13830,1,2,0:3:0:0:
348,176,13912,1,2,0:3:0:0:
361,221,13994,1,2,0:3:0:0:
343,263,14076,1,8,1:0:0:0:
220,321,14240,1,0,1:0:0:0:
218,312,14322,1,0,1:0:0:0:
215,303,14404,6,0,P|166:325|179:377,1,115.000002193451,0|2,1:0|0:0,0:0:0:0:
178,376,14650,1,2,0:0:0:0:
178,376,14732,1,8,1:0:0:0:
212,219,14896,2,0,P|208:190|203:162,1,57.5000010967255,2|0,0:0|0:0,0:0:0:0:
288,354,15060,1,2,1:3:0:0:
311,380,15142,1,2,0:3:0:0:
346,377,15224,1,2,0:3:0:0:
368,349,15306,1,2,0:3:0:0:
364,314,15388,1,8,1:0:0:0:
142,296,15552,1,2,0:0:0:0:
332,238,15716,38,0,P|387:222|443:210,1,115.000002193451,0|2,1:0|0:0,0:0:0:0:
203,162,16044,2,0,P|146:149|185:76,1,115.000002193451,8|0,1:0|1:0,0:0:0:0:
141,100,16289,1,0,1:2:0:0:
141,100,16371,1,0,1:0:0:0:
296,4,16535,1,2,0:0:0:0:
304,36,16617,1,2,0:0:0:0:
280,61,16699,1,8,1:0:0:0:
46,104,16863,1,2,1:2:0:0:
18,54,16945,1,2,1:2:0:0:
48,6,17027,6,0,P|131:19|196:26,1,115.000002193451,4|2,1:0|0:0,0:0:0:0:
364,150,17355,2,0,P|306:156|250:167,1,115.000002193451,8|2,1:0|0:0,0:0:0:0:
118,255,17683,1,2,1:3:0:0:
94,287,17765,1,2,0:3:0:0:
94,327,17847,1,2,0:3:0:0:
117,359,17929,1,2,0:3:0:0:
157,367,18011,38,0,B|290:377|290:377|334:324,1,172.500003290176,12|0,1:0|0:0,0:0:0:0:
257,298,18339,6,0,P|250:269|246:241,1,57.5000010967255,0|0,1:0|0:0,0:0:0:0:
420,84,18503,1,2,0:0:0:0:
473,103,18585,1,2,0:0:0:0:
492,157,18667,1,8,1:0:0:0:
338,252,18830,1,2,0:0:0:0:
275,64,18994,1,2,1:3:0:0:
228,30,19076,1,2,0:3:0:0:
170,24,19158,1,2,0:3:0:0:
120,54,19240,1,2,0:3:0:0:
100,109,19322,38,0,B|92:128|78:145|78:145|138:121|238:101,1,172.500003290176,12|0,1:0|0:0,0:0:0:0:
291,148,19650,5,4,1:0:0:0:
347,136,19732,1,0,3:0:0:0:
399,158,19814,1,0,3:0:0:0:
422,210,19896,1,0,3:0:0:0:
417,267,19978,2,0,P|411:295|403:367,1,57.5000010967255,8|0,1:0|0:0,0:0:0:0:
223,187,20142,2,0,P|216:214|211:243,1,57.5000010967255,0|0,3:0|0:0,0:0:0:0:
95,258,20306,37,4,1:0:0:0:
71,297,20388,1,0,3:0:0:0:
75,342,20470,1,0,3:0:0:0:
107,374,20552,1,0,3:0:0:0:
152,375,20634,2,0,P|146:344|141:313,1,57.5000010967255,8|0,1:0|0:0,0:0:0:0:
332,261,20798,2,0,P|328:232|322:204,1,57.5000010967255,0|0,1:0|0:0,0:0:0:0:
512,147,20962,5,2,1:2:0:0:
480,62,21126,1,2,0:0:0:0:
393,40,21289,1,2,0:0:0:0:
317,88,21453,1,2,0:0:0:0:
322,204,21617,37,2,0:0:0:0:
268,339,21781,1,2,0:0:0:0:
114,377,21945,2,2,B|94:360|90:337|90:337|0:298|0:298|106:377,1,262.500002503395,2|0,0:3|0:0,0:1:0:0:
171,322,22273,5,4,1:0:0:0:
260,148,24896,37,2,1:2:0:0:
238,228,25060,1,0,0:0:0:0:
260,148,25224,1,0,0:0:0:0:
260,148,25388,1,0,0:0:0:0:
238,68,25552,5,2,0:0:0:0:
296,9,25716,1,0,0:0:0:0:
376,31,25880,1,0,0:0:0:0:
398,111,26044,1,0,0:0:0:0:
339,169,26208,37,2,0:0:0:0:
179,125,26372,1,2,0:0:0:0:
339,169,26536,1,2,0:0:0:0:
339,169,26700,1,2,0:0:0:0:
398,111,26863,5,2,0:0:0:0:
376,31,27027,1,0,0:0:0:0:
296,9,27191,1,2,0:0:0:0:
238,68,27355,1,0,0:0:0:0:
163,246,27519,37,2,0:0:0:0:
163,246,27683,1,0,0:0:0:0:
105,305,27847,1,0,0:0:0:0:
105,305,28011,1,0,0:0:0:0:
25,283,28175,5,2,0:0:0:0:
3,203,28339,1,0,0:0:0:0:
22,286,28503,1,0,0:0:0:0:
0,206,28667,1,0,0:0:0:0:
57,136,28830,37,2,0:0:0:0:
139,141,28994,1,2,0:0:0:0:
221,146,29158,1,2,0:0:0:0:
303,151,29322,1,2,0:0:0:0:
385,156,29486,5,2,0:0:0:0:
391,157,29650,1,2,0:0:0:0:
397,158,29814,1,2,0:0:0:0:
403,159,29978,1,2,0:0:0:0:
373,302,30142,37,2,0:0:0:0:
293,324,30306,1,0,0:0:0:0:
373,302,30470,1,0,0:0:0:0:
373,302,30634,1,0,0:0:0:0:
453,324,30798,5,2,0:0:0:0:
512,266,30962,1,0,0:0:0:0:
490,186,31126,1,0,0:0:0:0:
410,164,31290,1,0,0:0:0:0:
352,223,31454,37,2,0:0:0:0:
396,383,31618,1,2,0:0:0:0:
352,223,31782,1,2,0:0:0:0:
352,223,31946,1,2,0:0:0:0:
410,164,32109,5,2,0:0:0:0:
490,186,32273,1,0,0:0:0:0:
512,266,32437,1,2,0:0:0:0:
453,324,32601,1,0,0:0:0:0:
257,349,32765,37,2,0:0:0:0:
257,349,32929,1,0,0:0:0:0:
264,265,33093,1,0,0:0:0:0:
264,265,33257,1,0,0:0:0:0:
308,193,33421,5,2,0:0:0:0:
225,187,33585,1,0,0:0:0:0:
311,196,33749,1,0,0:0:0:0:
228,190,33912,1,0,0:0:0:0:
274,122,34076,37,2,0:0:0:0:
275,116,34239,1,2,0:0:0:0:
276,110,34404,1,2,0:0:0:0:
277,104,34568,1,2,0:0:0:0:
278,98,34733,1,2,0:0:0:0:
279,92,34896,1,2,0:0:0:0:
280,86,35060,1,2,0:0:0:0:
270,167,35224,1,2,0:0:0:0:
258,286,35388,6,0,B|192:264|171:324|180:329|158:390|100:370,2,200,4|8|0,1:0|1:0|1:0,0:0:0:0:
375,359,36371,1,8,1:0:0:0:
375,359,36535,1,0,0:0:0:0:
396,277,36699,37,0,1:0:0:0:
258,286,36863,1,2,0:0:0:0:
324,231,37027,1,8,1:0:0:0:
290,365,37191,1,2,0:0:0:0:
375,359,37355,1,0,1:0:0:0:
375,359,37683,1,8,1:0:0:0:
275,151,38011,5,0,1:0:0:0:
161,75,38175,1,2,0:0:0:0:
240,80,38339,1,8,1:0:0:0:
123,146,38503,1,2,0:0:0:0:
154,222,38667,2,0,P|204:227|253:237,1,100,0|0,1:0|0:0,0:0:0:0:
123,146,38994,1,8,1:0:0:0:
75,214,39158,38,0,P|27:216|2:170,1,100,2|0,0:0|1:0,0:0:0:0:
0,94,39486,2,0,P|52:86|99:69,1,100,2|8,0:0|1:1,0:0:0:0:
123,146,39814,1,2,0:0:0:0:
172,28,39978,2,0,P|181:77|201:124,1,100,0|0,1:0|0:0,0:0:0:0:
292,325,40306,1,8,1:0:0:0:
276,295,40388,1,2,0:0:0:0:
280,261,40470,1,2,0:0:0:0:
303,235,40552,1,2,0:0:0:0:
337,227,40634,5,2,1:2:0:0:
420,296,40798,1,0,1:0:0:0:
510,239,40962,1,8,1:0:0:0:
484,136,41126,1,0,1:0:0:0:
377,129,41289,2,0,P|339:99|360:43,1,100,2|0,1:2|1:0,0:0:0:0:
467,38,41617,1,8,1:0:0:0:
467,38,41781,1,0,1:2:0:0:
337,227,41945,37,0,1:2:0:0:
510,239,42109,1,2,1:2:0:0:
377,129,42273,1,8,1:0:0:0:
420,296,42437,1,2,1:2:0:0:
484,136,42601,2,0,P|472:80|467:27,1,100,2|0,1:2|1:0,0:0:0:0:
337,227,42929,2,0,P|349:283|354:336,1,100,8|0,1:0|1:0,0:0:0:0:
61,254,43257,5,2,1:2:0:0:
75,251,43339,1,0,1:0:0:0:
89,248,43421,1,0,1:0:0:0:
103,246,43503,1,0,1:0:0:0:
117,243,43585,2,0,P|153:235|189:230,3,50,8|0|0|0,1:0|1:0|1:0|1:0,0:0:0:0:
306,162,43912,1,2,1:2:0:0:
277,159,43994,1,0,1:0:0:0:
248,157,44076,1,0,1:0:0:0:
219,153,44158,1,0,1:0:0:0:
190,150,44240,1,8,1:0:0:0:
161,148,44322,1,0,1:0:0:0:
132,144,44404,1,0,1:0:0:0:
103,139,44486,1,0,1:0:0:0:
74,133,44568,38,0,P|71:120|69:106,30,25,2|0|0|0|0|0|0|0|0|0|0|0|0|0|0|0|0|0|0|0|0|0|0|0|0|0|0|0|0|0|0,1:2|0:0|0:0|0:0|0:2|0:0|0:0|0:0|1:0|0:0|0:0|0:0|0:2|0:0|0:0|0:0|1:0|0:0|0:0|0:0|0:2|0:0|0:0|0:0|1:0|0:0|0:0|0:0|0:2|0:0|0:0,0:0:0:0:
159,247,45880,5,4,1:0:0:0:
88,269,46044,2,0,P|78:307|72:347,3,80,2|2|2|2,0:0|0:0|0:0|0:0,0:0:0:0:
171,319,47191,37,0,1:0:0:0:
85,266,47355,2,0,P|23:264|0:312,3,119.999996337891,2|2|2|2,0:0|0:0|0:0|0:0,0:0:0:0:
259,375,48503,5,0,1:0:0:0:
319,302,48667,2,0,P|363:330|405:338,1,80,2|0,0:0|0:0,0:0:0:0:
221,274,48994,2,0,P|208:309|170:318,1,80,2|0,0:0|0:0,0:0:0:0:
290,212,49322,2,0,P|276:183|264:130,1,80,2|0,0:0|0:0,0:0:0:0:
440,71,49650,38,0,P|462:38|472:0,1,80,2|0,0:0|1:0,0:0:0:0:
512,119,49978,2,0,P|490:151|452:159,1,80,2|0,0:0|0:0,0:0:0:0:
380,31,50306,2,0,P|401:63|439:71,1,80,2|0,0:0|0:0,0:0:0:0:
421,231,50634,2,0,P|443:197|451:159,1,80,2|0,0:0|0:0,0:0:0:0:
264,136,50962,1,2,0:0:0:0:
83,228,51126,6,0,P|58:236|31:240,1,50,4|0,1:0|0:0,0:0:0:0:
90,232,51289,2,0,P|65:240|38:244,1,50,0|0,1:0|0:0,0:0:0:0:
97,236,51453,2,0,P|72:244|45:248,1,50,0|0,1:0|0:0,0:0:0:0:
104,240,51617,2,0,P|79:248|52:252,1,50,0|0,1:0|0:0,0:0:0:0:
175,285,51781,38,0,P|178:310|198:324,1,50,0|0,1:0|0:0,0:0:0:0:
203,332,51945,2,0,P|225:341|248:331,1,50,0|0,1:0|0:0,0:0:0:0:
260,333,52109,2,0,P|279:317|281:293,1,50,0|0,1:0|0:0,0:0:0:0:
291,284,52273,2,0,P|287:260|267:246,1,50,0|0,1:0|0:0,0:0:0:0:
166,175,52437,6,0,P|158:151|154:126,1,50,4|0,1:0|0:0,0:0:0:0:
169,168,52601,2,0,P|161:144|157:119,1,50,0|0,1:0|0:0,0:0:0:0:
173,161,52765,2,0,P|165:137|161:112,1,50,0|0,1:0|0:0,0:0:0:0:
177,154,52928,2,0,P|169:130|165:105,1,50,0|0,1:0|0:0,0:0:0:0:
269,242,53093,38,0,P|261:220|283:228,1,50,0|0,1:0|0:0,0:0:0:0:
330,160,53257,2,0,P|343:143|348:165,1,50,0|0,1:0|0:0,0:0:0:0:
431,172,53421,2,0,P|452:176|434:191,1,50,0|0,1:0|0:0,0:0:0:0:
470,266,53585,2,0,P|476:287|455:278,1,50,0|0,1:0|0:0,0:0:0:0:
375,247,53749,5,4,1:0:0:0:
353,258,53830,1,0,1:0:0:0:
338,278,53912,1,0,1:0:0:0:
331,302,53994,1,0,1:0:0:0:
332,327,54076,1,4,1:0:0:0:
341,350,54158,1,0,1:0:0:0:
359,366,54240,1,0,1:0:0:0:
382,374,54322,1,0,1:0:0:0:
406,371,54404,37,4,1:0:0:0:
418,316,54486,1,0,1:0:0:0:
403,261,54568,1,0,1:0:0:0:
370,215,54650,1,0,1:0:0:0:
317,194,54732,1,4,1:0:0:0:
260,195,54814,1,0,1:0:0:0:
211,223,54896,1,0,1:0:0:0:
184,272,54978,1,0,1:0:0:0:
168,325,55060,5,2,0:0:0:0:
92,361,55224,1,2,0:0:0:0:
15,327,55388,1,2,0:0:0:0:
0,244,55552,1,2,0:0:0:0:
265,68,55716,37,2,0:0:0:0:
200,143,55880,1,2,0:0:0:0:
0,111,56044,2,2,B|38:53|38:53|92:7|92:7|72:79|72:79|42:77|25:96,1,262.500002503395,2|0,0:3|0:0,0:1:0:0:
68,160,56371,6,0,B|118:163|136:191|122:193|141:222|190:226,1,145.000004425049,4|0,1:0|0:0,0:0:0:0:
332,34,56699,1,8,1:0:0:0:
265,264,56863,1,2,0:0:0:0:
263,67,57027,2,0,P|327:52|344:116,1,145.000004425049,2|0,1:0|0:0,0:0:0:0:
135,292,57355,1,8,1:0:0:0:
381,367,57519,1,0,3:2:0:0:
381,367,57601,1,0,3:0:0:0:
381,367,57683,37,0,1:0:0:0:
344,116,57847,1,2,0:0:0:0:
249,360,58011,1,8,1:0:0:0:
325,198,58175,1,2,0:0:0:0:
450,257,58339,2,0,P|379:273|310:294,1,145.000004425049,2|0,1:0|0:0,0:0:0:0:
21,223,58667,2,0,P|91:207|160:185,1,145.000004425049,10|0,1:0|3:0,0:0:0:0:
167,191,58912,1,0,3:0:0:0:
167,191,58994,6,0,P|186:266|115:256,1,145.000004425049,2|0,1:2|0:0,0:0:0:0:
0,71,59322,1,8,1:0:0:0:
316,188,59486,1,2,0:0:0:0:
53,128,59650,2,0,P|22:70|81:43,1,145.000004425049,2|0,1:0|0:0,0:0:0:0:
316,188,59978,1,8,1:0:0:0:
186,91,60142,38,0,P|256:63|257:-5,1,145.000004425049,2|0,0:1|1:0,0:0:0:0:
274,305,60470,2,0,P|302:375|370:376,1,145.000004425049,2|8,0:1|1:0,0:0:0:0:
316,188,60798,1,2,0:2:0:0:
179,236,60962,2,0,P|107:246|36:262,1,145.000004425049,2|0,1:0|0:0,0:0:0:0:
341,60,61289,1,8,1:0:0:0:
375,17,61371,1,2,3:2:0:0:
429,15,61453,1,2,3:2:0:0:
463,56,61535,1,2,3:2:0:0:
452,109,61617,6,0,P|438:156|419:260,1,145.000004425049,0|0,1:0|0:0,0:0:0:0:
179,236,61945,1,8,1:0:0:0:
469,326,62109,1,2,0:0:0:0:
258,209,62273,2,0,P|192:194|209:136,1,145.000004425049,2|0,1:0|0:0,0:0:0:0:
473,191,62601,1,8,1:0:0:0:
301,12,62765,1,0,3:2:0:0:
301,12,62847,1,0,3:0:0:0:
301,12,62929,37,0,1:0:0:0:
351,287,63093,1,2,0:0:0:0:
402,66,63257,1,8,1:0:0:0:
210,135,63421,1,2,0:0:0:0:
332,163,63585,2,0,P|401:182|473:191,1,145.000004425049,2|0,1:0|0:0,0:0:0:0:
277,384,63912,2,0,P|346:362|418:354,1,145.000004425049,10|0,1:0|3:0,0:0:0:0:
466,348,64158,1,0,3:0:0:0:
466,348,64240,6,0,P|467:295|374:298,1,145.000004425049,0|0,1:0|0:0,0:0:0:0:
161,356,64568,1,8,1:0:0:0:
216,82,64732,1,2,0:0:0:0:
233,324,64896,2,0,P|169:335|164:271,1,145.000004425049,2|0,1:0|0:0,0:0:0:0:
216,82,65224,1,8,1:0:0:0:
24,85,65388,38,0,P|52:151|67:222,1,145.000004425049,2|0,0:1|1:0,0:0:0:0:
372,132,65716,2,0,P|372:199|307:213,1,145.000004425049,2|8,0:1|1:0,0:0:0:0:
216,82,66044,1,2,0:2:0:0:
427,11,66208,5,2,1:0:0:0:
169,197,66371,1,2,0:0:0:0:
482,208,66535,1,8,1:0:0:0:
512,254,66617,1,2,3:2:0:0:
510,309,66699,1,2,3:2:0:0:
468,345,66781,1,2,3:2:0:0:
414,358,66863,38,0,B|363:354|345:326|359:324|340:295|291:291,1,145.000004425049,4|0,1:0|3:2,0:0:0:0:
291,291,67109,1,0,3:0:0:0:
291,291,67191,1,8,1:0:0:0:
99,321,67355,2,0,P|110:353|143:364,1,72.5000022125245,2|0,0:2|0:0,0:0:0:0:
338,210,67519,2,0,P|332:142|267:124,1,145.000004425049,2|0,1:0|0:0,0:0:0:0:
184,285,67847,1,8,1:0:0:0:
429,199,68011,1,0,3:0:0:0:
429,199,68093,1,0,3:0:0:0:
429,199,68175,6,0,P|433:234|410:260,1,72.5000022125245,2|0,1:2|0:0,0:0:0:0:
188,119,68339,1,2,3:2:0:0:
203,66,68421,1,2,3:2:0:0:
252,42,68503,1,8,1:0:0:0:
481,82,68667,1,0,3:2:0:0:
481,82,68749,1,0,3:2:0:0:
481,82,68830,2,0,P|411:102|340:118,1,145.000004425049,2|0,1:0|0:0,0:0:0:0:
303,292,69158,1,10,1:0:0:0:
252,42,69322,1,2,1:2:0:0:
64,206,69486,38,0,P|87:267|150:249,1,145.000004425049,4|0,1:0|3:0,0:0:0:0:
150,247,69732,1,0,3:0:0:0:
150,247,69814,1,8,1:0:0:0:
106,10,69978,1,2,3:2:0:0:
106,10,70060,1,2,3:2:0:0:
106,10,70142,2,0,P|130:81|142:150,1,145.000004425049,2|0,1:0|0:0,0:0:0:0:
360,212,70470,1,8,1:0:0:0:
82,293,70634,6,0,P|63:356|125:375,1,145.000004425049,2|0,0:1|1:0,0:0:0:0:
367,219,70962,1,2,3:1:0:0:
367,219,71044,1,0,3:0:0:0:
367,219,71126,1,8,1:0:0:0:
206,322,71289,1,2,0:2:0:0:
314,382,71453,2,0,P|293:312|277:241,1,145.000004425049,2|0,1:0|0:0,0:0:0:0:
456,14,71781,1,8,1:0:0:0:
488,59,71863,1,2,3:2:0:0:
480,113,71945,1,2,3:2:0:0:
433,142,72027,1,2,3:2:0:0:
379,129,72109,37,2,1:3:0:0:
256,32,72273,1,6,3:3:0:0:
0,117,72437,6,0,B|51:121|69:149|55:151|74:180|123:184,1,145.000004425049,12|0,1:0|3:0,0:0:0:0:
129,190,72683,1,0,3:0:0:0:
129,190,72765,2,0,P|240:172|297:167,1,145.000004425049,2|0,1:0|0:0,0:0:0:0:
368,286,73093,1,8,1:0:0:0:
153,48,73257,1,0,1:0:0:0:
153,48,73339,1,0,1:0:0:0:
153,48,73421,38,0,P|129:73|135:108,1,72.5000022125245,2|0,1:2|0:0,0:0:0:0:
242,267,73585,1,2,3:2:0:0:
229,320,73667,1,2,3:2:0:0:
179,341,73749,1,8,1:0:0:0:
14,231,73912,1,2,3:2:0:0:
14,231,73994,1,2,3:2:0:0:
14,231,74076,2,0,P|91:243|174:264,1,145.000004425049,2|0,1:0|0:0,0:0:0:0:
247,108,74404,1,10,1:0:0:0:
85,330,74568,1,0,1:0:0:0:
404,290,74732,5,2,1:2:0:0:
169,183,74896,1,0,1:0:0:0:
169,183,74978,1,0,1:0:0:0:
169,183,75060,1,8,1:0:0:0:
413,71,75224,1,0,1:0:0:0:
413,71,75306,1,0,1:0:0:0:
413,71,75388,1,2,1:0:0:0:
75,133,75552,1,0,1:0:0:0:
335,342,75716,1,10,1:0:0:0:
267,0,75880,1,0,1:0:0:0:
66,255,76044,37,2,1:2:0:0:
95,252,76126,1,0,3:0:0:0:
124,249,76208,1,0,3:0:0:0:
153,246,76289,1,0,3:0:0:0:
177,203,76371,1,2,1:2:0:0:
211,240,76453,1,0,3:0:0:0:
240,237,76535,1,0,3:0:0:0:
269,234,76617,1,0,3:0:0:0:
293,190,76699,1,2,1:2:0:0:
327,226,76781,1,0,3:0:0:0:
356,222,76863,1,0,3:0:0:0:
385,219,76945,1,0,3:0:0:0:
414,218,77027,6,2,B|510:313|510:313|488:302|451:291|451:291|447:255|411:221,1,262.500002503395,2|0,0:3|0:0,0:1:0:0:
364,298,77355,37,4,1:0:0:0:
230,158,77519,1,2,0:0:0:0:
367,301,77683,1,8,1:0:0:0:
512,165,77847,2,0,P|510:103|480:44,1,125,2|0,0:0|1:0,0:0:0:0:
227,161,78175,2,0,P|274:200|336:202,1,125,2|8,0:0|1:0,0:0:0:0:
405,0,78503,2,0,P|347:21|322:76,1,125,2|0,0:0|1:0,0:0:0:0:
45,85,78830,2,0,P|54:142|112:156,1,125,2|8,0:0|1:0,0:0:0:0:
292,370,79158,2,0,P|307:314|253:293,1,125,2|0,0:0|1:0,0:0:0:0:
66,290,79486,6,0,P|28:367|84:301,2,250,2|2|2,0:0|0:0|0:0,0:0:0:0:
179,369,80306,1,8,1:0:0:0:
419,315,80470,2,0,P|460:292|437:333,1,125,2|0,0:0|1:0,0:0:0:0:
254,292,80798,2,0,P|204:263|224:209,1,125,2|8,0:0|1:0,0:0:0:0:
370,199,81126,2,0,P|436:132|397:47,1,200,2|0,0:1|1:0,0:0:0:0:
292,0,81617,1,8,1:0:0:0:
223,56,81781,2,0,P|111:46|0:35,1,225.000008583069,2|8,1:0|1:0,0:0:0:0:
167,160,82601,37,0,1:0:0:0:
139,339,82765,1,2,0:0:0:0:
169,155,82929,1,8,1:0:0:0:
314,265,83093,2,0,P|339:322|350:383,1,125,2|0,0:0|1:0,0:0:0:0:
136,336,83421,2,0,P|161:280|212:246,1,125,2|8,0:0|1:0,0:0:0:0:
512,212,83749,2,0,P|472:256|412:247,1,125,2|0,0:0|1:0,0:0:0:0:
129,126,84076,2,0,P|185:107|225:151,1,125,2|8,0:0|1:0,0:0:0:0:
428,53,84404,2,0,P|474:84|447:135,1,125,2|0,0:0|1:0,0:0:0:0:
319,360,84732,2,0,P|266:370|265:315,1,125,2|8,0:0|1:0,0:0:0:0:
351,127,85060,1,2,0:0:0:0:
347,271,85224,5,0,1:2:0:0:
273,44,85388,1,2,0:0:0:0:
344,274,85552,1,8,1:0:0:0:
208,0,85716,38,0,P|143:22|133:73,1,125,2|0,0:2|1:0,0:0:0:0:
350,274,86044,2,0,P|397:253|355:206,1,125,2|8,0:0|1:0,0:0:0:0:
104,225,86371,2,0,P|61:214|96:241,1,125,2|0,0:1|1:0,0:0:0:0:
354,92,86699,2,0,P|383:60|350:85,1,125,2|8,0:1|1:0,0:0:0:0:
260,371,87027,2,0,P|235:185|207:0,1,375,2|8,0:1|1:0,0:0:0:0:
162,239,87847,5,2,1:0:0:0:
347,166,88011,1,2,3:2:0:0:
358,170,88093,1,0,3:0:0:0:
360,182,88175,1,8,1:0:0:0:
408,362,88339,2,0,P|346:366|276:349,1,125,2|0,0:0|1:0,0:0:0:0:
70,321,88667,2,0,P|128:339|186:320,1,125,2|8,0:0|1:0,0:0:0:0:
450,202,88995,2,0,P|422:255|364:273,1,125,2|0,0:0|1:0,0:0:0:0:
67,141,89322,2,0,P|58:197|110:227,1,125,2|8,0:2|1:0,0:0:0:0:
413,56,89650,2,0,P|391:2|336:16,1,125,2|0,0:2|1:0,0:0:0:0:
144,118,89978,1,2,3:2:0:0:
151,153,90060,1,0,3:0:0:0:
181,176,90142,1,8,1:0:0:0:
366,149,90306,1,8,1:0:0:0:
246,288,90470,37,0,1:0:0:0:
336,16,90634,1,2,3:2:0:0:
323,44,90716,1,0,3:2:0:0:
294,56,90798,1,8,1:0:0:0:
58,79,90962,2,0,P|34:38|77:59,1,125,2|0,0:0|1:0,0:0:0:0:
249,137,91289,2,0,P|269:189|217:210,1,125,2|8,0:0|1:0,0:0:0:0:
69,256,91617,1,0,3:0:0:0:
62,252,91699,1,0,3:0:0:0:
56,257,91781,6,0,P|44:319|111:350,1,125,2|0,1:0|0:0,0:0:0:0:
224,381,92109,2,0,P|266:358|277:310,1,100,2|0,1:1|0:0,0:0:0:0:
368,269,92437,2,0,P|441:282|511:310,1,150.000005722046,2|8,1:0|0:1,0:0:0:0:
452,373,92929,1,8,1:0:0:0:
354,149,93093,37,6,1:0:0:0:
192,260,93257,1,0,1:0:0:0:
200,98,93421,2,0,P|218:123|244:140,1,62.5,8|0,1:0|0:0,0:0:0:0:
276,307,93585,2,0,P|289:279|291:248,1,62.5,2|0,3:2|0:0,0:0:0:0:
357,152,93749,1,0,1:0:0:0:
377,165,93830,1,0,3:0:0:0:
400,161,93913,2,0,P|453:95|422:38,1,125,0|8,3:2|1:0,0:0:0:0:
106,248,94240,1,2,3:2:0:0:
105,261,94322,1,0,3:0:0:0:
95,269,94404,6,0,P|38:252|30:194,1,125,0|0,1:0|3:0,0:0:0:0:
30,195,94650,1,0,3:0:0:0:
30,195,94732,1,8,1:0:0:0:
331,0,94896,2,0,P|354:19|354:50,1,62.5,2|0,0:2|0:0,0:0:0:0:
306,172,95060,2,0,P|275:163|245:155,1,62.5,2|0,1:2|0:0,0:0:0:0:
134,44,95224,1,0,3:0:0:0:
98,72,95306,1,0,3:0:0:0:
108,115,95388,1,8,1:0:0:0:
289,272,95552,1,8,1:0:0:0:
274,57,95716,37,4,1:0:0:0:
172,302,95880,1,2,0:0:0:0:
271,60,96044,1,8,1:0:0:0:
124,369,96208,6,0,P|70:363|108:307,1,125,2|0,0:0|1:0,0:0:0:0:
406,180,96536,2,0,P|441:146|393:151,1,125,2|8,0:0|1:0,0:0:0:0:
26,206,96863,2,0,P|10:222|31:213,1,62.5,2|0,0:0|0:0,0:0:0:0:
97,168,97027,37,0,1:0:0:0:
152,166,97109,1,0,1:0:0:0:
204,185,97191,1,0,1:0:0:0:
247,222,97273,1,0,1:0:0:0:
267,272,97355,1,0,1:0:0:0:
310,309,97437,1,0,1:0:0:0:
361,332,97519,1,0,1:0:0:0:
417,333,97601,1,0,1:0:0:0:
468,309,97683,1,0,1:0:0:0:
485,281,97765,1,0,1:0:0:0:
478,259,97847,1,0,1:0:0:0:
467,252,97929,1,0,1:0:0:0:
459,252,98011,5,8,1:0:0:0:
281,378,98175,1,8,1:0:0:0:
204,113,98339,1,4,0:0:0:0:
