osu file format v14

[General]
AudioFilename: audio.mp3
AudioLeadIn: 0
PreviewTime: 55060
Countdown: 0
SampleSet: Soft
StackLeniency: 0.1
Mode: 0
LetterboxInBreaks: 0
WidescreenStoryboard: 1

[Editor]
Bookmarks: 1617,11781,22273,24896,35388,45880,56371,57355,66863,77355,87847,98339
DistanceSpacing: 0.8
BeatDivisor: 4
GridSize: 16
TimelineZoom: 2.3

[Metadata]
Title:Mind Mapping (kors k mix)
TitleUnicode:Mind Mapping (kors k mix)
Artist:Ryu*
ArtistUnicode:Ryu☆
Creator:AJT
Version:Yokes' HIDDEN EXPERT
Source:REFLEC BEAT limelight
Tags:electronic instrumental video game electro-tech + plus konami music pack 17 bemani beatmania IIDX 16 EMPRESS starmine cyber beatnation 2 -Hi Speed conclusion- wring pocket- yf_bmp wyrio Down Frey Dada Aranel YokesPai Niva Nivalis verychill CallieCube Allice ObamaCube Smokebloke
BeatmapID:3996029
BeatmapSetID:1774369

[Difficulty]
HPDrainRate:6
CircleSize:6
OverallDifficulty:7.5
ApproachRate:7.5
SliderMultiplier:2
SliderTickRate:1

[Events]
//Background and Video events
0,0,"bg.jpg",0,0
//Break Periods
//Storyboard Layer 0 (Background)
//Storyboard Layer 1 (Fail)
//Storyboard Layer 2 (Pass)
//Storyboard Layer 3 (Foreground)
//Storyboard Layer 4 (Overlay)
//Storyboard Sound Samples

[TimingPoints]
1290,327.868852459016,4,2,0,70,1,0
24896,-166.666666666667,4,2,0,50,0,0
35388,-100,4,2,0,60,0,0
40634,-100,4,2,0,70,0,0
51126,-100,4,2,0,70,0,0
52437,-100,4,2,0,75,0,0
53749,-100,4,2,0,80,0,0
55060,-100,4,2,0,70,0,0
56044,-500,4,2,0,70,0,0
56126,-100,4,2,0,5,0,0
56371,-83.3333333333333,4,2,0,85,0,1
77027,-500,4,2,0,85,0,0
77109,-83.3333333333333,4,2,0,5,0,0
77355,-83.3333333333333,4,2,0,85,0,1
98339,-83.3333333333333,4,2,0,85,0,0

[Colours]
Combo1 : 81,81,255
Combo2 : 111,183,255
Combo3 : 0,126,253
Combo4 : 145,145,255

[HitObjects]
0,46,1290,5,4,1:0:0:0:
32,95,1453,1,2,0:0:0:0:
88,79,1617,1,8,1:0:0:0:
32,95,1780,1,2,0:0:0:0:
35,0,2027,1,2,0:0:0:0:
63,11,2109,1,2,0:0:0:0:
91,21,2191,1,2,0:0:0:0:
32,95,2437,1,2,0:0:0:0:
147,5,2601,5,0,1:0:0:0:
179,53,2765,1,2,0:0:0:0:
161,76,2847,1,2,0:0:0:0:
143,98,2929,1,8,1:0:0:0:
88,79,3093,1,2,0:0:0:0:
234,72,3257,5,0,1:0:0:0:
52,124,3421,1,2,0:0:0:0:
198,117,3585,1,8,1:0:0:0:
107,143,3749,1,2,0:0:0:0:
103,237,3912,5,0,1:0:0:0:
71,188,4076,1,2,0:0:0:0:
15,204,4240,1,8,1:0:0:0:
71,188,4404,1,2,0:0:0:0:
67,283,4650,1,2,0:0:0:0:
40,273,4732,1,2,0:0:0:0:
13,263,4814,1,2,0:0:0:0:
71,188,5060,1,2,0:0:0:0:
71,188,5224,1,0,1:0:0:0:
99,331,5388,6,0,L|208:313,1,100,2|8,0:0|1:0,0:0:0:0:
256,331,5716,1,2,0:0:0:0:
227,260,5880,1,0,1:0:0:0:
290,205,6044,1,2,0:0:0:0:
368,253,6208,1,8,1:0:0:0:
342,357,6371,1,2,0:0:0:0:
368,253,6535,5,0,1:0:0:0:
393,315,6699,1,2,0:0:0:0:
368,253,6863,1,8,1:0:0:0:
419,210,7027,1,2,0:0:0:0:
460,311,7273,1,2,0:0:0:0:
467,278,7355,1,2,0:0:0:0:
475,245,7437,1,2,0:0:0:0:
393,315,7683,1,2,0:0:0:0:
393,148,7847,5,0,1:0:0:0:
326,152,8011,1,2,0:0:0:0:
319,185,8093,1,2,0:0:0:0:
312,218,8175,1,8,1:0:0:0:
368,253,8339,1,2,0:0:0:0:
270,117,8503,5,0,1:0:0:0:
354,319,8667,1,2,0:0:0:0:
256,183,8830,1,8,1:0:0:0:
298,284,8994,1,2,0:0:0:0:
191,291,9158,5,0,1:0:0:0:
247,326,9322,1,2,0:0:0:0:
191,291,9486,1,8,1:0:0:0:
206,226,9650,1,2,0:0:0:0:
298,284,9896,1,2,0:0:0:0:
284,252,9978,1,2,0:0:0:0:
271,221,10060,1,2,0:0:0:0:
284,252,10142,1,8,1:0:0:0:
247,326,10306,1,2,0:0:0:0:
191,291,10470,5,0,1:0:0:0:
206,226,10634,1,2,0:0:0:0:
142,187,10798,1,8,1:0:0:0:
80,238,10962,1,2,0:0:0:0:
113,317,11126,1,4,1:0:0:0:
76,231,11289,1,2,0:0:0:0:
158,163,11453,1,8,1:0:0:0:
257,223,11617,1,6,0:0:0:0:
230,340,11781,6,0,L|337:340,1,100,4|2,1:0|0:0,0:0:0:0:
487,231,12109,2,0,L|380:231,1,100,8|2,1:0|0:0,0:0:0:0:
185,105,12437,2,0,L|292:105,1,100,0|2,1:0|0:0,0:0:0:0:
512,0,12765,1,8,1:0:0:0:
512,0,12929,1,2,0:0:0:0:
487,231,13093,6,0,L|487:338,1,100,0|2,1:0|0:0,0:0:0:0:
343,368,13339,1,2,0:0:0:0:
343,368,13421,2,0,L|343:261,1,100,8|2,1:0|0:0,0:0:0:0:
189,175,13749,2,0,L|189:282,1,100,0|2,1:0|0:0,0:0:0:0:
0,384,14077,1,8,1:0:0:0:
0,384,14241,1,0,1:0:0:0:
282,340,14404,6,0,L|175:340,1,100,0|2,1:0|0:0,0:0:0:0:
25,231,14732,2,0,L|132:231,1,100,8|2,1:0|0:0,0:0:0:0:
327,105,15060,2,0,L|220:105,1,100,0|2,1:0|1:2,0:0:0:0:
8,19,15388,1,8,1:0:0:0:
8,19,15552,1,2,0:0:0:0:
25,231,15716,6,0,L|25:338,1,100,0|2,1:0|0:0,0:0:0:0:
169,368,16044,2,0,L|169:261,1,100,8|0,1:0|1:0,0:0:0:0:
323,175,16372,2,0,L|323:282,1,100,0|2,1:0|0:0,0:0:0:0:
512,384,16699,1,8,1:0:0:0:
512,384,16781,1,0,1:0:0:0:
512,384,16863,1,2,1:2:0:0:
512,384,16945,1,2,1:2:0:0:
512,384,17027,5,4,1:0:0:0:
485,316,17191,1,2,0:0:0:0:
411,320,17355,1,8,1:0:0:0:
384,252,17519,1,2,0:0:0:0:
441,205,17683,1,0,1:0:0:0:
472,225,17765,1,2,0:0:0:0:
503,244,17847,1,2,0:0:0:0:
494,280,17929,1,2,0:0:0:0:
485,316,18011,1,12,1:0:0:0:
494,280,18093,1,2,0:0:0:0:
503,244,18175,1,2,0:0:0:0:
472,225,18257,1,2,0:0:0:0:
441,205,18339,1,0,1:0:0:0:
384,252,18503,1,2,0:0:0:0:
321,212,18667,1,8,1:0:0:0:
339,140,18830,1,2,0:0:0:0:
413,135,18994,1,0,1:0:0:0:
427,170,19076,1,2,0:0:0:0:
441,205,19158,1,2,0:0:0:0:
413,229,19240,1,2,0:0:0:0:
384,252,19322,1,12,1:0:0:0:
413,229,19404,1,2,0:0:0:0:
441,205,19486,1,2,0:0:0:0:
427,170,19568,1,2,0:0:0:0:
413,135,19650,1,4,1:0:0:0:
339,140,19814,1,0,3:0:0:0:
265,145,19978,1,8,1:0:0:0:
191,150,20142,1,0,3:0:0:0:
117,155,20306,1,4,1:0:0:0:
80,157,20388,1,0,3:0:0:0:
43,160,20470,1,0,3:0:0:0:
80,157,20552,1,0,3:0:0:0:
117,155,20634,1,8,1:0:0:0:
191,150,20798,1,0,1:0:0:0:
191,150,20962,5,2,1:2:0:0:
252,146,21126,1,0,0:0:0:0:
276,208,21289,1,2,0:0:0:0:
219,254,21453,1,0,0:0:0:0:
151,211,21617,1,2,0:0:0:0:
172,127,21781,1,2,0:0:0:0:
263,120,21945,2,0,B|281:126|281:126|291:169,1,50,2|0,0:3|0:0,0:0:0:0:
301,216,22109,1,2,0:0:0:0:
216,286,22273,5,4,1:0:0:0:
216,286,24896,6,0,L|276:282,1,59.9999981689454,2|0,1:2|0:0,0:0:0:0:
281,344,25224,2,0,L|221:348,1,59.9999981689454,2|0,0:0|0:0,0:0:0:0:
270,220,25552,2,0,L|330:216,1,59.9999981689454,2|0,0:0|0:0,0:0:0:0:
335,278,25880,2,0,L|275:282,1,59.9999981689454,2|0,0:0|0:0,0:0:0:0:
448,145,26208,2,0,L|452:205,1,59.9999981689454,2|2,0:0|0:0,0:0:0:0:
329,216,26536,2,0,L|325:156,1,59.9999981689454,2|0,0:0|0:0,0:0:0:0:
387,151,26863,2,0,L|391:211,1,59.9999981689454,2|0,0:0|0:0,0:0:0:0:
329,216,27191,2,0,L|325:156,1,59.9999981689454,2|0,0:0|0:0,0:0:0:0:
443,82,27519,6,0,L|503:78,1,59.9999981689454,2|0,0:0|0:0,0:0:0:0:
498,16,27847,2,0,L|438:20,1,59.9999981689454,2|0,0:0|0:0,0:0:0:0:
323,88,28175,2,0,L|383:84,1,59.9999981689454,2|2,0:0|0:0,0:0:0:0:
378,22,28503,2,0,L|318:26,1,59.9999981689454,2|0,0:0|0:0,0:0:0:0:
263,91,28830,2,0,L|259:31,1,59.9999981689454,2|2,0:0|0:0,0:0:0:0:
259,31,29158,2,0,L|263:91,1,59.9999981689454,2|0,0:0|0:0,0:0:0:0:
201,96,29486,2,0,L|197:36,1,59.9999981689454,2|2,0:0|0:0,0:0:0:0:
197,36,29814,2,0,L|201:96,1,59.9999981689454,2|0,0:0|0:0,0:0:0:0:
74,72,30142,6,0,L|134:76,1,59.9999981689454,2|0,0:0|0:0,0:0:0:0:
129,138,30470,2,0,L|69:134,1,59.9999981689454,2|0,0:0|0:0,0:0:0:0:
4,192,30798,2,0,L|64:196,1,59.9999981689454,2|0,0:0|0:0,0:0:0:0:
69,134,31126,2,0,L|9:130,1,59.9999981689454,2|0,0:0|0:0,0:0:0:0:
187,203,31453,2,0,L|191:143,1,59.9999981689454,2|2,0:0|0:0,0:0:0:0:
69,134,31781,2,0,L|65:194,1,59.9999981689454,2|0,0:0|0:0,0:0:0:0:
123,258,32109,2,0,L|127:198,1,59.9999981689454,2|0,0:0|0:0,0:0:0:0:
65,193,32437,2,0,L|61:253,1,59.9999981689454,2|0,0:0|0:0,0:0:0:0:
115,376,32765,6,0,L|119:316,1,59.9999981689454,2|0,0:0|0:0,0:0:0:0:
57,311,33093,2,0,L|53:371,1,59.9999981689454,2|0,0:0|0:0,0:0:0:0:
176,381,33421,2,0,L|180:321,1,59.9999981689454,2|0,0:0|0:0,0:0:0:0:
118,316,33749,2,0,L|114:376,1,59.9999981689454,2|0,0:0|0:0,0:0:0:0:
303,266,34076,2,0,L|243:262,1,59.9999981689454,2|2,0:0|0:0,0:0:0:0:
303,266,34404,2,0,L|243:262,1,59.9999981689454,2|2,0:0|0:0,0:0:0:0:
238,324,34732,2,0,L|298:328,1,59.9999981689454,2|2,0:0|0:0,0:0:0:0:
238,324,35060,1,2,0:0:0:0:
297,327,35224,1,2,0:0:0:0:
343,374,35388,5,4,1:0:0:0:
401,344,35552,1,2,0:0:0:0:
404,278,35716,1,8,1:0:0:0:
407,212,35880,1,2,0:0:0:0:
410,146,36044,1,0,1:0:0:0:
34,0,36371,5,8,1:0:0:0:
92,30,36535,1,2,0:0:0:0:
95,96,36699,1,0,1:0:0:0:
98,162,36863,1,2,0:0:0:0:
101,228,37027,1,8,1:0:0:0:
98,162,37191,1,2,0:0:0:0:
95,96,37355,1,0,1:0:0:0:
92,30,37683,1,8,1:0:0:0:
494,18,38011,5,0,1:0:0:0:
464,76,38175,1,2,0:0:0:0:
398,79,38339,1,8,1:0:0:0:
332,82,38503,1,2,0:0:0:0:
266,85,38667,1,0,1:0:0:0:
8,296,38994,5,8,1:0:0:0:
38,354,39158,1,2,0:0:0:0:
104,357,39486,1,2,0:0:0:0:
170,360,39814,1,2,0:0:0:0:
236,363,39978,1,0,1:0:0:0:
505,251,40306,5,8,1:0:0:0:
476,266,40388,1,2,0:0:0:0:
474,299,40470,1,2,0:0:0:0:
473,332,40552,1,2,0:0:0:0:
471,365,40634,1,0,1:0:0:0:
416,328,40798,1,0,1:0:0:0:
419,262,40962,1,8,1:0:0:0:
422,196,41126,1,0,1:0:0:0:
425,130,41290,1,0,1:0:0:0:
425,130,41453,1,0,1:0:0:0:
275,13,41617,5,8,1:0:0:0:
220,50,41781,1,0,1:0:0:0:
223,116,41945,1,0,1:0:0:0:
226,182,42109,1,0,1:0:0:0:
229,248,42273,1,8,1:0:0:0:
226,182,42437,1,0,1:0:0:0:
223,116,42601,1,0,1:0:0:0:
223,116,42765,1,0,1:0:0:0:
220,50,42929,1,8,1:0:0:0:
220,50,43093,1,0,1:0:0:0:
0,300,43257,5,0,1:0:0:0:
37,245,43421,1,0,1:0:0:0:
103,248,43585,1,8,1:0:0:0:
169,251,43749,1,0,1:0:0:0:
235,254,43913,1,0,1:0:0:0:
235,254,44076,1,0,1:0:0:0:
508,242,44240,5,8,1:0:0:0:
471,187,44404,1,0,1:0:0:0:
471,187,44568,1,0,1:0:0:0:
405,190,44732,1,2,1:2:0:0:
405,190,44896,1,8,1:0:0:0:
339,193,45060,1,2,1:2:0:0:
339,193,45224,1,0,1:0:0:0:
273,196,45388,1,2,1:2:0:0:
339,193,45552,1,8,1:0:0:0:
405,190,45716,1,2,1:2:0:0:
471,187,45880,5,4,1:0:0:0:
224,153,46044,2,0,B|207:166|207:166|213:268,1,100,2|0,0:0|0:0,0:0:0:0:
288,231,46371,2,0,B|305:218|305:218|299:116,1,100,2|0,0:0|0:0,0:0:0:0:
161,123,46699,2,0,B|144:136|144:136|150:238,1,100,2|0,0:0|0:0,0:0:0:0:
351,261,47027,2,0,B|368:248|368:248|362:146,1,100,2|0,0:0|0:0,0:0:0:0:
98,93,47355,2,0,B|81:106|81:106|87:208,1,100,2|0,0:0|0:0,0:0:0:0:
414,291,47683,2,0,B|431:278|431:278|425:176,1,100,2|0,0:0|0:0,0:0:0:0:
35,63,48011,2,0,B|18:76|18:76|24:178,1,100,2|0,0:0|0:0,0:0:0:0:
477,321,48339,2,0,B|494:308|494:308|488:206,2,100,2|0|0,0:0|1:0|0:0,0:0:0:0:
22,154,48830,2,0,B|18:76|18:76|35:63,1,100,0|0,1:0|0:0,0:0:0:0:
426,199,49158,2,0,B|431:278|431:278|414:291,1,100,0|0,1:0|0:0,0:0:0:0:
85,184,49486,2,0,B|81:106|81:106|98:93,1,100,0|0,1:0|0:0,0:0:0:0:
363,169,49814,2,0,B|368:248|368:248|351:261,1,100,0|0,1:0|0:0,0:0:0:0:
148,214,50142,2,0,B|144:136|144:136|161:123,1,100,0|0,1:0|0:0,0:0:0:0:
300,139,50470,2,0,B|305:218|305:218|288:231,1,100,0|0,1:0|0:0,0:0:0:0:
211,244,50797,2,0,B|207:166|207:166|224:153,1,100,0|0,1:0|0:0,0:0:0:0:
356,108,51126,6,0,L|410:119,1,50,4|0,1:0|1:0,0:0:0:0:
454,127,51289,2,0,L|406:118,1,50,0|0,1:0|1:0,0:0:0:0:
422,33,51453,2,0,L|388:70,1,50,0|0,1:0|1:0,0:0:0:0:
356,108,51617,2,0,L|388:70,1,50,0|0,1:0|1:0,0:0:0:0:
477,67,51781,1,0,1:0:0:0:
477,67,51945,1,0,1:0:0:0:
300,139,52109,1,0,1:0:0:0:
300,139,52273,1,0,1:0:0:0:
156,108,52437,6,0,L|102:119,1,50,4|0,1:0|1:0,0:0:0:0:
58,127,52600,2,0,L|106:118,1,50,0|0,1:0|1:0,0:0:0:0:
90,33,52764,2,0,L|124:70,1,50,0|0,1:0|1:0,0:0:0:0:
156,108,52928,2,0,L|123:70,1,50,0|0,1:0|1:0,0:0:0:0:
35,67,53092,1,0,1:0:0:0:
35,67,53256,1,0,1:0:0:0:
212,139,53420,1,0,1:0:0:0:
212,139,53584,1,0,1:0:0:0:
154,243,53749,5,4,1:0:0:0:
183,260,53830,1,0,1:0:0:0:
208,236,53912,1,0,1:0:0:0:
194,205,53994,1,0,1:0:0:0:
159,209,54076,1,4,1:0:0:0:
194,205,54158,1,0,1:0:0:0:
208,236,54240,1,0,1:0:0:0:
183,260,54322,1,0,1:0:0:0:
154,243,54403,1,4,1:0:0:0:
109,267,54486,1,0,1:0:0:0:
71,233,54568,1,0,1:0:0:0:
90,186,54650,1,0,1:0:0:0:
142,191,54732,1,4,1:0:0:0:
90,186,54814,1,0,1:0:0:0:
71,233,54896,1,0,1:0:0:0:
109,267,54978,1,0,1:0:0:0:
154,243,55061,5,2,0:0:0:0:
171,139,55224,1,2,0:0:0:0:
285,121,55388,1,2,0:0:0:0:
341,233,55552,1,2,0:0:0:0:
243,329,55716,1,2,0:0:0:0:
111,261,55880,1,2,0:0:0:0:
136,105,56044,2,0,L|136:134,1,30,2|0,0:3|0:0,0:0:0:0:
132,98,56371,5,4,1:0:0:0:
210,86,56535,1,2,0:0:0:0:
288,74,56699,1,8,1:0:0:0:
366,62,56863,1,2,0:0:0:0:
444,50,57027,2,0,L|432:188,1,119.999996337891,2|0,1:0|0:0,0:0:0:0:
390,329,57355,5,8,1:0:0:0:
312,317,57519,1,2,0:0:0:0:
156,293,57683,1,0,1:0:0:0:
234,305,57847,1,2,0:0:0:0:
156,293,58011,1,8,1:0:0:0:
78,281,58175,1,2,0:0:0:0:
234,305,58339,1,2,1:0:0:0:
213,0,58667,1,10,1:0:0:0:
439,377,58994,5,0,1:0:0:0:
451,299,59158,1,2,0:0:0:0:
463,221,59322,1,8,1:0:0:0:
475,143,59486,1,2,0:0:0:0:
487,65,59650,2,0,L|349:77,1,119.999996337891,2|0,1:0|0:0,0:0:0:0:
153,36,59978,5,10,1:0:0:0:
189,270,60142,1,2,0:0:0:0:
177,192,60470,1,2,0:1:0:0:
165,114,60798,1,2,0:1:0:0:
201,348,60962,2,0,L|63:336,1,119.999996337891,2|0,1:0|0:0,0:0:0:0:
13,138,61289,5,8,1:0:0:0:
52,132,61371,1,2,0:0:0:0:
91,126,61453,1,2,0:0:0:0:
52,132,61535,1,2,0:0:0:0:
13,138,61617,1,0,1:0:0:0:
1,216,61781,1,2,0:0:0:0:
71,251,61945,1,8,1:0:0:0:
126,194,62109,1,2,0:0:0:0:
91,126,62273,2,0,B|50:123|50:123|13:138|13:138|82:128,1,119.999996337891,2|0,1:0|0:0,0:0:0:0:
327,70,62601,5,8,1:0:0:0:
400,101,62765,1,2,0:0:0:0:
315,197,62929,1,0,1:0:0:0:
393,180,63093,1,0,3:0:0:0:
315,197,63257,1,8,1:0:0:0:
274,129,63421,1,2,0:0:0:0:
393,180,63585,1,2,1:0:0:0:
202,11,63912,1,10,1:0:0:0:
163,366,64240,5,0,1:0:0:0:
151,288,64404,1,2,0:0:0:0:
221,253,64568,1,8,1:0:0:0:
276,310,64732,1,2,0:0:0:0:
241,378,64896,2,0,B|200:381|200:381|163:366|163:366|232:376,1,119.999996337891,2|0,1:0|0:0,0:0:0:0:
413,312,65224,5,10,1:0:0:0:
479,202,65388,1,2,0:0:0:0:
401,185,65716,1,2,0:1:0:0:
360,253,66044,1,2,0:1:0:0:
486,281,66208,1,2,1:0:0:0:
486,281,66372,1,2,0:0:0:0:
398,229,66535,5,10,1:0:0:0:
435,213,66617,1,2,0:0:0:0:
461,243,66699,1,2,0:0:0:0:
441,277,66781,1,2,0:0:0:0:
402,268,66863,1,4,1:0:0:0:
324,250,67027,1,2,0:0:0:0:
246,232,67191,1,12,1:0:0:0:
324,250,67355,1,2,0:0:0:0:
402,268,67519,2,0,L|388:139,1,119.999996337891,2|0,1:0|0:0,0:0:0:0:
144,72,67847,5,8,1:0:0:0:
66,90,68011,1,2,0:0:0:0:
222,54,68175,1,0,1:0:0:0:
144,72,68339,1,2,0:0:0:0:
66,90,68503,1,8,1:0:0:0:
144,72,68667,1,2,0:0:0:0:
222,54,68830,1,2,1:0:0:0:
268,384,69158,1,10,1:0:0:0:
498,106,69486,5,4,1:0:0:0:
480,184,69650,1,2,0:0:0:0:
462,262,69814,1,8,1:0:0:0:
480,184,69978,1,2,0:0:0:0:
498,106,70142,2,0,L|369:120,1,119.999996337891,2|0,1:0|0:0,0:0:0:0:
73,311,70470,5,10,1:0:0:0:
37,155,70634,1,2,0:0:0:0:
55,233,70962,1,2,0:1:0:0:
73,311,71289,1,2,0:1:0:0:
37,155,71453,2,0,L|166:169,1,119.999996337891,2|0,1:0|0:0,0:0:0:0:
442,198,71781,5,8,1:0:0:0:
403,194,71863,1,2,0:0:0:0:
387,229,71945,1,2,0:0:0:0:
403,194,72027,1,2,0:0:0:0:
442,198,72109,1,0,1:0:0:0:
495,279,72273,1,2,0:0:0:0:
371,264,72437,1,12,1:0:0:0:
479,203,72601,1,2,0:0:0:0:
427,316,72765,2,0,B|402:342|402:342|371:263,1,119.999996337891,2|0,1:0|0:0,0:0:0:0:
362,46,73093,5,8,1:0:0:0:
394,116,73257,1,8,1:0:0:0:
286,55,73421,1,0,1:0:0:0:
362,46,73585,1,2,0:0:0:0:
394,116,73749,1,8,1:0:0:0:
362,46,73912,1,2,0:0:0:0:
286,55,74076,1,2,1:0:0:0:
470,107,74404,1,10,1:0:0:0:
470,107,74568,1,0,1:0:0:0:
271,130,74732,5,0,1:0:0:0:
337,167,74896,1,0,1:0:0:0:
320,248,75060,1,8,1:0:0:0:
229,258,75224,1,0,1:0:0:0:
187,168,75388,1,2,1:0:0:0:
235,272,75552,1,0,1:0:0:0:
356,258,75716,1,10,1:0:0:0:
380,140,75880,1,0,1:0:0:0:
268,78,76044,5,2,1:0:0:0:
235,110,76126,1,0,1:0:0:0:
255,151,76208,1,0,1:0:0:0:
300,144,76289,1,0,1:0:0:0:
308,99,76371,1,10,1:0:0:0:
268,78,76453,1,0,1:0:0:0:
235,110,76535,1,0,1:0:0:0:
255,151,76617,1,0,1:0:0:0:
300,144,76698,1,2,1:0:0:0:
255,151,76781,1,0,1:0:0:0:
235,110,76863,1,0,1:0:0:0:
268,78,76945,1,0,1:0:0:0:
308,99,77027,2,0,L|302:134,1,30,2|0,0:3|0:0,0:0:0:0:
300,144,77355,5,4,1:0:0:0:
300,144,77519,1,2,0:0:0:0:
457,332,77683,1,8,1:0:0:0:
457,332,77847,2,0,L|442:204,1,119.999996337891,2|0,0:0|1:0,0:0:0:0:
215,234,78175,2,0,L|230:106,1,119.999996337891,2|8,0:0|1:0,0:0:0:0:
465,336,78503,2,0,L|450:208,1,119.999996337891,2|0,0:0|1:0,0:0:0:0:
207,236,78830,2,0,L|222:108,1,119.999996337891,2|8,0:0|1:0,0:0:0:0:
473,340,79158,2,0,L|458:212,1,119.999996337891,2|0,0:0|1:0,0:0:0:0:
199,238,79486,2,0,L|214:110,1,119.999996337891,2|8,0:0|1:0,0:0:0:0:
441,2,79814,2,0,L|468:240,1,239.999992675781,2|2,0:0|0:0,0:0:0:0:
142,167,80306,1,8,1:0:0:0:
30,366,80470,6,0,L|45:238,1,119.999996337891,2|0,0:0|1:0,0:0:0:0:
284,160,80798,2,0,L|269:32,1,119.999996337891,2|8,0:0|1:0,0:0:0:0:
22,370,81126,2,0,L|37:242,3,119.999996337891,2|0|0|10,0:0|1:0|1:0|1:0,0:0:0:0:
292,164,81781,2,0,L|277:36,4,119.999996337891,0|0|0|10|10,1:0|1:0|1:0|1:0|1:0,0:0:0:0:
351,191,82601,5,0,1:0:0:0:
351,191,82765,1,2,0:0:0:0:
63,9,82929,1,8,1:0:0:0:
63,9,83093,2,0,L|49:128,1,119.999996337891,2|0,0:0|1:0,0:0:0:0:
301,289,83421,2,0,L|287:169,1,119.999996337891,2|8,0:0|1:0,0:0:0:0:
56,7,83749,2,0,L|42:126,1,119.999996337891,2|0,0:0|1:0,0:0:0:0:
308,286,84076,2,0,L|294:167,1,119.999996337891,2|8,0:0|1:0,0:0:0:0:
49,5,84404,2,0,L|35:124,1,119.999996337891,2|0,0:0|1:0,0:0:0:0:
315,283,84732,2,0,L|301:164,1,119.999996337891,2|8,0:0|1:0,0:0:0:0:
251,123,85060,5,2,0:0:0:0:
251,123,85224,1,0,1:0:0:0:
494,249,85388,1,2,0:0:0:0:
494,249,85552,1,8,1:0:0:0:
176,368,85716,2,0,L|162:249,1,119.999996337891,2|0,0:0|1:0,0:0:0:0:
479,71,86044,2,0,L|465:190,1,119.999996337891,2|8,0:0|1:0,0:0:0:0:
169,370,86371,2,0,L|155:251,1,119.999996337891,2|0,0:0|1:0,0:0:0:0:
486,73,86699,2,0,L|472:192,1,119.999996337891,2|10,0:0|1:0,0:0:0:0:
162,372,87027,2,0,L|148:253,4,119.999996337891,2|0|2|10|8,0:0|1:0|0:0|1:0|1:0,0:0:0:0:
256,384,87847,5,2,1:0:0:0:
0,0,88175,1,10,1:0:0:0:
512,192,88503,1,0,1:0:0:0:
0,384,88830,1,8,1:0:0:0:
256,0,89158,1,0,1:0:0:0:
512,384,89486,1,8,1:0:0:0:
0,192,89814,1,0,1:0:0:0:
512,0,90142,1,8,1:0:0:0:
512,0,90306,1,8,1:0:0:0:
0,384,90470,5,0,1:0:0:0:
256,0,90798,1,8,1:0:0:0:
512,384,91126,1,0,1:0:0:0:
0,192,91453,1,8,1:0:0:0:
512,0,91781,1,0,1:0:0:0:
256,384,92109,1,4,1:0:0:0:
0,0,92437,1,0,1:0:0:0:
512,192,92765,1,14,0:1:0:0:
512,192,92929,1,8,1:0:0:0:
0,192,93093,5,6,1:0:0:0:
0,192,93257,1,0,1:0:0:0:
317,238,93421,1,14,1:0:0:0:
317,238,93585,2,0,L|329:108,1,119.999996337891,2|0,0:0|1:0,0:0:0:0:
61,238,93912,1,2,0:0:0:0:
61,238,94076,1,8,1:0:0:0:
400,59,94240,2,0,L|388:178,1,119.999996337891,2|0,0:0|1:0,0:0:0:0:
112,325,94568,2,0,L|123:205,1,119.999996337891,2|8,0:0|1:0,0:0:0:0:
465,29,94896,2,0,L|453:148,1,119.999996337891,2|0,0:0|1:0,0:0:0:0:
47,355,95224,2,0,L|58:235,1,119.999996337891,2|8,0:0|1:0,0:0:0:0:
256,0,95552,5,8,1:0:0:0:
256,0,95716,1,4,1:0:0:0:
88,175,95880,1,2,0:0:0:0:
88,175,96044,1,8,1:0:0:0:
191,367,96208,1,2,0:0:0:0:
191,367,96372,1,0,1:0:0:0:
382,332,96535,1,2,0:0:0:0:
382,332,96699,1,8,1:0:0:0:
405,163,96863,1,2,0:0:0:0:
405,163,97027,5,0,1:0:0:0:
374,125,97109,1,0,1:0:0:0:
328,142,97191,1,0,1:0:0:0:
330,190,97273,1,0,1:0:0:0:
377,204,97355,1,0,1:0:0:0:
340,193,97437,1,0,1:0:0:0:
339,154,97519,1,0,1:0:0:0:
375,141,97601,1,0,1:0:0:0:
399,172,97683,1,0,1:0:0:0:
380,148,97765,1,0,1:0:0:0:
351,158,97847,1,0,1:0:0:0:
352,188,97929,1,0,1:0:0:0:
381,197,98011,1,8,1:0:0:0:
256,192,98175,1,8,1:0:0:0:
131,187,98339,1,4,0:0:0:0:
