osu file format v14

[General]
AudioFilename: audio.mp3
AudioLeadIn: 0
PreviewTime: 55060
Countdown: 0
SampleSet: Soft
StackLeniency: 0.5
Mode: 0
LetterboxInBreaks: 0
WidescreenStoryboard: 1

[Editor]
Bookmarks: 11781
DistanceSpacing: 1.2
BeatDivisor: 2
GridSize: 16
TimelineZoom: 2.3

[Metadata]
Title:Mind Mapping (kors k mix)
TitleUnicode:Mind Mapping (kors k mix)
Artist:Ryu*
ArtistUnicode:Ryu☆
Creator:AJT
Version:MEDIUM
Source:REFLEC BEAT limelight
Tags:electronic instrumental video game electro-tech + plus konami music pack 17 bemani beatmania IIDX 16 EMPRESS starmine cyber beatnation 2 -Hi Speed conclusion- wring pocket- yf_bmp wyrio Down Frey Dada Aranel YokesPai Niva Nivalis verychill CallieCube Allice ObamaCube Smokebloke
BeatmapID:3988653
BeatmapSetID:1774369

[Difficulty]
HPDrainRate:2
CircleSize:3
OverallDifficulty:4
ApproachRate:5.5
SliderMultiplier:1.1
SliderTickRate:1

[Events]
//Background and Video events
0,0,"bg.jpg",0,0
//Break Periods
2,25096,34263
2,46080,47378
//Storyboard Layer 0 (Background)
//Storyboard Layer 1 (Fail)
//Storyboard Layer 2 (Pass)
//Storyboard Layer 3 (Foreground)
//Storyboard Layer 4 (Overlay)
//Storyboard Sound Samples

[TimingPoints]
1290,327.868852459016,4,2,0,70,1,0
24896,-100,4,2,0,50,0,0
35388,-100,4,2,0,60,0,0
40634,-100,4,2,0,70,0,0
48503,-100,4,2,0,70,0,0
51126,-100,4,2,0,70,0,0
52437,-100,4,2,0,75,0,0
53749,-100,4,2,0,80,0,0
55060,-100,4,2,0,70,0,0
56044,-100,4,2,0,70,0,0
56126,-100,4,2,0,5,0,0
56371,-90.9090909090909,4,2,0,85,0,1
77027,-90.9090909090909,4,2,0,85,0,0
77109,-90.9090909090909,4,2,0,5,0,0
77355,-90.9090909090909,4,2,0,85,0,1
98339,-90.9090909090909,4,2,0,85,0,0

[Colours]
Combo1 : 81,81,255
Combo2 : 111,183,255
Combo3 : 0,126,253
Combo4 : 145,145,255

[HitObjects]
64,192,1290,6,0,L|1:204,2,55,4|2|8,1:0|0:0|1:0,0:0:0:0:
100,150,1781,1,2,0:0:0:0:
200,63,2109,1,2,0:0:0:0:
322,111,2437,1,2,0:0:0:0:
440,53,2765,2,0,L|428:-10,2,55,2|8|2,0:0|1:0|0:0,0:0:0:0:
486,82,3257,2,0,L|474:145,1,55,0|2,1:0|0:0,0:0:0:0:
499,185,3585,1,8,1:0:0:0:
456,309,3912,6,0,L|519:297,2,55,0|2|8,1:0|0:0|1:0,0:0:0:0:
402,321,4403,1,2,0:0:0:0:
303,233,4731,1,2,0:0:0:0:
325,102,5059,1,2,0:0:0:0:
226,13,5388,1,2,0:0:0:0:
94,27,5716,2,0,P|65:38|42:57,1,55,2|0,0:0|1:0,0:0:0:0:
35,106,6044,1,2,0:0:0:0:
35,106,6208,2,0,P|46:135|65:158,1,55,8|2,1:0|0:0,0:0:0:0:
106,184,6535,6,0,P|117:213|124:249,1,55,0|2,1:0|0:0,0:0:0:0:
76,267,6863,2,0,P|65:296|58:332,1,55,8|2,1:0|0:0,0:0:0:0:
184,364,7355,2,0,L|305:352,1,110,2|2,0:0|0:0,0:0:0:0:
419,305,8011,1,2,0:0:0:0:
419,305,8175,2,0,P|408:276|389:253,1,55,8|0,1:0|0:0,0:0:0:0:
353,218,8503,1,0,1:0:0:0:
437,117,8830,2,0,P|426:88|407:65,1,55,8|2,1:0|0:0,0:0:0:0:
396,15,9158,6,0,L|331:25,1,55,0|2,1:0|0:0,0:0:0:0:
299,58,9486,2,0,L|234:48,1,55,8|2,1:0|0:0,0:0:0:0:
146,138,9978,1,2,0:0:0:0:
146,138,10142,2,0,L|156:203,1,55,8|2,1:0|0:0,0:0:0:0:
121,249,10470,2,0,B|130:296|130:296|177:286|177:286|168:239|168:239|215:230|215:230|224:277|224:277|271:268|271:268|262:221|262:221|309:212|309:212|321:275,1,440,0|4,1:0|1:0,0:0:0:0:
455,264,12109,5,8,1:0:0:0:
455,264,12273,1,2,0:0:0:0:
446,132,12601,1,2,0:0:0:0:
355,36,12929,1,2,0:0:0:0:
223,29,13257,2,0,L|154:43,2,55,2|8|2,0:0|1:0|0:0,0:0:0:0:
252,76,13749,2,0,P|246:106|238:145,1,55,0|2,1:0|0:0,0:0:0:0:
208,174,14076,1,8,1:0:0:0:
139,260,14404,5,0,1:0:0:0:
188,283,14568,1,2,0:0:0:0:
242,281,14732,1,8,1:0:0:0:
289,253,14896,1,2,0:0:0:0:
399,326,15224,2,0,L|418:191,1,110,2|2,0:2|0:0,0:0:0:0:
500,116,15880,2,0,L|481:-19,1,110,2|0,0:0|1:0,0:0:0:0:
436,32,16371,2,0,L|367:18,1,55,0|2,1:0|0:0,0:0:0:0:
343,60,16699,1,8,1:0:0:0:
221,110,17027,5,4,1:0:0:0:
167,110,17191,1,0,0:0:0:0:
119,86,17355,1,8,1:0:0:0:
88,41,17519,1,2,0:0:0:0:
6,145,17847,1,2,0:0:0:0:
6,145,18011,2,0,L|28:278,1,110,12|0,1:0|1:0,0:0:0:0:
75,273,18503,2,0,L|147:254,1,55,2|8,0:0|1:0,0:0:0:0:
182,248,18830,1,2,0:0:0:0:
215,291,18994,2,0,L|196:363,2,55,0|2|12,1:0|0:0|1:0,0:0:0:0:
329,224,19650,6,0,L|394:214,1,55,4|0,1:0|3:0,0:0:0:0:
426,181,19978,2,0,L|491:191,1,55,8|2,1:0|3:2,0:0:0:0:
428,73,20470,1,2,3:2:0:0:
428,73,20634,2,0,L|363:83,1,55,8|0,1:0|1:0,0:0:0:0:
308,92,20962,2,0,B|299:45|299:45|252:55|252:55|261:102|261:102|214:111|214:111|205:64|205:64|158:73|158:73|167:120|167:120|120:129|120:129|108:66,1,440,2|4,1:2|1:0,0:0:0:0:
256,192,22437,12,2,24896,1:2:0:0:
256,0,35388,6,0,L|285:127,1,110,4|8,1:0|1:0,0:0:0:0:
213,221,36044,1,0,1:0:0:0:
85,189,36371,1,8,1:0:0:0:
213,221,36699,2,0,L|340:250,1,110,0|8,1:0|1:0,0:0:0:0:
454,275,37355,1,0,1:0:0:0:
454,275,37682,1,8,1:0:0:0:
320,245,38011,6,0,L|213:221,1,110,0|8,1:0|1:0,0:0:0:0:
85,189,38667,1,0,1:0:0:0:
85,189,38994,1,8,1:0:0:0:
213,221,39322,1,0,1:0:0:0:
280,107,39651,2,0,L|256:0,2,110,8|0|8,1:0|1:0|1:0,0:0:0:0:
213,221,40634,6,0,L|237:328,3,110,0|8|0|8,1:0|1:0|1:0|1:0,0:0:0:0:
280,107,41945,2,0,L|256:0,2,110,0|8|0,1:0|1:0|1:0,0:0:0:0:
213,221,42929,2,0,L|237:328,1,110,8|0,1:0|1:0,0:0:0:0:
256,192,43421,12,4,45880,1:0:0:0:
256,384,48503,6,0,P|238:332|196:246,1,110,0|0,1:0|1:0,0:0:0:0:
312,191,49158,1,0,1:0:0:0:
287,314,49486,1,0,1:0:0:0:
157,290,49814,2,0,P|139:238|97:152,1,110,0|0,1:0|1:0,0:0:0:0:
213,97,50469,1,0,1:0:0:0:
188,220,50797,1,0,1:0:0:0:
80,77,51126,6,0,L|477:24,1,385,4|0,1:0|1:0,0:0:0:0:
512,0,52437,2,0,L|459:397,1,385,4|0,1:0|1:0,0:0:0:0:
412,355,53749,6,0,L|399:272,1,55,4|0,1:0|1:0,0:0:0:0:
355,273,54076,2,0,L|342:190,1,55,4|0,1:0|1:0,0:0:0:0:
383,177,54404,2,0,L|370:94,1,55,4|0,1:0|1:0,0:0:0:0:
334,84,54732,2,0,L|321:1,1,55,4|0,1:0|1:0,0:0:0:0:
256,384,56044,1,2,0:3:0:0:
363,287,56371,6,0,L|284:277,1,60.5000018463135,4|2,1:0|0:0,0:0:0:0:
240,272,56699,2,0,L|161:262,1,60.5000018463135,8|2,1:0|0:0,0:0:0:0:
118,257,57027,1,2,1:0:0:0:
0,176,57355,2,0,L|77:159,1,60.5000018463135,8|2,1:0|0:0,0:0:0:0:
121,150,57683,2,0,L|198:133,1,60.5000018463135,0|2,1:0|0:0,0:0:0:0:
242,123,58011,2,0,L|319:106,1,60.5000018463135,8|2,1:0|0:0,0:0:0:0:
288,48,58339,1,2,1:0:0:0:
425,0,58667,1,10,1:0:0:0:
505,121,58994,6,0,L|513:181,1,60.5000018463135,0|2,1:0|0:0,0:0:0:0:
478,231,59322,2,0,L|485:291,1,60.5000018463135,8|2,1:0|0:0,0:0:0:0:
512,346,59650,1,2,1:0:0:0:
371,311,59978,1,10,1:0:0:0:
312,322,60142,2,0,P|264:341|198:379,1,121.000003692627,2|2,0:0|0:1,0:0:0:0:
77,315,60798,1,2,0:1:0:0:
77,315,60962,1,2,1:0:0:0:
159,196,61289,2,0,L|139:124,1,60.5000018463135,8|2,1:0|0:0,0:0:0:0:
118,83,61617,6,0,P|148:95|190:103,1,60.5000018463135,0|2,1:0|0:0,0:0:0:0:
236,104,61945,2,0,P|268:96|306:79,1,60.5000018463135,8|2,1:0|0:0,0:0:0:0:
346,55,62273,1,2,1:0:0:0:
480,112,62601,2,0,P|479:144|470:186,1,60.5000018463135,8|2,1:0|0:0,0:0:0:0:
417,192,62929,2,0,P|394:214|370:250,1,60.5000018463135,0|0,1:0|3:0,0:0:0:0:
416,287,63257,2,0,P|415:319|406:361,1,60.5000018463135,8|2,1:0|0:0,0:0:0:0:
354,369,63585,2,0,P|321:368|209:344,1,121.000003692627,2|10,1:0|1:0,0:0:0:0:
240,208,64240,6,0,P|210:196|168:188,1,60.5000018463135,0|2,1:0|0:0,0:0:0:0:
122,187,64568,2,0,P|90:195|52:212,1,60.5000018463135,8|2,1:0|0:0,0:0:0:0:
12,236,64896,1,2,1:0:0:0:
142,312,65224,1,10,1:0:0:0:
142,312,65388,1,2,0:0:0:0:
281,271,65716,2,0,L|301:126,1,121.000003692627,2|2,0:1|0:1,0:0:0:0:
250,112,66208,2,0,L|233:23,1,60.5000018463135,2|2,1:0|0:0,0:0:0:0:
283,12,66535,1,10,1:0:0:0:
138,23,66863,6,0,L|49:5,1,60.5000018463135,4|0,1:0|0:0,0:0:0:0:
0,64,67191,2,0,L|59:52,1,60.5000018463135,12|0,1:0|0:0,0:0:0:0:
89,105,67519,1,2,1:0:0:0:
26,236,67847,1,8,1:0:0:0:
136,331,68175,2,0,L|224:348,1,60.5000018463135,0|2,1:0|0:0,0:0:0:0:
274,290,68503,2,0,L|214:301,1,60.5000018463135,8|2,1:0|0:0,0:0:0:0:
185,249,68831,1,2,1:0:0:0:
220,108,69158,1,10,1:0:0:0:
373,125,69486,5,4,1:0:0:0:
373,125,69650,1,2,0:0:0:0:
373,125,69814,2,0,L|412:205,1,60.5000018463135,8|2,1:0|0:0,0:0:0:0:
353,236,70142,2,0,P|407:220|514:201,1,121.000003692627,2|10,1:0|1:0,0:0:0:0:
512,252,70634,1,2,0:0:0:0:
336,368,70962,2,0,P|286:341|184:302,1,121.000003692627,2|2,0:1|0:1,0:0:0:0:
176,353,71454,1,2,1:0:0:0:
74,250,71781,2,0,L|87:145,1,60.5000018463135,8|2,1:0|0:0,0:0:0:0:
116,140,72109,1,0,1:0:0:0:
0,52,72437,5,12,1:0:0:0:
116,140,72765,2,0,P|173:120|232:108,1,121.000003692627,2|8,1:0|1:0,0:0:0:0:
282,142,73257,1,8,1:0:0:0:
282,142,73421,2,0,L|371:124,1,60.5000018463135,0|0,1:0|0:0,0:0:0:0:
401,123,73749,2,0,P|415:89|418:59,1,60.5000018463135,8|0,1:0|0:0,0:0:0:0:
386,13,74077,1,2,1:0:0:0:
512,84,74404,1,10,1:0:0:0:
458,219,74732,6,0,L|441:307,1,60.5000018463135,0|0,1:0|1:0,0:0:0:0:
355,278,75060,2,0,L|372:366,1,60.5000018463135,8|0,1:0|1:0,0:0:0:0:
299,384,75388,2,0,L|310:324,1,60.5000018463135,2|0,1:0|1:0,0:0:0:0:
218,325,75716,2,0,L|206:265,1,60.5000018463135,10|0,1:0|1:0,0:0:0:0:
111,218,76044,6,0,B|129:231|129:231|142:212|142:212|160:226|160:226|174:207|174:207|192:221|192:221|205:202|205:202|224:216|224:216|237:197|237:197|255:211|255:211|269:192|269:192|287:206|287:206|300:187|300:187|318:201|318:201|332:182|332:182|350:196|350:196|363:177|363:177,1,363.000011077881,2|2,1:0|0:3,0:0:0:0:
468,279,77355,6,0,L|456:339,2,60.5000018463135,4|2|8,1:0|0:0|1:0,0:0:0:0:
507,232,77847,1,2,0:0:0:0:
499,86,78175,1,2,0:0:0:0:
369,19,78503,1,2,0:0:0:0:
225,38,78830,1,2,0:0:0:0:
156,166,79158,1,2,0:0:0:0:
231,289,79486,2,0,P|300:287|362:262,1,121.000003692627,2|2,0:0|0:0,0:0:0:0:
507,232,80142,5,2,0:0:0:0:
511,159,80306,1,8,1:0:0:0:
499,86,80470,1,2,0:0:0:0:
369,19,80798,1,2,0:0:0:0:
225,38,81125,1,2,0:0:0:0:
156,166,81453,1,0,1:0:0:0:
231,289,81781,2,0,P|300:287|362:262,1,121.000003692627,0|0,1:0|1:0,0:0:0:0:
397,306,82273,2,0,L|375:384,1,60.5000018463135,10|10,1:0|1:0,0:0:0:0:
448,337,82601,6,0,L|455:259,1,60.5000018463135,0|2,1:0|0:0,0:0:0:0:
507,232,82929,1,8,1:0:0:0:
507,232,83093,1,2,0:0:0:0:
499,86,83421,1,2,0:0:0:0:
369,19,83749,1,2,0:0:0:0:
225,38,84076,1,2,0:0:0:0:
156,166,84404,1,2,0:0:0:0:
231,289,84732,2,0,P|300:287|362:262,1,121.000003692627,2|2,0:0|0:0,0:0:0:0:
314,225,85224,6,0,P|279:224|248:236,1,60.5000018463135,0|2,1:0|0:0,0:0:0:0:
215,184,85552,1,8,1:0:0:0:
215,184,85716,2,0,P|272:165|332:164,1,121.000003692627,2|2,0:0|0:0,0:0:0:0:
369,19,86371,1,2,0:0:0:0:
225,38,86698,1,2,0:0:0:0:
156,166,87026,1,2,0:0:0:0:
231,289,87355,1,2,0:0:0:0:
291,288,87519,1,10,1:0:0:0:
348,269,87683,1,8,1:0:0:0:
405,245,87847,6,0,L|388:169,1,60.5000018463135,2|0,1:0|0:0,0:0:0:0:
320,128,88175,2,0,L|337:52,1,60.5000018463135,10|0,1:0|0:0,0:0:0:0:
402,19,88503,2,0,P|338:11|252:-6,1,121.000003692627,0|8,1:0|1:0,0:0:0:0:
224,64,88994,2,0,P|160:72|74:89,1,121.000003692627,2|2,0:0|3:2,0:0:0:0:
0,240,89650,2,0,P|64:248|150:265,1,121.000003692627,2|2,3:2|3:2,0:0:0:0:
256,384,90306,6,0,P|320:376|406:359,1,121.000003692627,8|2,1:0|0:0,0:0:0:0:
442,336,90798,1,8,1:0:0:0:
479,273,90962,1,2,0:0:0:0:
468,128,91289,1,2,0:0:0:0:
368,22,91617,1,2,3:2:0:0:
222,18,91945,1,10,1:0:0:0:
115,116,92273,1,10,1:0:0:0:
110,261,92601,1,10,1:0:0:0:
110,261,92765,1,14,0:1:0:0:
110,261,92929,1,8,1:0:0:0:
71,313,93093,6,0,L|-8:324,2,60.5000018463135,6|0|14,1:0|1:0|1:0,0:0:0:0:
110,365,93585,2,0,P|174:373|260:390,1,121.000003692627,2|2,0:0|0:0,0:0:0:0:
288,320,94076,1,8,1:0:0:0:
288,320,94240,2,0,P|352:312|438:295,1,121.000003692627,2|2,0:0|0:0,0:0:0:0:
512,144,94896,2,0,P|448:136|362:119,1,121.000003692627,2|2,0:0|0:0,0:0:0:0:
334,84,95388,2,0,L|320:9,1,60.5000018463135,8|8,1:0|1:0,0:0:0:0:
256,0,95715,5,4,1:0:0:0:
256,192,95880,12,4,98339,0:0:0:0:
