osu file format v14

[General]
AudioFilename: audio.mp3
AudioLeadIn: 0
PreviewTime: 26461
Countdown: 0
SampleSet: Normal
StackLeniency: 0.4
Mode: 0
LetterboxInBreaks: 0
WidescreenStoryboard: 0

[Editor]
DistanceSpacing: 0.7
BeatDivisor: 4
GridSize: 4
TimelineZoom: 1.6

[Metadata]
Title:I'm so Happy
TitleUnicode:I'm so Happy
Artist:Ryu*
ArtistUnicode:Ryu☆
Creator:Yauxo
Version:Krimek's Insane
Source:jubeat knit
Tags:ハッピーハードコア Happy Hardcore Im pyrowar56 HabiHolic Mohab500 Krimek
BeatmapID:1615992
BeatmapSetID:768390

[Difficulty]
HPDrainRate:6
CircleSize:4.2
OverallDifficulty:8.2
ApproachRate:9.2
SliderMultiplier:1.8
SliderTickRate:1

[Events]
//Background and Video events
0,0,"horriblecut.png",0,0
//Break Periods
//Storyboard Layer 0 (Background)
//Storyboard Layer 1 (Fail)
//Storyboard Layer 2 (Pass)
//Storyboard Layer 3 (Foreground)
//Storyboard Sound Samples

[TimingPoints]
25,331.491712707182,4,1,1,50,1,0
1350,-100,4,1,1,50,0,0
1433,-100,4,1,1,5,0,0
1516,-100,4,1,1,50,0,0
1599,-100,4,1,1,5,0,0
1682,-80,4,1,1,50,0,0
2013,-100,4,1,1,50,0,0
2262,-100,4,1,1,5,0,0
2345,-66.6666666666667,4,1,1,50,0,0
2676,-100,4,1,1,50,0,0
3671,-80,4,1,1,50,0,0
3920,-80,4,1,1,15,0,0
4002,-100,4,1,1,50,0,0
7980,-80,4,1,1,50,0,0
8312,-66.6666666666667,4,1,1,50,0,0
8643,-80,4,1,1,50,0,0
9306,-100,4,1,1,50,0,0
15936,-181.818181818182,4,1,1,30,0,0
16019,-181.818181818182,4,1,1,5,0,0
18422,-181.818181818182,4,1,1,15,0,0
18588,-181.818181818182,4,1,1,30,0,0
18671,-181.818181818182,4,1,1,5,0,0
19748,-181.818181818182,4,1,1,15,0,0
19914,-181.818181818182,4,1,1,30,0,0
19997,-181.818181818182,4,1,1,5,0,0
20908,-181.818181818182,4,1,1,30,0,0
21323,-181.818181818182,4,1,1,5,0,0
23560,-181.818181818182,4,1,1,30,0,0
24058,-181.818181818182,4,1,1,15,0,0
24223,-181.818181818182,4,1,1,30,0,0
25218,-181.818181818182,4,1,1,30,0,0
26544,-153.846153846153,4,1,1,35,0,0
31848,-133.333333333333,4,1,1,50,0,0
34500,-200,4,1,1,50,0,0
38478,-100,4,1,1,50,0,1
43699,-100,4,1,1,15,0,1
43781,-100,4,1,1,50,0,1
46185,-100,4,1,1,15,0,1
46268,-100,4,1,1,50,0,1
46350,-100,4,1,1,15,0,1
46433,-100,4,1,1,50,0,1
48422,-100,4,1,1,50,0,0
48837,-100,4,1,1,15,0,0
48920,-100,4,1,1,50,0,0
49085,-100,4,1,1,50,0,1
50163,-100,4,1,1,15,0,1
50245,-100,4,1,1,50,0,1
50328,-100,4,1,1,15,0,1
50411,-100,4,1,1,50,0,1
52980,-100,4,1,1,15,0,1
53063,-100,4,1,1,50,0,1
53312,-100,4,1,1,15,0,1
53395,-100,4,1,1,50,0,1
59693,-200,4,1,1,50,0,0
63588,-200,4,1,1,15,0,0
63671,-200,4,1,1,50,0,0
64251,-200,4,1,1,15,0,0
64334,-200,4,1,1,50,0,0
69223,-200,4,1,1,15,0,0
69306,-200,4,1,1,50,0,0
69555,-200,4,1,1,15,0,0
69638,-200,4,1,1,50,0,0
69886,-200,4,1,1,15,0,0
69969,-100,4,1,1,50,0,0
70218,-100,4,1,1,15,0,0
70301,-200,4,1,1,50,0,0
71544,-200,4,1,1,15,0,0
71627,-250,4,1,1,45,0,0
71710,-250,4,1,1,15,0,0
71792,-333.333333333333,4,1,1,40,0,0
71875,-333.333333333333,4,1,1,15,0,0
71958,-500,4,1,1,35,0,0
72041,-500,4,1,1,15,0,0
72124,-1000,4,1,1,30,0,0
72207,-1000,4,1,1,15,0,0
72290,-200,4,1,1,25,0,0
72455,-133.333333333333,4,1,1,50,0,0
72953,-100,4,1,1,50,0,0
75522,-100,4,1,1,15,0,0
75605,-100,4,1,1,50,0,0
80826,-100,4,1,1,15,0,0
80908,-100,4,1,1,50,0,0
81157,-100,4,1,1,15,0,0
81240,-100,4,1,1,50,0,0
81820,-100,4,1,1,15,0,0
81903,-100,4,1,1,50,0,0
82152,-100,4,1,1,15,0,0
82234,-100,4,1,1,50,0,0
82897,-80,4,1,1,50,0,0
86129,-80,4,1,1,15,0,0
86212,-80,4,1,1,50,0,0
93091,-80,4,1,1,15,0,0
93174,-100,4,1,1,50,0,0
93422,-100,4,1,1,15,0,0
93505,-100,4,1,1,50,0,0
94251,-100,4,1,1,15,0,0

[Colours]
Combo1 : 170,236,255
Combo2 : 239,191,255
Combo3 : 183,170,255

[HitObjects]
124,77,1350,6,0,P|138:95|158:107,1,45,12|0,0:0|0:0,0:0:0:0:
234,139,1516,2,0,P|255:144|278:140,1,45,8|0,0:0|0:0,0:0:0:0:
101,150,1682,6,0,B|116:116|125:78|125:78|136:156|156:224,1,225,0|12,0:0|0:0,0:0:0:0:
160,246,2096,1,8,0:0:0:0:
165,268,2179,6,0,P|186:267|213:256,1,45,8|0,0:0|0:0,0:0:0:0:
360,104,2345,2,0,B|386:85|415:95|415:95|405:164|331:208|331:208|365:207|394:225,1,270.000010299683,0|12,0:0|0:0,0:0:0:0:
415,250,2759,1,8,0:0:0:0:
429,281,2842,1,8,0:0:0:0:
433,314,2925,1,8,0:0:0:0:
427,348,3008,5,12,0:0:0:0:
395,353,3091,1,8,0:0:0:0:
362,350,3174,1,8,0:0:0:0:
331,337,3257,1,8,0:0:0:0:
304,314,3339,6,0,P|263:297|219:289,1,90
82,314,3671,2,0,B|112:320|127:335|127:335|112:264|154:222,1,168.75
233,139,4002,6,0,L|203:54,1,90,12|0,0:0|0:0,0:0:0:0:
100,148,4334,2,0,L|69:62,1,90
218,288,4665,2,0,P|228:267|242:250,1,45
376,184,4831,5,12,0:0:0:0:
376,184,4914,2,0,P|353:185|331:181,1,45,0|0,0:0|0:0,0:0:0:0:
207,100,5080,1,0,0:0:0:0:
207,100,5163,2,0,P|219:119|226:140,1,45,0|0,0:0|0:0,0:0:0:0:
304,314,5328,6,0,P|347:302|391:304,1,90,12|0,0:0|0:0,0:0:0:0:
243,250,5577,2,0,P|199:261|155:259,1,90,0|0,0:0|0:0,0:0:0:0:
69,238,5826,1,0,0:0:0:0:
262,60,5991,1,12,0:0:0:0:
151,224,6157,1,8,0:0:0:0:
376,184,6323,1,8,0:0:0:0:
393,144,6406,1,8,0:0:0:0:
370,108,6489,1,8,0:0:0:0:
326,107,6571,1,8,0:0:0:0:
302,143,6654,6,0,P|296:184|312:236,1,90,12|0,0:0|0:0,0:0:0:0:
454,305,6986,2,0,P|460:264|444:212,1,90,0|0,0:0|0:0,0:0:0:0:
348,296,7317,2,0,P|361:313|379:327,1,45,0|0,0:0|0:0,0:0:0:0:
272,296,7483,5,12,0:0:0:0:
272,296,7566,2,0,P|274:318|283:338,1,45,0|0,0:0|0:0,0:0:0:0:
155,259,7732,1,0,0:0:0:0:
155,259,7815,2,0,P|146:279|143:301,1,45,0|0,0:0|0:0,0:0:0:0:
0,147,7980,6,0,B|13:123|21:89|21:89|24:152|44:192,1,168.75,12|0,0:0|0:0,0:0:0:0:
138,52,8312,2,0,B|154:36|182:36|182:36|170:92|114:124|114:124|134:128|152:136,1,202.500007724762,12|0,0:0|0:0,0:0:0:0:
256,192,8643,1,8,0:0:0:0:
368,136,8809,1,8,0:0:0:0:
472,188,8975,1,8,0:0:0:0:
473,220,9058,1,8,0:0:0:0:
469,247,9141,1,8,0:0:0:0:
461,274,9223,1,8,0:0:0:0:
451,300,9306,6,0,P|406:303|363:291,1,90,12|0,0:0|0:0,0:0:0:0:
168,201,9638,2,0,P|212:204|255:192,1,90,2|0,0:0|0:0,0:0:0:0:
370,108,9969,1,8,0:0:0:0:
359,259,10135,2,0,P|368:280|380:299,1,45
471,339,10301,1,6,0:0:0:0:
471,339,10384,2,0,P|462:318|450:299,1,45,0|0,0:0|0:0,0:0:0:0:
216,312,10549,5,0,0:0:0:0:
216,312,10632,2,0,P|172:324|128:321,1,90,12|0,0:0|0:0,0:0:0:0:
291,288,10881,2,0,P|335:285|379:298,1,90,0|0,0:0|0:0,0:0:0:0:
471,339,11129,1,0,0:0:0:0:
160,232,11295,6,0,P|115:234|72:222,1,90,8|0,0:0|0:0,0:0:0:0:
256,192,11544,2,0,P|299:179|343:182,1,90,0|0,0:0|0:0,0:0:0:0:
469,247,11792,1,0,0:0:0:0:
403,54,11958,6,0,L|433:139,1,90,12|0,0:0|0:0,0:0:0:0:
409,375,12290,2,0,L|379:290,1,90,12|0,0:0|0:0,0:0:0:0:
306,73,12621,1,12,0:0:0:0:
469,247,12787,1,8,0:0:0:0:
234,202,12953,1,6,0:0:0:0:
200,198,13036,1,8,0:0:0:0:
167,204,13118,1,8,0:0:0:0:
136,217,13201,1,8,0:0:0:0:
109,237,13284,6,0,P|119:217|123:195,1,45,8|8,0:0|0:0,0:0:0:0:
232,50,13533,2,0,P|235:94|260:132,1,90,8|8,0:0|0:0,0:0:0:0:
348,64,13781,2,0,P|325:65|304:72,1,45,2|0,0:0|0:0,0:0:0:0:
277,210,13947,6,0,P|255:209|234:202,1,45,8|8,0:0|0:0,0:0:0:0:
92,128,14196,2,0,P|136:125|176:145,1,90,8|8,0:0|0:0,0:0:0:0:
151,228,14444,2,0,P|135:212|123:194,1,45,8|0,0:0|0:0,0:0:0:0:
60,43,14610,5,12,0:0:0:0:
54,48,14942,1,12,0:0:0:0:
217,102,15273,5,0,0:0:0:0:
210,107,15356,1,0,0:0:0:0:
205,111,15439,2,0,P|188:128|176:144,1,45,2|0,2:0|0:0,0:0:0:0:
100,164,15605,2,0,P|60:144|16:146,1,90,12|2,0:0|2:0,0:0:0:0:
48,52,15936,6,0,B|120:68|140:148|136:248|88:244|96:320|116:352|116:352|144:348|164:320|164:320|136:248|184:164|184:164|87:188|32:181|4:146,1,742.500022659302,12|2,0:0|2:0,0:0:0:0:
248,215,18588,6,0,P|300:340|376:216,1,346.500010574341,2|0,2:0|0:0,0:0:0:0:
312,260,19914,2,0,B|268:280|216:260|216:260|156:236|120:260|120:260|108:316|136:356,1,297.000009063721,2|2,2:0|2:0,0:0:0:0:
312,156,21240,6,0,B|296:184|268:192|268:192|156:180|68:72|68:72|160:60|160:60|244:140|352:148|396:84|384:40|360:20,1,693.000021148682,2|2,2:0|2:0,0:0:0:0:
242,30,23892,6,0,P|264:40|289:45,1,49.5000015106202,2|0,2:0|2:0,0:0:0:0:
159,59,24223,2,0,P|112:56|60:72,2,99.0000030212403,0|0|0,2:0|2:0|2:0,0:0:0:0:
256,192,25218,12,2,26212,0:0:0:0:
267,192,26544,6,0,P|242:244|244:304,1,116.999994644165,12|2,0:0|0:0,0:0:0:0:
375,215,27041,2,0,L|403:221,2,29.2499986610413,8|8|8,0:0|0:0|0:0,0:0:0:0:
359,239,27290,1,8,0:0:0:0:
349,267,27373,1,8,0:0:0:0:
347,296,27455,1,8,0:0:0:0:
350,324,27538,2,0,L|436:344,1,87.749995983124,2|0,0:0|0:0,0:0:0:0:
243,302,27870,6,0,L|186:316,1,58.4999973220826,8|0,0:0|0:0,0:0:0:0:
240,184,28201,2,0,L|296:198,1,58.4999973220826,2|0,0:0|0:0,0:0:0:0:
104,300,28533,2,0,L|71:307,2,29.2499986610413,8|8|8,0:0|0:0|0:0,0:0:0:0:
128,193,28864,1,2,0:0:0:0:
349,267,29030,1,8,0:0:0:0:
215,294,29196,6,0,P|214:236|240:184,1,116.999994644165,8|2,0:0|0:0,0:0:0:0:
103,84,29693,2,0,L|74:90,2,29.2499986610413,8|8|8,0:0|0:0|0:0,0:0:0:0:
119,108,29942,1,8,0:0:0:0:
129,136,30025,1,8,0:0:0:0:
131,165,30107,1,8,0:0:0:0:
128,193,30190,2,0,L|42:213,1,87.749995983124,2|0,0:0|0:0,0:0:0:0:
240,183,30522,6,0,L|296:168,1,58.4999973220826,8|0,0:0|0:0,0:0:0:0:
244,49,30853,2,0,L|187:63,1,58.4999973220826,2|0,0:0|0:0,0:0:0:0:
379,164,31185,2,0,L|408:158,2,29.2499986610413,8|8|8,0:0|0:0|0:0,0:0:0:0:
236,317,31516,1,2,0:0:0:0:
336,92,31682,1,8,0:0:0:0:
92,211,31848,6,0,P|58:209|25:201,1,67.5000025749208,12|8,0:0|0:0,0:0:0:0:
312,203,32179,2,0,P|338:223|360:249,1,67.5000025749208,2|8,0:0|0:0,0:0:0:0:
372,272,32428,1,0,0:0:0:0:
380,296,32511,2,0,L|392:264,2,33.7500012874604,8|8|8,0:0|0:0|0:0,0:0:0:0:
236,317,32842,2,0,L|224:349,2,33.7500012874604,2|0|8,0:0|0:0|0:0,0:0:0:0:
87,286,33174,6,0,P|53:284|20:275,1,67.5000025749208,12|8,0:0|0:0,0:0:0:0:
364,153,33505,2,0,P|391:174|413:200,1,67.5000025749208,2|8,0:0|0:0,0:0:0:0:
82,361,33837,6,0,P|48:359|15:350,1,67.5000025749208,8|8,0:0|0:0,0:0:0:0:
260,253,34168,2,0,P|286:273|308:299,1,67.5000025749208,2|8,0:0|0:0,0:0:0:0:
160,112,34500,5,12,0:0:0:0:
177,140,34583,1,8,0:0:0:0:
180,174,34665,1,8,0:0:0:0:
169,204,34748,1,8,0:0:0:0:
145,229,34831,1,8,0:0:0:0:
121,254,34914,1,8,0:0:0:0:
110,284,34997,1,8,0:0:0:0:
113,318,35080,1,8,0:0:0:0:
130,346,35163,5,12,0:0:0:0:
164,354,35245,1,8,0:0:0:0:
196,348,35328,1,8,0:0:0:0:
224,329,35411,1,8,0:0:0:0:
239,300,35494,1,8,0:0:0:0:
254,271,35577,1,8,0:0:0:0:
282,252,35660,1,8,0:0:0:0:
314,246,35743,1,8,0:0:0:0:
348,253,35826,6,0,P|379:268|412:275,1,67.5,12|0,0:0|0:0,0:0:0:0:
370,282,36157,2,0,P|340:267|314:246,1,67.5,6|0,0:0|0:0,0:0:0:0:
282,252,36489,2,0,P|299:281|322:305,1,67.5,6|0,0:0|0:0,0:0:0:0:
279,332,36820,2,0,P|262:303|254:271,1,67.5,6|0,0:0|0:0,0:0:0:0:
284,176,37152,6,0,P|284:153|280:132,1,45,2|2,0:0|0:0,0:0:0:0:
145,229,37483,1,0,0:0:0:0:
139,234,37980,6,0,P|139:257|143:278,1,45,0|0,0:0|0:0,0:0:0:0:
278,181,38312,1,0,0:0:0:0:
80,84,38478,6,0,P|120:104|164:108,1,90,12|0,0:0|0:0,0:0:0:0:
272,40,38726,1,0,0:0:0:0:
251,42,38809,2,0,P|213:67|188:104,1,90,2|0,0:0|0:0,0:0:0:0:
183,248,39141,6,0,P|185:292|204:333,1,90,8|0,0:0|0:0,0:0:0:0:
192,229,39389,1,0,0:0:0:0:
201,210,39472,2,0,P|198:165|179:124,1,90,2|0,0:0|0:0,0:0:0:0:
276,268,39804,6,0,P|316:288|360:292,1,90,8|0,0:0|0:0,0:0:0:0:
439,225,40052,1,0,0:0:0:0:
428,208,40135,2,0,P|388:188|344:184,1,90,2|0,0:0|0:0,0:0:0:0:
183,248,40466,5,8,0:0:0:0:
173,64,40632,1,0,0:0:0:0:
276,268,40798,1,2,0:0:0:0:
80,84,40964,1,0,0:0:0:0:
241,148,41129,6,0,P|285:144|326:124,1,90,8|0,0:0|0:0,0:0:0:0:
456,140,41378,1,0,0:0:0:0:
447,122,41461,2,0,P|449:77|468:36,1,90,2|0,0:0|0:0,0:0:0:0:
387,228,41792,6,0,P|425:253|451:290,1,90,8|0,0:0|0:0,0:0:0:0:
314,141,42041,1,0,0:0:0:0:
303,158,42124,2,0,P|263:178|218:182,1,90,2|0,0:0|0:0,0:0:0:0:
80,84,42455,6,0,P|124:88|164:108,1,90,8|0,0:0|0:0,0:0:0:0:
199,267,42704,1,0,0:0:0:0:
180,262,42787,2,0,P|147:232|128:192,1,90,2|0,0:0|0:0,0:0:0:0:
292,40,43118,5,8,0:0:0:0:
218,182,43284,1,0,0:0:0:0:
383,30,43450,1,2,0:0:0:0:
127,192,43616,2,0,P|106:181|84:176,1,45,8|0,0:0|0:0,0:0:0:0:
276,268,43781,6,0,P|315:288|360:292,1,90,12|0,0:0|0:0,0:0:0:0:
128,292,44030,1,0,0:0:0:0:
116,276,44113,2,0,P|76:255|31:251,1,90,2|0,0:0|0:0,0:0:0:0:
200,184,44444,6,0,P|239:164|284:160,1,90,8|0,0:0|0:0,0:0:0:0:
169,370,44693,1,0,0:0:0:0:
150,375,44776,2,0,P|105:370|66:350,1,90,2|0,0:0|0:0,0:0:0:0:
296,352,45107,6,0,P|321:315|359:291,1,90,8|0,0:0|0:0,0:0:0:0:
146,163,45356,1,0,0:0:0:0:
159,176,45439,2,0,P|177:216|179:261,1,90,2|0,0:0|0:0,0:0:0:0:
72,244,45770,5,8,0:0:0:0:
169,40,45936,1,0,0:0:0:0:
284,160,46102,2,0,L|265:201,1,45,2|0,0:0|0:0,0:0:0:0:
187,364,46268,2,0,L|205:322,1,45,8|0,0:0|0:0,0:0:0:0:
146,163,46433,6,0,P|174:197|187:240,1,90,12|0,0:0|0:0,0:0:0:0:
90,345,46682,1,0,0:0:0:0:
80,331,46765,2,0,P|67:288|71:243,1,90,2|0,0:0|0:0,0:0:0:0:
169,40,47096,6,0,P|201:70|219:111,1,90,12|0,0:0|0:0,0:0:0:0:
55,117,47345,1,0,0:0:0:0:
71,116,47428,2,0,P|112:131|145:162,1,90,12|0,0:0|0:0,0:0:0:0:
265,201,47676,5,0,0:0:0:0:
274,213,47759,2,0,P|306:243|348:259,1,90,12|0,0:0|0:0,0:0:0:0:
452,164,48008,1,0,0:0:0:0:
436,169,48091,2,0,P|392:171|350:156,1,90,12|0,0:0|0:0,0:0:0:0:
219,111,48422,5,2,0:0:0:0:
398,74,48588,1,0,0:0:0:0:
155,28,48754,2,0,P|142:46|136:68,1,45,6|0,0:0|0:0,0:0:0:0:
116,272,48920,1,0,0:0:0:0:
294,154,49085,6,0,P|261:123|219:111,1,90,12|0,0:0|0:0,0:0:0:0:
52,104,49334,1,0,0:0:0:0:
60,116,49417,2,0,P|92:146|135:159,1,90,2|0,0:0|0:0,0:0:0:0:
368,199,49748,6,0,B|324:196|294:154|294:154|292:176|278:195,1,135,8|0,0:0|0:0,0:0:0:0:
208,206,50080,2,0,P|213:227|226:245,1,45,2|0,0:0|0:0,0:0:0:0:
294,74,50245,2,0,P|278:57|259:47,1,45,0|0,0:0|0:0,0:0:0:0:
348,272,50411,6,0,P|392:271|428:244,1,90,8|0,0:0|0:0,0:0:0:0:
392,124,50660,1,0,0:0:0:0:
372,116,50743,1,2,0:0:0:0:
208,206,50908,1,0,0:0:0:0:
368,199,51074,5,8,0:0:0:0:
260,48,51240,1,0,0:0:0:0:
96,138,51406,1,2,0:0:0:0:
234,127,51571,1,8,0:0:0:0:
60,24,51737,6,0,L|87:109,1,90,8|0,0:0|0:0,0:0:0:0:
219,230,51986,1,0,0:0:0:0:
210,202,52069,2,0,L|182:116,1,90,2|0,0:0|0:0,0:0:0:0:
96,322,52400,5,8,0:0:0:0:
324,195,52566,2,0,P|346:192|368:199,1,45,0|0,0:0|0:0,0:0:0:0:
203,324,52732,2,0,B|144:284|104:294|104:294|93:312|96:322,1,135,2|0,0:0|0:0,0:0:0:0:
284,192,53063,6,0,B|332:172|387:197|387:197|391:218|385:226,1,135,8|0,0:0|0:0,0:0:0:0:
360,326,53395,1,2,0:0:0:0:
123,223,53560,1,0,0:0:0:0:
283,319,53726,5,8,0:0:0:0:
149,122,53892,1,0,0:0:0:0:
309,218,54058,5,2,0:0:0:0:
175,21,54223,5,8,0:0:0:0:
335,117,54389,6,0,P|367:147|410:160,1,90,12|0,0:0|0:0,0:0:0:0:
152,228,54638,1,0,0:0:0:0:
123,223,54721,2,0,P|80:235|47:266,1,90,2|0,0:0|0:0,0:0:0:0:
283,319,55052,5,8,0:0:0:0:
232,168,55218,1,0,0:0:0:0:
188,144,55301,1,0,0:0:0:0:
149,122,55384,1,2,0:0:0:0:
361,16,55549,1,0,0:0:0:0:
436,208,55715,6,0,B|408:224|388:268|388:268|400:240|396:200,1,135,8|0,0:0|0:0,0:0:0:0:
245,80,56047,2,0,P|231:123|231:167,1,90,2|0,0:0|0:0,0:0:0:0:
361,16,56378,5,8,0:0:0:0:
280,244,56544,1,0,0:0:0:0:
463,360,56710,1,2,0:0:0:0:
352,184,56875,1,8,0:0:0:0:
268,324,57041,6,0,B|224:312|176:324|176:324|244:276,1,135,12|0,0:0|0:0,0:0:0:0:
410,160,57373,2,0,B|366:172|318:160|318:160|353:185,1,135,0|0,0:0|0:0,0:0:0:0:
385,332,57704,6,0,B|364:332|344:344|344:344|348:288|316:260,1,135,12|0,0:0|0:0,0:0:0:0:
142,132,58036,2,0,B|164:132|184:120|184:120|180:176|212:204,1,135,12|0,0:0|0:0,0:0:0:0:
268,324,58367,5,12,0:0:0:0:
268,140,58533,1,0,0:0:0:0:
463,360,58699,1,12,0:0:0:0:
316,260,58864,1,0,0:0:0:0:
480,87,59030,6,0,P|503:49|508:5,1,90,2|0,0:0|0:0,0:0:0:0:
376,80,59279,1,0,0:0:0:0:
371,93,59362,2,0,P|376:137|400:176,1,90,6|0,0:0|0:0,0:0:0:0:
463,360,59693,5,12,0:0:0:0:
416,272,59859,1,2,1:0:0:0:
359,352,60025,1,2,1:0:0:0:
316,260,60190,1,2,1:0:0:0:
411,285,60356,6,0,P|432:292|454:294,1,45
228,312,60687,2,0,P|206:304|184:303,1,45
49,360,61019,5,2,2:0:0:0:
316,260,61350,2,0,P|333:245|345:226,1,45,2|0,0:0|0:0,0:0:0:0:
212,52,61682,5,0,0:0:0:0:
359,152,61848,1,2,2:0:0:0:
124,104,62013,5,8,0:0:0:0:
312,64,62179,1,2,2:0:0:0:
212,152,62345,6,0,P|234:151|255:143,1,45,12|0,0:0|0:0,0:0:0:0:
456,64,62676,2,0,P|434:71|412:71,1,45,2|0,0:0|0:0,0:0:0:0:
168,43,63008,2,0,P|189:50|211:51,1,45,0|0,0:0|0:0,0:0:0:0:
402,160,63339,2,0,P|372:152|340:112,1,67.5,8|0,0:0|0:0,0:0:0:0:
312,64,63671,6,0,P|328:136|325:219,1,157.5,12|0,0:0|0:0,0:0:0:0:
316,260,64334,1,2,0:0:0:0:
306,298,64665,6,0,P|302:309|300:320,2,22.5,2|0|0,0:0|0:0|0:0,0:0:0:0:
392,314,64997,5,12,0:0:0:0:
376,285,65080,1,8,0:0:0:0:
348,265,65163,1,8,0:0:0:0:
316,260,65245,1,8,0:0:0:0:
283,268,65328,1,2,0:0:0:0:
258,290,65411,1,8,0:0:0:0:
233,312,65494,1,8,0:0:0:0:
200,320,65577,1,8,0:0:0:0:
168,315,65660,1,0,0:0:0:0:
140,295,65743,1,0,0:0:0:0:
124,266,65826,1,8,0:0:0:0:
121,233,65908,1,8,0:0:0:0:
132,201,65991,2,0,P|144:186|160:168,2,22.5,2|0|0,0:0|0:0|0:0,0:0:0:0:
196,244,66323,5,12,0:0:0:0:
229,244,66406,1,8,0:0:0:0:
260,230,66489,1,8,0:0:0:0:
280,205,66571,1,8,0:0:0:0:
290,172,66654,1,2,0:0:0:0:
283,139,66737,1,8,0:0:0:0:
277,107,66820,1,8,0:0:0:0:
286,74,66903,1,0,0:0:0:0:
307,49,66986,1,0,0:0:0:0:
338,35,67069,1,0,0:0:0:0:
371,35,67152,1,8,0:0:0:0:
401,49,67234,1,8,0:0:0:0:
423,75,67317,2,0,P|426:85|431:95,2,22.5,2|0|0,0:0|0:0|0:0,0:0:0:0:
352,112,67649,5,12,0:0:0:0:
335,140,67732,1,8,0:0:0:0:
332,174,67815,1,8,0:0:0:0:
343,204,67897,1,8,0:0:0:0:
367,229,67980,5,6,0:0:0:0:
391,254,68063,1,8,0:0:0:0:
402,284,68146,1,8,0:0:0:0:
399,318,68229,1,8,0:0:0:0:
382,346,68312,5,12,0:0:0:0:
348,354,68395,1,8,0:0:0:0:
316,348,68478,1,8,0:0:0:0:
288,329,68560,1,8,0:0:0:0:
273,300,68643,5,6,0:0:0:0:
258,271,68726,1,8,0:0:0:0:
230,252,68809,1,8,0:0:0:0:
198,246,68892,1,8,0:0:0:0:
164,253,68975,6,0,P|133:268|100:275,1,67.5,12|0,0:0|0:0,0:0:0:0:
142,282,69306,2,0,P|172:267|198:246,1,67.5,12|0,0:0|0:0,0:0:0:0:
230,252,69638,2,0,P|213:281|190:305,1,67.5,12|0,0:0|0:0,0:0:0:0:
288,329,69969,2,0,P|316:276|308:204,1,135,12|0,0:0|0:0,0:0:0:0:
352,112,70301,6,0,P|352:89|357:67,2,45,8|8|2,0:0|0:0|0:0,0:0:0:0:
401,309,70798,1,8,0:0:0:0:
394,330,70881,1,8,0:0:0:0:
385,351,70964,1,8,0:0:0:0:
176,384,71129,1,8,0:0:0:0:
179,350,71212,1,8,0:0:0:0:
196,320,71295,2,0,P|228:304|280:298,1,67.5,2|0,0:0|0:0,0:0:0:0:
303,231,71627,6,0,L|320:226,1,18,2|0,0:0|0:0,0:0:0:0:
112,269,71792,2,0,L|100:274,1,13.4999995880127,2|0,0:0|0:0,0:0:0:0:
206,185,71958,2,0,L|214:182,1,9,2|0,0:0|0:0,0:0:0:0:
28,218,72124,2,0,L|22:219,1,4.5,0|0,0:0|0:0,0:0:0:0:
109,139,72290,1,0,0:0:0:0:
196,320,72455,6,0,P|228:304|280:298,1,67.5000025749208
472,352,72787,1,0,0:0:0:0:
417,129,72953,6,0,L|327:104,1,90,12|0,0:0|0:0,0:0:0:0:
141,199,73284,2,0,L|228:176,1,90,2|0,0:0|0:0,0:0:0:0:
472,250,73616,2,0,L|382:225,1,90,8|0,0:0|0:0,0:0:0:0:
196,320,73947,2,0,L|283:297,1,90,2|0,0:0|0:0,0:0:0:0:
472,352,74279,5,8,0:0:0:0:
316,152,74444,1,0,0:0:0:0:
384,375,74610,1,2,0:0:0:0:
228,175,74776,1,0,0:0:0:0:
385,225,74942,2,0,P|429:224|468:203,1,90,8|0,0:0|0:0,0:0:0:0:
312,272,75273,2,0,B|277:268|245:284|245:284|213:300|180:292,1,135,2|0,0:0|0:0,0:0:0:0:
143,146,75605,6,0,P|181:169|204:208,1,90,8|0,0:0|0:0,0:0:0:0:
16,296,75936,2,0,P|55:274|99:274,1,90,2|0,0:0|0:0,0:0:0:0:
335,188,76268,2,0,P|333:232|311:271,1,90,8|0,0:0|0:0,0:0:0:0:
160,336,76599,2,0,P|120:357|76:357,1,90,2|0,0:0|0:0,0:0:0:0:
232,214,76931,5,8,0:0:0:0:
388,328,77096,1,0,0:0:0:0:
100,272,77262,1,2,0:0:0:0:
311,270,77428,1,0,0:0:0:0:
20,215,77594,2,0,P|59:237|103:237,1,90,8|0,0:0|0:0,0:0:0:0:
172,160,77842,1,0,0:0:0:0:
193,144,77925,1,2,0:0:0:0:
216,136,78008,1,0,0:0:0:0:
246,136,78091,2,0,P|266:144|289:146,1,45,8|0,0:0|0:0,0:0:0:0:
440,92,78257,6,0,L|353:68,1,90,12|0,0:0|0:0,0:0:0:0:
353,316,78588,2,0,L|440:293,1,90,2|0,0:0|0:0,0:0:0:0:
284,76,78920,2,0,L|197:52,1,90,8|0,0:0|0:0,0:0:0:0:
197,331,79251,2,0,L|284:308,1,90,2|0,0:0|0:0,0:0:0:0:
127,61,79583,5,8,0:0:0:0:
89,259,79748,1,0,0:0:0:0:
251,119,79914,1,2,0:0:0:0:
197,331,80080,1,0,0:0:0:0:
359,191,80245,2,0,P|403:190|441:167,1,90,8|0,0:0|0:0,0:0:0:0:
382,111,80577,2,0,B|348:100|316:116|316:116|284:132|252:120,1,135,2|0,0:0|0:0,0:0:0:0:
127,61,80908,6,0,P|187:69|199:149,1,135,12|0,0:0|0:0,0:0:0:0:
54,171,81240,2,0,P|89:143|132:135,1,90,2|0,0:0|0:0,0:0:0:0:
279,40,81571,6,0,P|306:94|251:119,1,135,12|0,0:0|0:0,0:0:0:0:
404,136,81903,2,0,P|384:193|364:149,1,135,6|0,0:0|0:0,0:0:0:0:
392,300,82234,5,12,0:0:0:0:
120,220,82400,1,0,0:0:0:0:
424,288,82566,2,0,P|464:269|491:233,1,90,6|0,0:0|0:0,0:0:0:0:
152,208,82897,2,0,B|208:256|220:336|220:336|228:296|256:268,1,225,8|2,0:0|0:0,0:0:0:0:
416,208,83395,1,0,0:0:0:0:
140,328,83560,6,0,P|92:317|114:272,1,112.5,12|0,0:0|0:0,0:0:0:0:
372,328,83892,2,0,P|419:318|397:273,1,112.5,2|0,0:0|0:0,0:0:0:0:
152,208,84223,2,0,B|127:193|117:165|117:165|148:157|172:171,1,112.5,8|0,0:0|0:0,0:0:0:0:
360,208,84555,2,0,B|384:193|394:165|394:165|363:157|339:171,1,112.5,2|0,0:0|0:0,0:0:0:0:
113,274,84886,5,8,0:0:0:0:
396,273,85052,1,0,0:0:0:0:
152,340,85218,1,2,0:0:0:0:
360,340,85384,1,0,0:0:0:0:
255,191,85549,2,0,P|232:141|235:85,1,112.5,8|0,0:0|0:0,0:0:0:0:
420,58,85881,2,0,P|406:133|332:120,1,168.75,2|0,0:0|0:0,0:0:0:0:
235,84,86212,6,0,P|186:90|204:135,1,112.5,8|0,0:0|0:0,0:0:0:0:
427,325,86544,2,0,P|447:280|399:273,1,112.5,2|0,0:0|0:0,0:0:0:0:
112,272,86875,1,8,0:0:0:0:
360,208,87041,1,0,0:0:0:0:
152,208,87207,1,2,0:0:0:0:
321,274,87373,6,0,P|400:272|408:148,1,225,0|0,0:0|0:0,0:0:0:0:
255,191,87870,2,0,B|235:171|203:170|203:170|205:200|226:221,1,112.5,2|0,0:0|0:0,0:0:0:0:
438,340,88201,1,8,0:0:0:0:
360,208,88367,1,0,0:0:0:0:
336,173,88450,1,0,0:0:0:0:
335,131,88533,1,2,0:0:0:0:
355,95,88616,1,0,0:0:0:0:
391,75,88699,1,8,0:0:0:0:
433,77,88781,1,0,0:0:0:0:
463,150,88864,6,0,P|436:156|409:149,3,56.25,12|8|8|8,0:0|0:0|0:0|0:0,0:0:0:0:
261,113,89196,2,0,P|233:106|206:111,3,56.25,2|8|8|8,0:0|0:0|0:0|0:0,0:0:0:0:
58,151,89527,2,0,P|30:157|3:152,1,56.25,8|8,0:0|0:0,0:0:0:0:
171,219,89693,2,0,P|198:213|225:220,1,56.25,8|8,0:0|0:0,0:0:0:0:
58,287,89859,5,6,0:0:0:0:
58,287,90190,6,0,P|31:280|4:286,3,56.25,12|8|8|8,0:0|0:0|0:0|0:0,0:0:0:0:
205,322,90522,2,0,P|232:328|259:323,3,56.25,2|8|8|8,0:0|0:0|0:0|0:0,0:0:0:0:
408,284,90853,2,0,P|435:277|462:282,1,56.25,8|8,0:0|0:0,0:0:0:0:
295,216,91019,2,0,P|267:221|240:214,1,56.25,8|8,0:0|0:0,0:0:0:0:
408,148,91185,5,6,0:0:0:0:
408,148,91516,5,12,0:0:0:0:
368,111,91599,1,8,0:0:0:0:
381,58,91682,1,8,0:0:0:0:
432,43,91765,1,8,0:0:0:0:
424,52,91848,5,12,0:0:0:0:
387,67,91931,1,8,0:0:0:0:
379,107,92013,1,8,0:0:0:0:
408,136,92096,1,8,0:0:0:0:
408,124,92179,5,12,0:0:0:0:
390,103,92262,1,8,0:0:0:0:
394,76,92345,1,8,0:0:0:0:
417,62,92428,1,8,0:0:0:0:
444,72,92511,6,0,P|471:78|499:78,1,56.25,12|8,0:0|0:0,0:0:0:0:
263,145,92676,2,0,P|235:145|208:152,1,56.25,8|8,0:0|0:0,0:0:0:0:
444,219,92842,6,0,P|476:216|444:292,1,168.75,8|0,0:0|0:0,0:0:0:0:
262,291,93174,2,0,P|215:321|264:348,1,135,8|0,0:0|0:0,0:0:0:0:
448,368,93505,5,8,0:0:0:0:
403,67,93837,1,2,0:0:0:0:
164,256,94168,6,0,P|149:280|144:308,1,45,12|0,0:0|0:0,0:0:0:0:
