osu file format v14

[General]
AudioFilename: audio.mp3
AudioLeadIn: 0
PreviewTime: 26461
Countdown: 0
SampleSet: Normal
StackLeniency: 0.3
Mode: 0
LetterboxInBreaks: 0
WidescreenStoryboard: 0

[Editor]
DistanceSpacing: 1.2
BeatDivisor: 4
GridSize: 4
TimelineZoom: 1.6

[Metadata]
Title:I'm so Happy
TitleUnicode:I'm so Happy
Artist:Ryu*
ArtistUnicode:Ryu☆
Creator:Yauxo
Version:Easy
Source:jubeat knit
Tags:ハッピーハードコア Happy Hardcore Im pyrowar56 HabiHolic Mohab500 Krimek
BeatmapID:1615990
BeatmapSetID:768390

[Difficulty]
HPDrainRate:3
CircleSize:2.6
OverallDifficulty:3
ApproachRate:3.4
SliderMultiplier:0.799999999999999
SliderTickRate:1

[Events]
//Background and Video events
0,0,"horriblecut.png",0,0
//Break Periods
2,16135,25101
2,59893,63550
//Storyboard Layer 0 (Background)
//Storyboard Layer 1 (Fail)
//Storyboard Layer 2 (Pass)
//Storyboard Layer 3 (Foreground)
//Storyboard Sound Samples

[TimingPoints]
25,331.491712707182,4,1,1,50,1,0
26544,-100,4,1,1,35,0,0
31848,-100,4,1,1,50,0,0
38478,-100,4,1,1,50,0,1
48422,-100,4,1,1,50,0,0
49085,-100,4,1,1,50,0,1
59693,-100,4,1,1,50,0,0

[Colours]
Combo1 : 170,236,255
Combo2 : 239,191,255
Combo3 : 183,170,255

[HitObjects]
116,92,1350,6,0,P|160:104|200:108,1,79.9999999999999,12|0,0:0|0:0,0:0:0:0:
272,168,2013,2,0,P|316:156|356:152,1,79.9999999999999,12|0,0:0|0:0,0:0:0:0:
424,92,2676,2,0,P|412:136|420:260,1,160,12|0,0:0|0:0,0:0:0:0:
260,359,4002,6,0,P|266:260|237:165,1,200,12|12,0:0|0:0,0:0:0:0:
148,60,5328,2,0,P|136:104|144:228,1,160,12|12,0:0|0:0,0:0:0:0:
172,308,6323,1,8,0:0:0:0:
253,359,6654,6,0,P|332:367|457:331,1,200,12|12,0:0|0:0,0:0:0:0:
496,200,7980,2,0,P|456:195|417:184,1,79.9999999999999,12|12,0:0|0:0,0:0:0:0:
340,245,8643,2,0,P|300:249|261:260,1,79.9999999999999,8|8,0:0|0:0,0:0:0:0:
208,344,9306,6,0,P|133:315|54:310,1,160,12|8,0:0|0:0,0:0:0:0:
16,220,10301,1,6,0:0:0:0:
96,164,10632,2,0,P|67:89|62:10,1,160,12|8,0:0|0:0,0:0:0:0:
160,16,11627,1,2,0:0:0:0:
236,76,11958,6,0,P|310:47|389:42,2,160,12|12|8,0:0|0:0|0:0,0:0:0:0:
88,200,13947,2,0,P|162:228|246:233,1,160,8|12,0:0|0:0,0:0:0:0:
329,192,14942,1,0,0:0:0:0:
408,248,15273,2,0,P|447:243|486:232,2,79.9999999999999,12|12|0,0:0|0:0|0:0,0:0:0:0:
348,56,26544,6,0,P|304:44|180:52,1,160,12|8,0:0|0:0,0:0:0:0:
100,80,27538,1,2,0:0:0:0:
80,176,27870,2,0,P|120:171|159:160,1,79.9999999999999,8|2,0:0|0:0,0:0:0:0:
236,221,28533,2,0,P|276:225|315:236,1,79.9999999999999,8|2,0:0|0:0,0:0:0:0:
356,328,29196,6,0,P|276:336|198:320,1,160,8|8,0:0|0:0,0:0:0:0:
116,268,30190,1,2,0:0:0:0:
156,180,30522,2,0,P|151:140|140:101,2,79.9999999999999,8|2|8,0:0|0:0|0:0,0:0:0:0:
116,268,31516,1,2,0:0:0:0:
56,340,31848,6,0,B|136:316|216:332|216:332|252:316|296:320,1,240,12|2,0:0|0:0,0:0:0:0:
368,376,33174,2,0,P|371:261|256:232,1,240,12|2,0:0|0:0,0:0:0:0:
172,232,34500,6,0,P|161:193|156:153,1,79.9999999999999,12|8,0:0|0:0,0:0:0:0:
252,128,35163,2,0,P|262:89|267:49,1,79.9999999999999,12|8,0:0|0:0,0:0:0:0:
180,8,35826,5,12,0:0:0:0:
360,84,36489,1,6,0:0:0:0:
180,148,37152,1,2,0:0:0:0:
80,192,38478,6,0,P|120:187|159:176,1,79.9999999999999,12|2,0:0|0:0,0:0:0:0:
236,237,39141,2,0,P|276:241|315:252,1,79.9999999999999,8|2,0:0|0:0,0:0:0:0:
380,324,39804,2,0,P|418:313|458:308,2,79.9999999999999,8|2|8,0:0|0:0|0:0,0:0:0:0:
288,352,40798,1,2,0:0:0:0:
192,372,41129,6,0,P|187:332|176:293,1,79.9999999999999,8|2,0:0|0:0,0:0:0:0:
248,228,41792,2,0,P|252:188|263:149,1,79.9999999999999,8|2,0:0|0:0,0:0:0:0:
192,84,42455,2,0,P|181:45|163:8,2,79.9999999999999,8|2|8,0:0|0:0|0:0,0:0:0:0:
148,168,43450,1,2,0:0:0:0:
104,256,43781,6,0,P|109:296|120:335,1,79.9999999999999,12|2,0:0|0:0,0:0:0:0:
212,372,44444,2,0,P|222:333|227:293,1,79.9999999999999,8|2,0:0|0:0,0:0:0:0:
308,244,45107,2,0,P|303:204|292:165,1,79.9999999999999,8|2,0:0|0:0,0:0:0:0:
200,120,45770,2,0,P|189:158|184:198,2,79.9999999999999,8|2|12,0:0|0:0|0:0,0:0:0:0:
396,16,47096,6,0,P|385:54|380:94,1,79.9999999999999,12|12,0:0|0:0,0:0:0:0:
480,96,47759,2,0,P|491:135|495:175,1,79.9999999999999,12|12,0:0|0:0,0:0:0:0:
416,228,48422,1,2,0:0:0:0:
472,308,48754,1,6,0:0:0:0:
388,356,49085,6,0,P|348:361|309:372,1,79.9999999999999,12|2,0:0|0:0,0:0:0:0:
229,319,49748,1,8,0:0:0:0:
133,328,50080,1,2,0:0:0:0:
90,242,50411,2,0,P|52:253|12:258,2,79.9999999999999,8|2|8,0:0|0:0|0:0,0:0:0:0:
172,192,51406,1,2,0:0:0:0:
256,240,51737,6,0,P|261:200|272:161,1,79.9999999999999,8|2,0:0|0:0,0:0:0:0:
270,65,52400,1,8,0:0:0:0:
193,6,52732,1,2,0:0:0:0:
100,36,53063,2,0,P|62:25|22:20,2,79.9999999999999,8|2|8,0:0|0:0|0:0,0:0:0:0:
120,132,54058,1,2,0:0:0:0:
140,228,54389,6,0,P|180:223|219:212,1,79.9999999999999,12|2,0:0|0:0,0:0:0:0:
290,276,55052,1,8,0:0:0:0:
378,239,55384,1,2,0:0:0:0:
468,272,55715,2,0,P|478:233|482:193,1,79.9999999999999,8|2,0:0|0:0,0:0:0:0:
404,136,56378,2,0,P|393:97|389:57,2,79.9999999999999,8|2|12,0:0|0:0|0:0,0:0:0:0:
256,192,57124,12,12,59693,0:0:0:0:
328,304,64997,6,0,P|337:190|228:149,1,240,12|2,0:0|0:0,0:0:0:0:
252,52,66323,2,0,P|148:101|167:216,1,240,12|2,0:0|0:0,0:0:0:0:
71,243,67649,2,0,P|165:307|255:233,1,240,12|6,0:0|0:0,0:0:0:0:
235,147,68975,6,0,P|273:136|313:132,1,79.9999999999999,12|12,0:0|0:0,0:0:0:0:
396,84,69638,2,0,P|412:120|422:159,1,79.9999999999999,12|12,0:0|0:0,0:0:0:0:
420,256,70301,1,8,0:0:0:0:
420,256,72953,6,0,P|380:251|341:240,1,79.9999999999999,12|2,0:0|0:0,0:0:0:0:
264,301,73616,2,0,P|224:305|185:316,1,79.9999999999999,8|2,0:0|0:0,0:0:0:0:
96,352,74279,2,0,P|84:308|92:184,1,160,8|8,0:0|0:0,0:0:0:0:
48,108,75273,1,2,0:0:0:0:
128,52,75605,6,0,P|168:47|207:36,1,79.9999999999999,8|2,0:0|0:0,0:0:0:0:
284,97,76268,2,0,P|324:101|363:112,1,79.9999999999999,8|2,0:0|0:0,0:0:0:0:
472,144,76931,2,0,P|461:105|457:65,2,79.9999999999999,8|2|8,0:0|0:0|0:0,0:0:0:0:
428,232,77925,1,2,0:0:0:0:
336,208,78257,6,0,P|296:213|257:224,1,79.9999999999999,12|2,0:0|0:0,0:0:0:0:
180,308,78920,2,0,P|220:313|259:324,1,79.9999999999999,8|2,0:0|0:0,0:0:0:0:
344,368,79583,2,0,P|423:359|501:375,1,160,8|8,0:0|0:0,0:0:0:0:
512,280,80577,1,2,0:0:0:0:
464,196,80908,1,12,0:0:0:0:
284,264,81571,5,12,0:0:0:0:
204,212,81903,1,6,0:0:0:0:
120,256,82234,2,0,P|80:251|41:240,2,79.9999999999999,12|6|8,0:0|0:0|0:0,0:0:0:0:
200,312,83229,1,2,0:0:0:0:
284,264,83560,6,0,P|279:224|268:185,1,79.9999999999999,12|2,0:0|0:0,0:0:0:0:
329,108,84223,2,0,P|333:68|344:29,1,79.9999999999999,8|2,0:0|0:0,0:0:0:0:
436,4,84886,2,0,P|452:82|443:161,1,160,8|8,0:0|0:0,0:0:0:0:
484,248,85881,1,2,0:0:0:0:
412,312,86212,6,0,P|372:307|333:296,1,79.9999999999999,8|2,0:0|0:0,0:0:0:0:
256,357,86875,2,0,P|216:361|177:372,1,79.9999999999999,8|2,0:0|0:0,0:0:0:0:
100,312,87538,2,0,P|60:308|21:297,2,79.9999999999999,8|2|8,0:0|0:0|0:0,0:0:0:0:
180,260,88533,1,2,0:0:0:0:
104,203,88864,6,0,P|211:171|276:264,1,240,12|6,0:0|0:0,0:0:0:0:
200,324,90190,2,0,P|307:355|371:261,1,240,12|6,0:0|0:0,0:0:0:0:
444,200,91516,6,0,P|440:160|429:121,1,79.9999999999999,12|12,0:0|0:0,0:0:0:0:
336,148,92179,2,0,P|298:137|258:132,1,79.9999999999999,12|12,0:0|0:0,0:0:0:0:
244,224,92842,2,0,P|218:254|197:288,2,79.9999999999999,8|8|8,0:0|0:0|0:0,0:0:0:0:
320,284,93837,1,2,0:0:0:0:
412,264,94168,1,12,0:0:0:0:
