osu file format v14

[General]
AudioFilename: audio.mp3
AudioLeadIn: 0
PreviewTime: 26461
Countdown: 0
SampleSet: Normal
StackLeniency: 0.3
Mode: 0
LetterboxInBreaks: 0
WidescreenStoryboard: 0

[Editor]
Bookmarks: 4001,15934,16265,16597,16928,17260,17591,17923,18254,18585,18917,19248,19580,19911,20243,20574,20906,21237,21569,21900,22232,22563,22895,23226,23557,23889,24220,24552,24883,25215,25546,25878,26209,26541,38473,49080,59687,72946,83552,94159
DistanceSpacing: 1.3
BeatDivisor: 4
GridSize: 4
TimelineZoom: 1.7

[Metadata]
Title:I'm so Happy
TitleUnicode:I'm so Happy
Artist:Ryu*
ArtistUnicode:Ryu☆
Creator:Yauxo
Version:Collab Insane
Source:jubeat knit
Tags:ハッピーハードコア Happy Hardcore Im pyrowar56 HabiHolic Mohab500 Krimek
BeatmapID:1744514
BeatmapSetID:768390

[Difficulty]
HPDrainRate:6
CircleSize:3.4
OverallDifficulty:7
ApproachRate:8.8
SliderMultiplier:1.55
SliderTickRate:1

[Events]
//Background and Video events
0,0,"horriblecut.png",0,0
//Break Periods
2,16136,25791
//Storyboard Layer 0 (Background)
//Storyboard Layer 1 (Fail)
//Storyboard Layer 2 (Pass)
//Storyboard Layer 3 (Foreground)
//Storyboard Sound Samples

[TimingPoints]
25,331.491712707182,4,1,1,50,1,0
1350,-125,4,1,1,50,0,0
1931,-125,4,1,1,5,0,0
2013,-125,4,1,1,50,0,0
2594,-125,4,1,1,5,0,0
2676,-125,4,1,1,50,0,0
4002,-100,4,1,1,50,0,0
26544,-125,4,1,1,35,0,0
26792,-125,4,1,1,5,0,0
26875,-125,4,1,1,35,0,0
29444,-125,4,1,1,5,0,0
29527,-125,4,1,1,35,0,0
31765,-125,4,1,1,5,0,0
31848,-125,4,1,1,50,0,0
38146,-111.111111111111,4,1,1,50,0,0
38478,-100,4,1,1,50,0,1
38643,-100,4,1,1,5,0,1
38726,-100,4,1,1,50,0,1
38892,-100,4,1,1,5,0,1
38975,-100,4,1,1,50,0,1
39306,-100,4,1,1,5,0,1
39389,-100,4,1,1,50,0,1
39555,-100,4,1,1,5,0,1
39638,-100,4,1,1,50,0,1
40218,-100,4,1,1,5,0,1
40301,-100,4,1,1,50,0,1
41295,-100,4,1,1,5,0,1
41378,-100,4,1,1,50,0,1
41544,-100,4,1,1,5,0,1
41627,-100,4,1,1,50,0,1
41958,-100,4,1,1,5,0,1
42041,-100,4,1,1,50,0,1
42207,-100,4,1,1,5,0,1
42290,-100,4,1,1,50,0,1
42870,-100,4,1,1,5,0,1
42953,-100,4,1,1,50,0,1
43947,-100,4,1,1,5,0,1
44030,-100,4,1,1,50,0,1
44196,-100,4,1,1,5,0,1
44279,-100,4,1,1,50,0,1
44610,-100,4,1,1,5,0,1
44693,-100,4,1,1,50,0,1
44859,-100,4,1,1,5,0,1
44942,-100,4,1,1,50,0,1
45522,-100,4,1,1,5,0,1
45605,-100,4,1,1,50,0,1
46599,-100,4,1,1,5,0,1
46682,-100,4,1,1,50,0,1
46848,-100,4,1,1,5,0,1
46931,-100,4,1,1,50,0,1
48422,-100,4,1,1,50,0,0
49085,-100,4,1,1,50,0,1
49251,-100,4,1,1,5,0,1
49334,-100,4,1,1,50,0,1
49500,-100,4,1,1,5,0,1
49583,-100,4,1,1,50,0,1
49914,-100,4,1,1,5,0,1
49997,-100,4,1,1,50,0,1
50163,-100,4,1,1,5,0,1
50245,-100,4,1,1,50,0,1
50826,-100,4,1,1,5,0,1
50908,-100,4,1,1,50,0,1
51903,-100,4,1,1,5,0,1
51986,-100,4,1,1,50,0,1
52152,-100,4,1,1,5,0,1
52234,-100,4,1,1,50,0,1
52566,-100,4,1,1,5,0,1
52649,-100,4,1,1,50,0,1
52815,-100,4,1,1,5,0,1
52897,-100,4,1,1,50,0,1
53478,-100,4,1,1,5,0,1
53560,-100,4,1,1,50,0,1
54555,-100,4,1,1,5,0,1
54638,-100,4,1,1,50,0,1
54804,-100,4,1,1,5,0,1
54886,-100,4,1,1,50,0,1
55218,-100,4,1,1,5,0,1
55301,-100,4,1,1,50,0,1
55466,-100,4,1,1,5,0,1
55549,-100,4,1,1,50,0,1
56129,-100,4,1,1,5,0,1
56212,-100,4,1,1,50,0,1
59693,-166.666666666667,4,1,1,50,0,0
72953,-100,4,1,1,50,0,0
75522,-100,4,1,1,5,0,0
75605,-100,4,1,1,50,0,0
80826,-100,4,1,1,5,0,0
80908,-100,4,1,1,50,0,0
84969,-100,4,1,1,5,0,0
85052,-100,4,1,1,50,0,0
86129,-100,4,1,1,5,0,0
86212,-100,4,1,1,50,0,0
87621,-100,4,1,1,5,0,0
87704,-100,4,1,1,50,0,0
94251,-100,4,1,1,5,0,0

[Colours]
Combo1 : 170,236,255
Combo2 : 239,191,255
Combo3 : 183,170,255

[HitObjects]
462,88,1350,5,12,0:0:0:0:
462,88,1516,1,8,0:0:0:0:
375,23,1682,6,0,L|354:122,1,93,0|0,0:0|0:0,0:0:0:0:
347,153,2013,6,0,L|355:190,2,31,12|8|8,0:0|0:0|0:0,0:0:0:0:
268,92,2345,2,0,L|160:118,1,93,0|0,0:0|0:0,0:0:0:0:
152,120,2676,6,0,L|145:157,3,31,12|8|8|8,0:0|0:0|0:0|0:0,0:0:0:0:
232,196,3008,1,12,0:0:0:0:
226,224,3091,1,8,0:0:0:0:
220,251,3174,1,8,0:0:0:0:
213,278,3257,1,8,0:0:0:0:
206,305,3339,5,0,0:0:0:0:
206,305,4002,6,0,L|302:289,1,77.5,12|0,0:0|0:0,0:0:0:0:
278,208,4334,2,0,L|182:192,1,77.5,0|0,0:0|0:0,0:0:0:0:
127,250,4665,1,0,0:0:0:0:
51,206,4831,1,12,0:0:0:0:
51,206,4914,2,0,P|37:241|58:299,1,77.5,0|0,0:0|0:0,0:0:0:0:
58,309,5163,1,0,0:0:0:0:
127,147,5328,6,0,L|225:135,1,77.5,12|0,0:0|0:0,0:0:0:0:
235,151,5577,2,0,L|334:163,1,77.5,0|0,0:0|0:0,0:0:0:0:
345,131,5826,1,0,0:0:0:0:
402,54,5991,1,8,0:0:0:0:
282,59,6157,1,12,0:0:0:0:
391,210,6323,1,8,0:0:0:0:
395,242,6406,1,8,0:0:0:0:
401,272,6489,1,8,0:0:0:0:
407,304,6571,1,8,0:0:0:0:
412,335,6654,6,0,L|333:321,1,77.5,12|0,0:0|0:0,0:0:0:0:
188,377,6986,2,0,L|269:363,1,77.5,0|0,0:0|0:0,0:0:0:0:
263,274,7317,1,0,0:0:0:0:
186,183,7483,1,12,0:0:0:0:
186,183,7566,2,0,L|170:271,1,77.5,0|0,0:0|0:0,0:0:0:0:
159,291,7815,1,0,0:0:0:0:
279,182,7980,6,0,B|315:177|315:177|355:189,1,77.5,12|0,0:0|0:0,0:0:0:0:
384,213,8229,2,0,L|478:197,1,77.5,0|0,0:0|0:0,0:0:0:0:
485,163,8478,1,0,0:0:0:0:
406,103,8643,1,8,0:0:0:0:
462,19,8809,1,8,0:0:0:0:
297,81,8975,1,8,0:0:0:0:
261,87,9058,1,8,0:0:0:0:
224,93,9141,1,8,0:0:0:0:
188,98,9223,1,8,0:0:0:0:
152,104,9306,6,0,B|163:65|163:65|151:31,1,77.5,12|0,0:0|0:0,0:0:0:0:
95,170,9638,2,0,B|85:208|85:208|96:248,1,77.5,2|0,0:0|0:0,0:0:0:0:
183,206,9969,1,8,0:0:0:0:
267,258,10135,1,0,0:0:0:0:
267,258,10218,2,0,L|354:268,1,77.5,0|0,0:0|0:0,0:0:0:0:
376,239,10466,1,0,0:0:0:0:
465,325,10632,6,0,P|462:279|484:239,1,77.5,12|0,0:0|0:0,0:0:0:0:
484,227,10881,2,0,P|487:179|465:139,1,77.5,0|0,0:0|0:0,0:0:0:0:
467,117,11129,1,0,0:0:0:0:
360,30,11295,2,0,L|354:114,1,77.5,8|0,0:0|0:0,0:0:0:0:
340,136,11544,2,0,P|300:125|249:143,1,77.5,0|0,0:0|0:0,0:0:0:0:
239,155,11792,1,0,0:0:0:0:
199,2,11958,6,0,B|187:43|187:43|198:93,1,77.5,12|0,0:0|0:0,0:0:0:0:
234,229,12290,2,0,B|246:188|246:188|235:138,1,77.5,12|0,0:0|0:0,0:0:0:0:
104,100,12621,1,12,0:0:0:0:
104,100,12787,1,8,0:0:0:0:
79,218,12953,1,6,0:0:0:0:
86,242,13036,1,8,0:0:0:0:
93,266,13118,1,8,0:0:0:0:
99,290,13201,1,8,0:0:0:0:
105,314,13284,5,8,0:0:0:0:
112,337,13367,1,8,0:0:0:0:
199,261,13533,2,0,L|295:245,1,77.5,8|8,0:0|0:0,0:0:0:0:
299,226,13781,1,2,0:0:0:0:
295,345,13947,5,8,0:0:0:0:
302,368,14030,1,8,0:0:0:0:
389,292,14196,2,0,L|485:277,1,77.5,8|8,0:0|0:0,0:0:0:0:
488,258,14444,1,8,0:0:0:0:
307,246,14610,6,0,P|302:317|368:385,2,155,12|12|0,0:0|0:0|0:0,0:0:0:0:
161,246,15439,1,2,2:0:0:0:
262,172,15605,1,12,0:0:0:0:
307,246,15770,1,2,2:0:0:0:
147,228,15936,5,12,0:0:0:0:
184,188,26544,6,0,L|76:214,1,93,12|0,0:0|0:0,0:0:0:0:
67,218,26875,1,2,0:0:0:0:
171,290,27041,1,8,0:0:0:0:
175,294,27124,1,8,0:0:0:0:
179,298,27207,2,0,L|163:354,3,31,8|8|8|8,0:0|0:0|0:0|0:0,0:0:0:0:
204,292,27538,2,0,L|264:277,1,62,2|0,0:0|0:0,0:0:0:0:
379,248,27870,6,0,L|365:308,1,62,8|0,0:0|0:0,0:0:0:0:
300,180,28201,2,0,L|285:120,1,62,2|0,0:0|0:0,0:0:0:0:
464,32,28533,1,8,0:0:0:0:
458,60,28616,1,8,0:0:0:0:
452,87,28699,1,8,0:0:0:0:
445,114,28781,1,8,0:0:0:0:
438,141,28864,1,2,0:0:0:0:
300,104,29030,1,8,0:0:0:0:
220,232,29196,6,0,L|246:340,1,93,8|0,0:0|0:0,0:0:0:0:
250,348,29527,1,2,0:0:0:0:
322,245,29693,1,8,0:0:0:0:
326,241,29776,1,8,0:0:0:0:
330,237,29859,2,0,L|386:253,3,31,8|8|8|8,0:0|0:0|0:0|0:0,0:0:0:0:
324,212,30190,2,0,L|309:152,1,62,2|8,0:0|0:0,0:0:0:0:
280,36,30522,6,0,L|340:51,1,62,8|0,0:0|0:0,0:0:0:0:
436,72,30853,1,2,0:0:0:0:
436,72,31019,1,0,0:0:0:0:
308,151,31185,1,8,0:0:0:0:
280,145,31268,1,8,0:0:0:0:
253,139,31350,1,8,0:0:0:0:
226,132,31433,1,8,0:0:0:0:
199,125,31516,2,0,L|91:99,1,93,2|8,0:0|0:0,0:0:0:0:
80,96,31848,5,12,0:0:0:0:
32,176,32013,1,8,0:0:0:0:
80,256,32179,1,2,0:0:0:0:
44,356,32345,1,8,0:0:0:0:
40,360,32428,1,0,0:0:0:0:
36,364,32511,2,0,L|96:348,1,62,8|8,0:0|0:0,0:0:0:0:
140,364,32759,1,8,0:0:0:0:
136,368,32842,2,0,L|196:353,1,62,2|8,0:0|0:0,0:0:0:0:
288,332,33174,5,12,0:0:0:0:
379,356,33339,1,8,0:0:0:0:
464,312,33505,1,2,0:0:0:0:
420,232,33671,1,8,0:0:0:0:
468,152,33837,1,8,0:0:0:0:
388,104,34002,1,8,0:0:0:0:
320,164,34168,1,2,0:0:0:0:
239,115,34334,1,8,0:0:0:0:
172,176,34500,5,12,0:0:0:0:
144,170,34583,1,8,0:0:0:0:
117,164,34665,1,8,0:0:0:0:
90,157,34748,1,8,0:0:0:0:
63,150,34831,2,0,L|7:166,3,31,8|8|8|8,0:0|0:0|0:0|0:0,0:0:0:0:
148,76,35163,2,0,L|204:92,3,31,12|8|8|8,0:0|0:0|0:0|0:0,0:0:0:0:
262,158,35494,2,0,L|318:142,3,31,8|8|8|8,0:0|0:0|0:0|0:0,0:0:0:0:
376,75,35826,5,12,0:0:0:0:
150,195,36157,1,6,0:0:0:0:
402,230,36489,1,6,0:0:0:0:
219,53,36820,1,6,0:0:0:0:
264,305,37152,5,2,0:0:0:0:
264,305,37317,1,2,0:0:0:0:
176,352,37980,5,0,0:0:0:0:
176,352,38146,2,0,L|156:272,1,69.749997871399,0|0,0:0|0:0,0:0:0:0:
132,264,38395,1,0,0:0:0:0:
132,264,38478,6,0,P|106:217|120:167,1,77.5,12|0,0:0|0:0,0:0:0:0:
130,159,38726,2,0,L|215:167,1,77.5,0|0,0:0|0:0,0:0:0:0:
239,174,38975,1,0,0:0:0:0:
356,79,39141,2,0,L|271:87,1,77.5,8|0,0:0|0:0,0:0:0:0:
254,66,39389,2,0,L|169:58,1,77.5,0|0,0:0|0:0,0:0:0:0:
150,77,39638,1,0,0:0:0:0:
239,174,39804,5,8,0:0:0:0:
356,79,39969,1,0,0:0:0:0:
356,79,40052,2,0,B|366:120|366:120|346:174,1,77.5,0|0,0:0|0:0,0:0:0:0:
336,183,40301,1,0,0:0:0:0:
440,176,40466,5,8,0:0:0:0:
392,260,40632,1,0,0:0:0:0:
324,152,40798,1,2,0:0:0:0:
455,154,40964,1,0,0:0:0:0:
389,285,41129,6,0,P|346:274|315:285,1,77.5,8|0,0:0|0:0,0:0:0:0:
286,299,41378,2,0,P|249:310|212:300,1,77.5,0|0,0:0|0:0,0:0:0:0:
187,279,41627,1,0,0:0:0:0:
352,360,41792,2,0,B|395:371|395:371|445:350,1,77.5,8|0,0:0|0:0,0:0:0:0:
452,343,42041,2,0,L|445:248,1,77.5,0|0,0:0|0:0,0:0:0:0:
429,244,42290,1,0,0:0:0:0:
310,166,42455,5,8,0:0:0:0:
212,300,42621,1,0,0:0:0:0:
212,300,42704,2,0,P|195:253|228:202,1,77.5,0|0,0:0|0:0,0:0:0:0:
223,189,42953,1,0,0:0:0:0:
310,166,43118,5,8,0:0:0:0:
207,167,43284,1,0,0:0:0:0:
280,253,43450,1,2,0:0:0:0:
324,144,43616,1,8,0:0:0:0:
131,127,43781,6,0,B|86:138|86:138|41:129,1,77.5,12|0,0:0|0:0,0:0:0:0:
42,107,44030,2,0,P|50:70|37:11,1,77.5,0|0,0:0|0:0,0:0:0:0:
19,1,44279,1,0,0:0:0:0:
140,40,44444,2,0,L|223:34,1,77.5,8|0,0:0|0:0,0:0:0:0:
246,55,44693,2,0,L|329:61,1,77.5,0|0,0:0|0:0,0:0:0:0:
362,42,44942,1,0,0:0:0:0:
303,159,45107,5,8,0:0:0:0:
409,222,45273,1,0,0:0:0:0:
409,222,45356,2,0,B|371:240|371:240|326:236,1,77.5,0|0,0:0|0:0,0:0:0:0:
295,246,45605,1,0,0:0:0:0:
311,134,45770,5,8,0:0:0:0:
216,193,45936,1,0,0:0:0:0:
320,112,46102,1,2,0:0:0:0:
147,108,46268,1,8,0:0:0:0:
184,269,46433,6,0,B|144:261|144:261|106:271,1,77.5,12|0,0:0|0:0,0:0:0:0:
76,280,46682,2,0,B|68:320|68:320|78:358,1,77.5,0|0,0:0|0:0,0:0:0:0:
100,380,46931,1,0,0:0:0:0:
216,356,47096,2,0,L|297:345,1,77.5,12|0,0:0|0:0,0:0:0:0:
326,358,47345,1,0,0:0:0:0:
326,358,47428,2,0,L|420:343,1,77.5,12|0,0:0|0:0,0:0:0:0:
487,265,47759,6,0,L|393:250,1,77.5,12|0,0:0|0:0,0:0:0:0:
399,223,48008,1,0,0:0:0:0:
399,223,48091,2,0,L|306:210,1,77.5,12|0,0:0|0:0,0:0:0:0:
272,136,48422,5,2,0:0:0:0:
220,65,48588,1,0,0:0:0:0:
96,96,48754,1,6,0:0:0:0:
141,23,48920,1,0,0:0:0:0:
188,184,49085,6,0,L|168:263,1,77.5,12|0,0:0|0:0,0:0:0:0:
140,284,49334,2,0,L|160:363,1,77.5,0|0,0:0|0:0,0:0:0:0:
192,380,49583,1,0,0:0:0:0:
284,296,49748,2,0,L|363:315,1,77.5,8|0,0:0|0:0,0:0:0:0:
384,344,49997,2,0,L|462:324,1,77.5,0|0,0:0|0:0,0:0:0:0:
480,292,50245,1,0,0:0:0:0:
399,196,50411,5,8,0:0:0:0:
468,80,50577,1,0,0:0:0:0:
468,80,50660,2,0,L|389:100,1,77.5,0|0,0:0|0:0,0:0:0:0:
356,112,50908,1,0,0:0:0:0:
272,72,51074,5,8,0:0:0:0:
296,188,51240,1,0,0:0:0:0:
200,152,51406,1,2,0:0:0:0:
368,80,51571,1,8,0:0:0:0:
436,232,51737,6,0,L|416:311,1,77.5,8|0,0:0|0:0,0:0:0:0:
424,344,51986,2,0,L|348:363,1,77.5,0|0,0:0|0:0,0:0:0:0:
303,356,52234,1,0,0:0:0:0:
244,256,52400,2,0,L|165:236,1,77.5,8|0,0:0|0:0,0:0:0:0:
144,208,52649,2,0,L|65:228,1,77.5,0|0,0:0|0:0,0:0:0:0:
48,260,52897,1,0,0:0:0:0:
152,335,53063,5,8,0:0:0:0:
264,236,53229,1,0,0:0:0:0:
264,236,53312,2,0,L|343:256,1,77.5,0|0,0:0|0:0,0:0:0:0:
376,268,53560,1,0,0:0:0:0:
464,188,53726,5,8,0:0:0:0:
345,155,53892,1,0,0:0:0:0:
448,88,54058,1,2,0:0:0:0:
408,276,54223,1,8,0:0:0:0:
248,212,54389,6,0,L|228:133,1,77.5,12|0,0:0|0:0,0:0:0:0:
200,112,54638,2,0,L|220:33,1,77.5,0|0,0:0|0:0,0:0:0:0:
252,16,54886,1,0,0:0:0:0:
344,128,55052,2,0,L|422:148,1,77.5,8|0,0:0|0:0,0:0:0:0:
455,140,55301,2,0,L|475:215,1,77.5,0|0,0:0|0:0,0:0:0:0:
484,260,55549,1,0,0:0:0:0:
332,232,55715,5,8,0:0:0:0:
244,335,55881,1,0,0:0:0:0:
244,335,55964,2,0,L|165:356,1,77.5,0|0,0:0|0:0,0:0:0:0:
132,368,56212,1,0,0:0:0:0:
40,292,56378,5,8,0:0:0:0:
120,212,56544,1,0,0:0:0:0:
4,176,56710,1,2,0:0:0:0:
152,324,56875,1,8,0:0:0:0:
240,236,57041,6,0,L|352:208,2,116.25,12|0|0,0:0|0:0|0:0,0:0:0:0:
120,212,57704,1,12,0:0:0:0:
204,348,57870,1,0,0:0:0:0:
204,348,58036,2,0,L|283:328,1,77.5,12|0,0:0|0:0,0:0:0:0:
348,244,58367,6,0,L|427:224,1,77.5,12|0,0:0|0:0,0:0:0:0:
511,272,58616,1,0,0:0:0:0:
511,272,58699,2,0,L|432:252,1,77.5,12|0,0:0|0:0,0:0:0:0:
260,208,59030,2,0,L|148:236,2,116.25,2|0|0,0:0|0:0|0:0,0:0:0:0:
360,184,59693,5,12,0:0:0:0:
360,184,60025,5,2,0:0:0:0:
336,100,60190,1,2,2:0:0:0:
291,320,61019,1,2,2:0:0:0:
291,320,61350,5,2,0:0:0:0:
206,315,61516,1,0,2:0:0:0:
250,242,61682,1,0,2:0:0:0:
163,240,61848,1,2,2:0:0:0:
119,314,62013,1,8,0:0:0:0:
80,242,62179,1,2,2:0:0:0:
207,168,62345,5,12,0:0:0:0:
207,168,62676,5,2,0:0:0:0:
124,140,62842,1,0,0:0:0:0:
352,261,63174,1,0,0:0:0:0:
369,352,63339,1,8,0:0:0:0:
369,352,63671,1,12,0:0:0:0:
369,352,64002,5,2,0:0:0:0:
352,261,64168,1,0,0:0:0:0:
336,176,64665,5,2,0:0:0:0:
333,171,64997,5,12,0:0:0:0:
328,165,65080,1,8,0:0:0:0:
321,162,65163,1,8,0:0:0:0:
314,160,65245,1,8,0:0:0:0:
307,157,65328,2,0,L|263:159,3,23.2499992904663,2|8|8|8,0:0|0:0|0:0|0:0,0:0:0:0:
271,79,65660,2,0,L|227:81,3,23.2499992904663,8|8|8|8,0:0|0:0|0:0|0:0,0:0:0:0:
352,32,65991,1,2,0:0:0:0:
187,145,66323,5,12,0:0:0:0:
187,151,66406,1,8,0:0:0:0:
186,157,66489,1,8,0:0:0:0:
185,163,66571,1,8,0:0:0:0:
183,169,66654,2,0,L|176:206,3,23.2499992904663,2|8|8|8,0:0|0:0|0:0|0:0,0:0:0:0:
101,203,66986,2,0,L|94:240,3,23.2499992904663,8|8|8|8,0:0|0:0|0:0|0:0,0:0:0:0:
25,274,67317,1,2,0:0:0:0:
228,263,67649,5,12,0:0:0:0:
234,262,67732,1,8,0:0:0:0:
240,261,67815,1,8,0:0:0:0:
246,260,67897,1,8,0:0:0:0:
261,271,67980,1,6,0:0:0:0:
267,271,68063,1,8,0:0:0:0:
273,270,68146,1,8,0:0:0:0:
279,268,68229,1,8,0:0:0:0:
285,268,68312,2,0,L|313:265,3,23.2499992904663,12|8|8|8,0:0|0:0|0:0|0:0,0:0:0:0:
346,335,68643,2,0,L|374:332,3,23.2499992904663,6|8|8|8,0:0|0:0|0:0|0:0,0:0:0:0:
383,247,68975,6,0,B|369:198|369:198|384:137,3,92.9999971618653,12|12|12|12,0:0|0:0|0:0|0:0,0:0:0:0:
404,68,70301,1,8,0:0:0:0:
271,55,72455,5,0,0:0:0:0:
243,139,72621,1,0,0:0:0:0:
271,222,72787,1,0,0:0:0:0:
216,308,72953,6,0,L|291:327,1,77.5,12|0,0:0|0:0,0:0:0:0:
440,236,73284,2,0,L|364:255,1,77.5,2|0,0:0|0:0,0:0:0:0:
251,146,73616,2,0,L|271:222,2,77.5,8|0|2,0:0|0:0|0:0,0:0:0:0:
192,32,74113,6,0,L|343:70,1,155,0|0,0:0|0:0,0:0:0:0:
368,96,74527,1,0,0:0:0:0:
368,96,74610,1,2,0:0:0:0:
448,12,74776,1,0,0:0:0:0:
504,176,74942,2,0,L|484:251,1,77.5,8|0,0:0|0:0,0:0:0:0:
364,344,75273,2,0,L|392:231,1,116.25,2|0,0:0|0:0,0:0:0:0:
399,191,75605,6,0,L|324:210,1,77.5,8|0,0:0|0:0,0:0:0:0:
176,263,75936,2,0,L|251:282,1,77.5,2|0,0:0|0:0,0:0:0:0:
296,112,76268,2,0,L|220:131,2,77.5,8|0|2,0:0|0:0|0:0,0:0:0:0:
412,72,76765,6,0,L|373:223,1,155,0|0,0:0|0:0,0:0:0:0:
392,256,77179,1,0,0:0:0:0:
392,256,77262,1,2,0:0:0:0:
284,328,77428,1,0,0:0:0:0:
284,328,77511,1,0,0:0:0:0:
284,328,77594,1,8,0:0:0:0:
208,192,77759,5,0,0:0:0:0:
120,220,77925,1,2,0:0:0:0:
188,284,78091,1,8,0:0:0:0:
296,164,78257,6,0,L|315:88,1,77.5,12|0,0:0|0:0,0:0:0:0:
488,48,78588,2,0,L|412:67,1,77.5,2|0,0:0|0:0,0:0:0:0:
232,32,78920,2,0,L|156:51,2,77.5,8|0|2,0:0|0:0|0:0,0:0:0:0:
340,0,79417,6,0,L|300:151,1,155,0|0,0:0|0:0,0:0:0:0:
276,176,79831,1,0,0:0:0:0:
276,176,79914,1,2,0:0:0:0:
404,144,80080,1,0,0:0:0:0:
344,256,80245,1,8,0:0:0:0:
472,288,80411,1,0,0:0:0:0:
288,344,80577,2,0,L|175:372,1,116.25,2|0,0:0|0:0,0:0:0:0:
135,380,80908,6,0,L|154:304,1,77.5,12|0,0:0|0:0,0:0:0:0:
176,208,81240,1,2,0:0:0:0:
176,208,81406,1,0,0:0:0:0:
288,240,81571,2,0,L|269:164,1,77.5,12|0,0:0|0:0,0:0:0:0:
247,68,81903,1,6,0:0:0:0:
247,68,82069,1,0,0:0:0:0:
176,208,82234,6,0,L|100:189,1,77.5,12|0,0:0|0:0,0:0:0:0:
296,268,82566,2,0,L|372:248,1,77.5,6|0,0:0|0:0,0:0:0:0:
184,340,82897,1,8,0:0:0:0:
184,340,83229,5,2,0:0:0:0:
296,268,83395,1,0,0:0:0:0:
152,223,83560,6,0,L|52:240,1,77.5,12|0,0:0|0:0,0:0:0:0:
210,122,83892,2,0,L|310:139,1,77.5,2|0,0:0|0:0,0:0:0:0:
256,232,84223,1,8,0:0:0:0:
256,232,84389,1,0,0:0:0:0:
108,124,84555,1,2,0:0:0:0:
290,18,84721,6,0,L|286:145,1,116.25,0|0,0:0|0:0,0:0:0:0:
302,163,85052,1,0,0:0:0:0:
376,76,85218,2,0,L|455:68,1,77.5,2|0,0:0|0:0,0:0:0:0:
379,170,85549,2,0,L|301:162,1,77.5,8|0,0:0|0:0,0:0:0:0:
369,263,85881,2,0,L|488:251,1,116.25,2|0,0:0|0:0,0:0:0:0:
498,271,86212,6,0,P|485:321|503:355,1,77.5,8|0,0:0|0:0,0:0:0:0:
487,167,86544,2,0,P|500:117|483:83,1,77.5,2|0,0:0|0:0,0:0:0:0:
392,176,86875,1,8,0:0:0:0:
392,176,87041,1,0,0:0:0:0:
472,272,87207,1,2,0:0:0:0:
367,378,87373,6,0,P|354:319|369:232,1,116.25,0|0,0:0|0:0,0:0:0:0:
342,240,87704,1,0,0:0:0:0:
409,141,87870,1,2,0:0:0:0:
484,251,88036,1,0,0:0:0:0:
316,144,88201,2,0,L|212:146,1,77.5,8|0,0:0|0:0,0:0:0:0:
218,133,88450,1,0,0:0:0:0:
218,133,88533,1,2,0:0:0:0:
246,246,88699,1,8,0:0:0:0:
272,60,88864,5,12,0:0:0:0:
256,48,88947,1,8,0:0:0:0:
236,43,89030,1,8,0:0:0:0:
216,42,89113,1,8,0:0:0:0:
192,42,89196,2,0,L|147:40,3,38.75,2|8|8|8,0:0|0:0|0:0|0:0,0:0:0:0:
154,119,89527,6,0,L|109:117,1,38.75,8|8,0:0|0:0,0:0:0:0:
123,196,89693,2,0,L|78:194,1,38.75,8|8,0:0|0:0,0:0:0:0:
220,194,89859,2,0,B|260:187|260:187|310:198,1,77.5,6|0,0:0|0:0,0:0:0:0:
181,280,90190,5,12,0:0:0:0:
181,299,90273,1,8,0:0:0:0:
181,318,90356,1,8,0:0:0:0:
181,337,90439,1,8,0:0:0:0:
181,356,90522,2,0,L|131:344,3,38.75,2|8|8|8,0:0|0:0|0:0|0:0,0:0:0:0:
262,309,90853,6,0,L|312:297,1,38.75,8|8,0:0|0:0,0:0:0:0:
367,358,91019,2,0,L|417:371,1,38.75,8|8,0:0|0:0,0:0:0:0:
339,220,91185,1,6,0:0:0:0:
339,220,91516,5,12,0:0:0:0:
333,197,91599,1,8,0:0:0:0:
327,174,91682,1,8,0:0:0:0:
322,150,91765,1,8,0:0:0:0:
346,119,91848,1,12,0:0:0:0:
340,96,91931,1,8,0:0:0:0:
334,73,92013,1,8,0:0:0:0:
329,49,92096,1,8,0:0:0:0:
322,26,92179,6,0,L|277:43,3,38.75,12|8|8|8,0:0|0:0|0:0|0:0,0:0:0:0:
238,108,92511,2,0,L|193:91,1,38.75,12|8,0:0|0:0,0:0:0:0:
150,31,92676,2,0,L|105:48,1,38.75,8|8,0:0|0:0,0:0:0:0:
152,176,92842,6,0,L|68:179,1,77.5,8|0,0:0|0:0,0:0:0:0:
151,261,93174,1,8,0:0:0:0:
228,215,93339,1,0,0:0:0:0:
228,311,93505,2,0,B|154:289|154:289|80:311,1,155,8|2,0:0|0:0,0:0:0:0:
80,311,94168,5,12,0:0:0:0:
256,192,94251,12,0,98809,0:0:0:0:
