osu file format v14

[General]
AudioFilename: audio.mp3
AudioLeadIn: 0
PreviewTime: 69453
Countdown: 1
SampleSet: Soft
StackLeniency: 0.4
Mode: 0
LetterboxInBreaks: 0
WidescreenStoryboard: 0

[Editor]
Bookmarks: 8458,12436,15088,25696,33652,37630,48237,58845,64149,72105,82712,93320
DistanceSpacing: 0.53
BeatDivisor: 8
GridSize: 8
TimelineZoom: 2.1

[Metadata]
Title:I'm so Happy
TitleUnicode:I'm so Happy
Artist:Ryu*
ArtistUnicode:Ryu☆
Creator:Thexo
Version:Joy
Source:SOUND VOLTEX II -infinite infection-
Tags:
BeatmapID:1681125
BeatmapSetID:800778

[Difficulty]
HPDrainRate:5
CircleSize:3.8
OverallDifficulty:8
ApproachRate:9.4
SliderMultiplier:1.95
SliderTickRate:1

[Events]
//Background and Video events
0,0,"68766284_p0.jpg",0,0
//Break Periods
//Storyboard Layer 0 (Background)
//Storyboard Layer 1 (Fail)
//Storyboard Layer 2 (Pass)
//Storyboard Layer 3 (Foreground)
//Storyboard Sound Samples

[TimingPoints]
503,331.491712707182,4,2,0,50,1,0
834,-66.6666666666667,4,2,0,50,0,0
3154,-100,4,2,0,50,0,0
3817,-133.333333333333,4,2,0,50,0,0
4480,-100,4,2,0,50,0,0
5143,-80,4,2,0,50,0,0
5806,-100,4,2,0,50,0,0
7132,-66.6666666666667,4,2,0,50,0,0
8458,-100,4,2,0,50,0,0
11110,-80,4,2,0,50,0,0
13762,-181.818181818182,4,2,0,50,0,0
15088,-80,4,2,0,50,0,0
16414,-133.333333333333,4,2,0,50,0,0
23044,-100,4,2,0,50,0,0
25364,-57.1428571428571,4,2,0,50,0,0
25696,-66.6666666666667,4,2,0,50,0,0
27353,-100,4,2,0,50,0,0
28348,-66.6666666666667,4,2,0,50,0,0
28679,-133.333333333333,4,2,0,50,0,0
30668,-80,4,2,0,50,0,0
33652,-57.1428571428571,4,2,0,50,0,0
36635,-100,4,2,0,50,0,0
37630,-100,4,2,0,50,0,0
38624,-80,4,2,0,50,0,0
39784,-322.58064516129,4,2,0,50,0,0
39950,-66.6666666666667,4,2,0,50,0,0
40116,-161.290322580645,4,2,0,50,0,0
40282,-80,4,2,0,50,0,0
41273,-66.6666666666667,4,2,0,50,0,0
41607,-80,4,2,0,50,0,0
43928,-66.6666666666667,4,2,0,50,0,0
44259,-80,4,2,0,50,0,0
45088,-312.5,4,2,0,50,0,0
45254,-57.1428571428571,4,2,0,50,0,0
45420,-161.290322580645,4,2,0,50,0,0
45585,-50,4,2,0,50,0,0
45917,-100,4,2,0,50,0,0
46248,-50,4,2,0,50,0,0
46580,-100,4,2,0,50,0,0
46911,-50,4,2,0,50,0,0
47243,-100,4,2,0,50,0,0
47906,-66.6666666666667,4,2,0,50,0,0
48237,-71.4285714285714,4,2,0,50,0,1
48569,-166.666666666667,4,2,0,50,0,1
48735,-133.333333333333,4,2,0,50,0,1
48900,-111.111111111111,4,2,0,50,0,1
49066,-95.2380952380952,4,2,0,50,0,1
49232,-83.3333333333333,4,2,0,50,0,1
49398,-74.0740740740741,4,2,0,50,0,1
49563,-333.333333333333,4,2,0,50,0,1
50226,-44.4444444444445,4,2,0,50,0,1
50889,-200,4,2,0,50,0,1
51055,-133.333333333333,4,2,0,50,0,1
51221,-100,4,2,0,50,0,1
51386,-80,4,2,0,50,0,1
51552,-66.6666666666667,4,2,0,50,0,1
51718,-57.1428571428571,4,2,0,50,0,1
51884,-50,4,2,0,50,0,1
52049,-44.4444444444445,4,2,0,50,0,1
52878,-50,4,2,0,50,0,1
53541,-200,4,2,0,50,0,1
53873,-125,4,2,0,50,0,1
54204,-90.9090909090909,4,2,0,50,0,1
54536,-71.4285714285714,4,2,0,50,0,1
55530,-50,4,2,0,50,0,1
56193,-83.3333333333333,4,2,0,50,0,1
58514,-50,4,2,0,50,0,1
58845,-50,4,2,0,50,0,0
59177,-200,4,2,0,50,0,0
59508,-100,4,2,0,50,0,0
59840,-66.6666666666667,4,2,0,50,0,0
60171,-80,4,2,0,50,0,0
60502,-133.333333333333,4,2,0,50,0,0
61165,-66.6666666666667,4,2,0,50,0,0
61828,-133.333333333333,4,2,0,50,0,0
62160,-200,4,2,0,50,0,0
62491,-100,4,2,0,50,0,0
62823,-66.6666666666667,4,2,0,50,0,0
63154,-133.333333333333,4,2,0,50,0,0
63817,-40,4,2,0,50,0,0
66801,-55.5555555555556,4,2,0,50,0,0
68127,-50,4,2,0,50,0,0
72105,-76.9230769230769,4,2,0,50,0,0
72436,-71.4285714285714,4,2,0,50,0,0
72768,-66.6666666666667,4,2,0,50,0,0
73431,-76.9230769230769,4,2,0,50,0,0
73762,-71.4285714285714,4,2,0,50,0,0
74094,-200,4,2,0,50,0,0
74425,-76.9230769230769,4,2,0,50,0,0
75088,-71.4285714285714,4,2,0,50,0,0
75420,-66.6666666666667,4,2,0,50,0,0
76083,-71.4285714285714,4,2,0,50,0,0
76414,-133.333333333333,4,2,0,50,0,0
76746,-66.6666666666667,4,2,0,50,0,0
77409,-76.9230769230769,4,2,0,50,0,0
77740,-71.4285714285714,4,2,0,50,0,0
78072,-66.6666666666667,4,2,0,50,0,0
78735,-76.9230769230769,4,2,0,50,0,0
80723,-71.4285714285714,4,2,0,50,0,0
81055,-66.6666666666667,4,2,0,50,0,0
81386,-62.5,4,2,0,50,0,0
81718,-58.8235294117647,4,2,0,50,0,0
82381,-50,4,2,0,50,0,0
82712,-71.4285714285714,4,2,0,50,0,0
83044,-66.6666666666667,4,2,0,50,0,0
83707,-50,4,2,0,50,0,0
84038,-100,4,2,0,50,0,0
84370,-83.3333333333333,4,2,0,50,0,0
85696,-71.4285714285714,4,2,0,50,0,0
86359,-50,4,2,0,50,0,0
86690,-100,4,2,0,50,0,0
87022,-83.3333333333333,4,2,0,50,0,0
87685,-50,4,2,0,50,0,0
88016,-66.6666666666667,4,2,0,50,0,0
90668,-50,4,2,0,50,0,0
91000,-100,4,2,0,50,0,0
91331,-50,4,2,0,50,0,0
91663,-44.4444444444445,4,2,0,50,0,0
91994,-50,4,2,0,50,0,0
92989,-200,4,2,0,50,0,0
93320,-40,4,2,0,50,0,0

[Colours]
Combo1 : 91,185,103
Combo2 : 255,113,45
Combo3 : 122,114,158

[HitObjects]
143,76,503,6,0,L|138:137,1,48.75
132,93,668,2,0,L|127:154,1,48.75
213,24,834,6,0,L|375:15,1,146.250005578995
299,243,1165,1,0,0:0:0:0:
291,171,1248,1,0,0:0:0:0:
247,115,1330,1,0,0:0:0:0:
228,116,1497,6,0,L|375:108,1,146.250005578995
212,207,1828,6,0,P|193:210|174:215,4,36.5625013947487
347,314,2077,1,0,0:0:0:0:
358,324,2160,2,0,P|377:327|396:332,4,36.5625013947487
187,354,2409,1,0,0:0:0:0:
179,360,2491,2,0,L|32:368,1,146.250005578995
250,294,2823,1,0,0:0:0:0:
35,24,3154,6,0,P|17:78|15:131,1,97.5
100,141,3486,2,0,P|106:197|127:246,1,97.5
114,57,3817,6,0,P|137:49|159:53,1,36.5625013947487
166,58,3983,1,0,0:0:0:0:
179,73,4066,1,0,0:0:0:0:
259,253,4232,1,0,0:0:0:0:
259,253,4315,1,0,0:0:0:0:
322,57,4480,6,0,P|331:134|321:173,1,97.5
317,163,4729,1,0,0:0:0:0:
419,19,4895,1,0,0:0:0:0:
419,19,4978,1,0,0:0:0:0:
454,223,5143,6,0,L|444:298,1,60.9375
465,244,5309,2,0,L|455:319,1,60.9375
365,371,5475,1,0,0:0:0:0:
334,369,5558,1,0,0:0:0:0:
295,350,5641,1,0,0:0:0:0:
269,302,5723,1,0,0:0:0:0:
227,230,5806,6,0,P|176:223|122:242,1,97.5
84,144,6138,2,0,P|34:128|-6:88,1,97.5
261,129,6469,2,0,P|310:113|351:73,1,97.5
248,134,6718,1,0,0:0:0:0:
366,0,6884,1,0,0:0:0:0:
366,0,6967,1,0,0:0:0:0:
193,27,7132,6,0,L|147:262,1,219.375008368492
375,170,7464,2,0,L|148:247,1,219.375008368492
348,384,7795,2,0,L|167:226,1,219.375008368492
199,241,8127,2,0,L|186:313,3,73.1250027894975
97,365,8458,6,0,P|73:328|69:254,1,97.5
132,171,8790,2,0,P|156:134|160:60,1,97.5
42,168,9121,6,0,L|46:287,1,97.5
53,272,9370,1,0,0:0:0:0:
8,206,9453,1,0,0:0:0:0:
18,182,9536,1,0,0:0:0:0:
42,168,9619,1,0,0:0:0:0:
250,146,9784,6,0,L|357:141,1,97.5
366,125,10033,1,0,0:0:0:0:
323,185,10116,2,0,L|318:239,1,48.75
332,258,10282,1,0,0:0:0:0:
441,352,10447,2,0,P|452:319|450:250,1,97.5
436,238,10696,1,0,0:0:0:0:
364,349,10779,2,0,L|428:340,1,48.75
440,350,10944,1,0,0:0:0:0:
180,258,11110,6,0,P|168:317|133:366,1,121.875
138,125,11442,2,0,P|81:144|21:138,1,121.875
276,152,11773,2,0,P|300:208|346:248,1,121.875
489,156,12105,1,0,0:0:0:0:
467,99,12187,1,0,0:0:0:0:
421,59,12270,1,0,0:0:0:0:
363,44,12353,1,0,0:0:0:0:
296,77,12436,5,0,0:0:0:0:
296,77,12519,1,0,0:0:0:0:
200,206,12685,5,0,0:0:0:0:
226,267,12767,1,0,0:0:0:0:
181,323,12850,1,0,0:0:0:0:
228,384,12933,1,0,0:0:0:0:
103,224,13099,5,0,0:0:0:0:
121,146,13182,1,0,0:0:0:0:
45,340,13348,1,0,0:0:0:0:
31,346,13431,2,0,L|-1:331,4,30.46875
196,32,13762,6,0,P|221:24|248:22,1,53.6250016365052
461,251,14094,2,0,P|435:243|408:241,1,53.6250016365052
235,246,14425,1,0,0:0:0:0:
219,257,14507,1,0,0:0:0:0:
207,272,14590,1,0,0:0:0:0:
198,290,14673,1,0,0:0:0:0:
197,366,14757,2,0,P|222:364|252:360,1,53.6250016365052
360,141,15088,6,0,P|252:143|107:157,1,243.75
116,155,16414,1,0,0:0:0:0:
359,358,17243,1,0,0:0:0:0:
331,282,17409,1,0,0:0:0:0:
394,232,17575,1,0,0:0:0:0:
460,277,17740,6,0,P|482:207|466:137,1,146.250005578995
466,137,19066,1,0,0:0:0:0:
408,84,20061,1,0,0:0:0:0:
241,351,20392,6,0,P|225:280|246:211,1,146.250005578995
246,211,22712,1,0,0:0:0:0:
317,133,23044,6,0,P|227:107|152:164,1,195
256,192,24370,12,0,25282,0:0:0:0:
83,86,25364,6,0,B|61:165|61:165|86:313,1,227.500002169609
83,86,25696,6,0,P|137:63|243:71,1,146.250005578995
37,158,26027,1,0,0:0:0:0:
252,71,26193,1,0,0:0:0:0:
277,96,26275,1,0,0:0:0:0:
286,131,26358,1,0,0:0:0:0:
276,166,26441,1,0,0:0:0:0:
251,192,26524,1,0,0:0:0:0:
226,206,26607,5,0,0:0:0:0:
211,229,26690,1,0,0:0:0:0:
207,256,26773,1,0,0:0:0:0:
213,282,26856,1,0,0:0:0:0:
224,306,26939,1,0,0:0:0:0:
293,262,27022,6,0,L|389:278,2,97.50000371933
200,134,27353,6,0,L|103:150,2,65
354,93,27685,6,0,L|450:109,2,65
195,52,28016,5,0,0:0:0:0:
165,45,28098,1,0,0:0:0:0:
135,47,28181,1,0,0:0:0:0:
107,59,28264,1,0,0:0:0:0:
60,125,28348,6,0,P|55:197|81:265,1,146.250005578995
182,384,28679,6,0,P|187:339|180:297,1,73.1250027894975
150,186,28928,1,0,0:0:0:0:
141,180,29011,2,0,L|220:174,1,73.1250027894975
279,263,29342,1,0,0:0:0:0:
287,56,29508,1,0,0:0:0:0:
479,179,29674,5,0,0:0:0:0:
443,187,29756,1,0,0:0:0:0:
406,188,29839,1,0,0:0:0:0:
371,181,29922,1,0,0:0:0:0:
337,168,30005,1,0,0:0:0:0:
302,155,30087,1,0,0:0:0:0:
266,150,30170,1,0,0:0:0:0:
230,151,30253,1,0,0:0:0:0:
194,160,30337,5,0,0:0:0:0:
199,208,30419,1,0,0:0:0:0:
232,247,30502,1,0,0:0:0:0:
279,263,30585,1,0,0:0:0:0:
327,252,30668,2,0,P|340:211|338:109,1,121.875
131,43,31000,6,0,P|118:84|120:186,1,121.875
217,0,31331,1,0,0:0:0:0:
31,108,31497,1,0,0:0:0:0:
25,150,31579,1,0,0:0:0:0:
20,193,31662,1,0,0:0:0:0:
144,369,31828,1,0,0:0:0:0:
149,326,31911,1,0,0:0:0:0:
155,284,31993,1,0,0:0:0:0:
239,145,32160,1,0,0:0:0:0:
359,18,32326,6,0,P|372:73|364:157,1,121.875
289,257,32657,1,0,0:0:0:0:
239,145,32823,1,0,0:0:0:0:
416,76,32989,1,0,0:0:0:0:
460,84,33071,1,0,0:0:0:0:
489,117,33154,1,0,0:0:0:0:
492,162,33237,1,0,0:0:0:0:
467,199,33320,1,0,0:0:0:0:
247,328,33486,1,0,0:0:0:0:
227,322,33569,1,0,0:0:0:0:
207,314,33652,6,0,P|166:285|173:15,1,341.250003254414
10,244,34315,2,0,P|171:217|241:68,1,341.250003254414
443,23,34978,6,0,L|472:226,1,170.625001627207
354,114,35309,6,0,L|330:305,1,170.625001627207
246,178,35641,6,0,L|172:356,1,170.625001627207
122,213,35972,6,0,L|5:366,1,170.625001627207
164,32,36304,5,0,0:0:0:0:
164,32,36469,1,0,0:0:0:0:
263,363,36635,1,0,0:0:0:0:
473,30,37630,6,0,P|403:37|343:56,1,97.5
346,67,37878,1,0,0:0:0:0:
320,96,37961,1,0,0:0:0:0:
478,185,38127,1,0,0:0:0:0:
264,20,38293,2,0,P|216:9|167:6,1,97.5
129,15,38541,1,0,0:0:0:0:
77,72,38624,6,0,L|79:224,1,121.875
277,334,38956,6,0,P|156:324|133:307,1,121.875
121,294,39204,1,0,0:0:0:0:
167,278,39287,1,0,0:0:0:0:
373,384,39453,1,0,0:0:0:0:
264,222,39619,2,0,L|270:153,1,60.9375
324,90,39784,6,0,L|322:105,1,15.1124994004441
239,231,39950,6,0,L|247:138,1,73.1250027894975
339,76,40116,6,0,L|334:118,1,30.2249988008881
440,316,40282,6,0,P|452:257|442:196,1,121.875
409,199,40530,1,0,0:0:0:0:
438,214,40613,1,0,0:0:0:0:
512,73,40779,1,0,0:0:0:0:
287,15,40944,2,0,P|213:16|147:45,1,121.875
155,51,41193,1,0,0:0:0:0:
110,121,41276,6,0,L|103:286,1,146.250005578995
5,365,41607,6,0,L|11:218,1,121.875
26,213,41856,1,0,0:0:0:0:
30,179,41939,1,0,0:0:0:0:
0,53,42105,1,0,0:0:0:0:
0,53,42188,1,0,0:0:0:0:
0,53,42270,2,0,L|68:46,1,60.9375
271,94,42436,5,0,0:0:0:0:
325,116,42518,1,0,0:0:0:0:
365,162,42602,1,0,0:0:0:0:
293,178,42684,1,0,0:0:0:0:
224,148,42767,1,0,0:0:0:0:
188,84,42850,1,0,0:0:0:0:
197,8,42933,6,0,P|166:55|156:128,1,121.875
231,229,43182,1,0,0:0:0:0:
229,255,43265,2,0,L|220:403,1,121.875
370,363,43596,2,0,P|446:331|475:281,1,121.875
465,280,43845,1,0,0:0:0:0:
430,202,43928,6,0,L|439:44,1,146.250005578995
336,150,44259,6,0,P|329:233|296:293,1,121.875
279,266,44508,1,0,0:0:0:0:
308,249,44591,1,0,0:0:0:0:
365,371,44757,1,0,0:0:0:0:
153,188,44922,6,0,P|160:147|173:127,1,60.9375
195,259,45088,6,0,L|171:267,1,15.6
128,147,45254,6,0,P|146:108|195:65,1,85.3125008136034
185,286,45420,6,0,L|154:296,1,30.2249988008881
43,107,45585,6,0,B|14:78|14:78|16:248,1,195
14,133,45917,6,0,P|17:182|15:231,1,97.5
242,23,46248,6,0,B|271:-6|271:-6|269:164,1,195
269,49,46580,6,0,P|266:98|269:147,1,97.5
365,159,46911,6,0,B|394:130|394:130|392:300,1,195
392,185,47243,6,0,P|389:234|392:283,1,97.5
475,80,47574,1,0,0:0:0:0:
311,337,47740,1,0,0:0:0:0:
395,39,47906,6,0,P|396:108|392:186,1,146.250005578995
52,112,48237,6,0,P|126:113|198:140,1,136.499995834351
175,343,48569,6,0,P|174:328|170:312,1,29.2499991073609
231,247,48735,6,0,P|231:227|237:207,1,36.5625013947487
181,143,48900,6,0,P|179:121|173:100,1,43.8749986610413
246,50,49066,6,0,P|247:23|254:-1,1,51.1874984378815
299,150,49232,6,0,P|308:121|323:96,1,58.4999982147217
313,282,49398,6,0,P|331:254|355:231,1,65.8125002510548
101,239,49563,6,0,P|88:229|81:226,1,14.6249995536804
410,144,49729,2,0,P|423:154|430:157,1,14.6249995536804
94,198,49895,6,0,P|84:184|78:180,1,14.6249995536804
417,185,50061,2,0,P|427:199|433:203,1,14.6249995536804
151,363,50226,6,0,P|256:333|364:345,1,219.375008368492
361,21,50558,2,0,P|255:50|147:38,1,219.375008368492
455,354,50889,6,0,P|468:341|476:337,1,24.375
446,239,51055,6,0,P|452:205|461:188,1,36.5625013947487
364,152,51221,6,0,P|347:115|345:93,1,48.75
243,102,51386,6,0,P|208:81|194:64,1,60.9375
121,141,51552,6,0,P|74:143|49:137,1,73.1250027894975
70,245,51718,6,0,P|26:279|-1:290,1,85.3125008136034
176,234,51884,6,0,P|216:288|246:310,1,97.5
375,356,52049,6,0,P|346:284|320:251,1,109.687504184246
90,113,52215,1,0,0:0:0:0:
143,124,52297,1,0,0:0:0:0:
198,124,52380,1,0,0:0:0:0:
251,111,52463,1,0,0:0:0:0:
300,87,52547,1,0,0:0:0:0:
353,74,52629,1,0,0:0:0:0:
408,72,52712,1,0,0:0:0:0:
462,83,52795,1,0,0:0:0:0:
508,110,52878,6,0,B|527:93|527:93|502:304,1,195
375,364,53210,2,0,B|356:381|356:381|380:169,1,195
315,19,53541,6,0,P|311:50|310:53,1,24.375
236,147,53707,2,0,P|240:116|241:113,1,24.375
292,250,53873,6,0,P|288:275|275:298,1,39
189,384,54038,2,0,P|181:365|179:346,1,39
136,190,54204,6,0,P|127:146|110:118,1,53.6250016365052
43,320,54370,2,0,P|52:364|69:392,1,53.6250016365052
185,79,54536,6,0,P|183:26|171:8,1,68.2499979171753
20,168,54701,2,0,P|22:221|34:239,1,68.2499979171753
274,293,54867,1,0,0:0:0:0:
211,258,54978,1,0,0:0:0:0:
273,219,55088,1,0,0:0:0:0:
275,367,55199,5,0,0:0:0:0:
212,332,55310,1,0,0:0:0:0:
274,293,55420,1,0,0:0:0:0:
338,328,55530,6,0,B|373:346|396:373|396:373|441:273|405:160,1,292.5
207,183,55862,2,0,B|172:165|149:138|149:138|104:238|140:351,1,292.5
74,117,56193,6,0,P|123:63|185:71,1,116.999996429443
227,108,56442,1,0,0:0:0:0:
227,108,56525,1,0,0:0:0:0:
46,248,56690,2,0,L|44:189,1,58.4999982147217
56,352,56856,2,0,P|174:327|209:331,1,116.999996429443
456,352,57188,2,0,P|337:327|302:331,1,116.999996429443
507,264,57519,5,0,0:0:0:0:
272,355,57685,1,0,0:0:0:0:
330,96,57851,1,0,0:0:0:0:
417,376,58016,1,0,0:0:0:0:
421,180,58182,1,0,0:0:0:0:
442,106,58265,1,0,0:0:0:0:
460,26,58348,5,0,0:0:0:0:
417,103,58430,1,0,0:0:0:0:
374,180,58514,2,0,B|326:187|326:187|281:210|281:210|234:185|234:185|190:179,1,195
178,74,58845,6,0,P|86:116|160:275,1,292.5
134,269,59177,6,0,P|92:241|73:207,1,73.125
246,279,59508,6,0,P|330:303|365:384,1,146.25
365,384,59840,6,0,P|330:303|199:296,1,219.375008368492
267,376,60171,6,0,P|297:283|387:236,1,182.8125
365,239,60502,6,0,P|299:281|270:330,1,109.687504184246
187,364,60834,2,0,P|150:368|114:369,1,73.1250027894975
26,212,61165,6,0,P|111:200|209:301,1,219.375008368492
204,139,61497,2,0,P|119:127|21:228,1,219.375008368492
70,111,61828,6,0,P|141:92|195:100,1,109.687504184246
76,186,62160,6,0,P|56:218|45:260,1,73.125
159,208,62491,6,0,P|260:197|287:147,1,146.25
351,46,62823,6,0,P|326:151|258:237,1,219.375008368492
357,126,63154,6,0,P|406:119|475:141,1,109.687504184246
360,351,63486,1,0,0:0:0:0:
118,169,63817,6,0,B|90:221|127:271|127:271|153:315|136:377|136:377|152:358,1,243.75
268,66,64149,5,0,0:0:0:0:
316,24,64231,1,0,0:0:0:0:
379,32,64314,1,0,0:0:0:0:
415,84,64397,1,0,0:0:0:0:
400,146,64480,1,0,0:0:0:0:
342,175,64562,1,0,0:0:0:0:
277,170,64645,1,0,0:0:0:0:
224,133,64728,1,0,0:0:0:0:
196,73,64812,5,0,0:0:0:0:
147,32,64894,1,0,0:0:0:0:
83,32,64977,1,0,0:0:0:0:
34,74,65060,1,0,0:0:0:0:
24,137,65143,2,0,B|40:118|40:118|23:180|49:224|49:224|86:274|59:327,1,243.75
227,363,65475,5,0,0:0:0:0:
290,373,65557,1,0,0:0:0:0:
349,346,65640,1,0,0:0:0:0:
383,290,65723,1,0,0:0:0:0:
379,225,65806,1,0,0:0:0:0:
325,189,65888,1,0,0:0:0:0:
305,128,65971,1,0,0:0:0:0:
325,67,66054,1,0,0:0:0:0:
377,27,66138,5,0,0:0:0:0:
397,88,66220,1,0,0:0:0:0:
371,147,66303,1,0,0:0:0:0:
310,172,66386,1,0,0:0:0:0:
264,125,66469,2,0,B|283:109|283:109|221:126|177:100|177:100|127:63|74:90,1,243.75
87,186,66801,6,0,P|73:236|71:271,3,87.7499973220826
188,249,67132,2,0,P|202:299|204:334,3,87.7499973220826
184,148,67464,2,0,P|187:104|199:62,3,87.7499973220826
316,85,67795,2,0,P|312:41|300:0,3,87.7499973220826
395,73,68127,6,0,B|418:157|338:245|338:245|340:180|269:154,1,292.5
243,245,68458,2,0,P|332:344|437:263,1,292.5
52,335,68790,6,0,B|29:251|109:163|109:163|107:228|178:254,1,292.5
203,161,69121,2,0,P|113:62|9:145,1,292.5
340,256,69453,6,0,B|281:207|323:124|323:124|414:152|412:225|412:225|411:185|449:128,1,390
477,19,72105,6,0,P|491:94|447:156,1,126.749994197846
352,224,72436,6,0,P|338:299|382:361,1,136.499995834351
393,72,72768,6,0,L|228:88,1,146.250005578995
165,215,73099,2,0,P|150:261|151:322,1,73.1250027894975
86,87,73265,2,0,P|59:127|44:186,1,73.1250027894975
20,384,73431,6,0,P|5:322|11:259,1,126.749994197846
158,135,73762,6,0,P|173:68|166:1,1,136.499995834351
240,186,74094,6,0,L|245:254,1,48.75
459,335,74425,5,0,0:0:0:0:
368,341,74535,5,0,0:0:0:0:
277,347,74645,5,0,0:0:0:0:
186,353,74757,6,0,P|157:297|165:209,1,126.749994197846
293,13,75088,6,0,P|322:69|314:157,1,136.499995834351
57,280,75420,6,0,P|54:216|98:139,1,146.250005578995
238,87,75751,2,0,P|202:79|169:66,1,73.1250027894975
374,44,75917,2,0,P|409:51|443:65,1,73.1250027894975
338,140,76083,6,0,P|357:204|336:268,1,136.499995834351
242,336,76414,6,0,P|233:363|230:387,3,36.5625013947487
239,203,76746,6,0,P|248:230|251:254,7,36.5625013947487
136,194,77077,2,0,P|145:153|197:121,1,73.1250027894975
155,320,77243,2,0,P|148:355|124:382,1,73.1250027894975
33,264,77409,6,0,L|24:128,1,126.749994197846
175,5,77740,6,0,L|166:141,1,136.499995834351
331,375,78072,6,0,L|320:229,1,146.250005578995
500,17,78403,2,0,L|491:138,1,73.1250027894975
486,210,78569,2,0,L|477:331,1,73.1250027894975
398,106,78735,6,0,P|339:82|277:82,1,126.749994197846
134,159,79066,5,0,0:0:0:0:
80,225,79148,1,0,0:0:0:0:
83,310,79231,1,0,0:0:0:0:
141,373,79314,1,0,0:0:0:0:
226,383,79397,1,0,0:0:0:0:
134,159,79563,5,0,0:0:0:0:
318,159,79729,5,0,0:0:0:0:
372,225,79811,1,0,0:0:0:0:
369,310,79894,1,0,0:0:0:0:
311,373,79977,1,0,0:0:0:0:
226,383,80061,6,0,P|217:317|235:240,1,126.749994197846
397,133,80392,1,0,0:0:0:0:
397,133,80558,1,0,0:0:0:0:
209,384,80723,6,0,P|200:318|218:241,1,136.499995834351
306,12,81055,6,0,P|315:78|297:155,1,146.250005578995
125,224,81386,6,0,P|68:251|9:341,1,156
284,154,81718,6,0,P|344:171|416:251,1,165.75000316143
456,384,82049,1,0,0:0:0:0:
283,304,82215,1,0,0:0:0:0:
210,23,82381,6,0,B|191:124|191:124|215:239,1,195
461,139,82712,2,0,P|422:109|383:100,1,68.2499979171753
276,123,82837,1,0,0:0:0:0:
380,365,83044,6,0,P|369:293|407:227,1,146.250005578995
469,34,83375,1,0,0:0:0:0:
396,24,83457,1,0,0:0:0:0:
323,29,83540,1,0,0:0:0:0:
253,48,83623,1,0,0:0:0:0:
198,119,83707,6,0,B|181:216|181:216|206:312,1,195
117,268,84038,6,0,B|103:221|103:221|113:162,1,97.5
27,17,84370,6,0,P|12:76|27:139,1,116.999996429443
118,336,84702,1,0,0:0:0:0:
122,263,84784,1,0,0:0:0:0:
126,190,84867,1,0,0:0:0:0:
131,117,84950,1,0,0:0:0:0:
135,44,85033,1,0,0:0:0:0:
109,348,85364,6,0,P|167:360|237:338,1,116.999996429443
343,245,85696,6,0,P|420:241|497:277,1,136.499995834351
254,183,86027,2,0,P|243:144|273:86,2,90.9999972229005
439,359,86359,6,0,B|459:262|459:262|437:168,1,195
386,0,86690,6,0,L|365:100,1,97.5
310,328,87022,6,0,L|287:214,1,116.999996429443
120,141,87353,1,0,0:0:0:0:
120,0,87464,1,0,0:0:0:0:
242,71,87574,1,0,0:0:0:0:
120,141,87685,6,0,B|136:184|136:184|112:340,1,195
55,191,88016,6,0,L|18:97,3,73.1250027894975
44,267,88348,2,0,L|32:339,3,73.1250027894975
114,240,88679,2,0,L|182:214,3,73.1250027894975
227,137,89011,1,0,0:0:0:0:
299,131,89093,1,0,0:0:0:0:
368,152,89176,1,0,0:0:0:0:
424,199,89259,1,0,0:0:0:0:
459,263,89342,6,0,L|471:335,3,73.1250027894975
374,376,89674,2,0,L|386:304,3,73.1250027894975
289,261,90005,2,0,L|301:333,3,73.1250027894975
216,384,90337,1,0,0:0:0:0:
217,359,90419,1,0,0:0:0:0:
218,335,90502,1,0,0:0:0:0:
219,310,90585,1,0,0:0:0:0:
176,244,90668,6,0,B|127:251|86:218|86:218|55:257|0:263,1,195
58,108,90917,1,0,0:0:0:0:
66,93,91000,6,0,P|80:122|77:203,1,97.5
72,342,91248,1,0,0:0:0:0:
63,356,91331,6,0,B|48:307|48:307|65:259,1,97.5
158,110,91497,2,0,B|173:61|173:61|158:18,1,97.5
6,178,91663,6,0,B|87:169|87:169|133:203|133:203|215:194,1,219.375008368492
466,23,91994,6,0,P|480:106|434:231,1,195
223,340,92326,1,0,0:0:0:0:
250,15,92491,1,0,0:0:0:0:
437,384,92657,1,0,0:0:0:0:
51,230,92989,6,0,L|85:224,1,24.375
237,110,93154,2,0,L|213:115,1,24.375
39,254,93320,6,0,L|283:210,1,243.75
