osu file format v14

[General]
AudioFilename: Ryu - I'm so Happy.mp3
AudioLeadIn: 0
PreviewTime: 48298
Countdown: 0
SampleSet: Normal
StackLeniency: 0.7
Mode: 1
LetterboxInBreaks: 0
WidescreenStoryboard: 1

[Editor]
DistanceSpacing: 0.1
BeatDivisor: 4
GridSize: 32
TimelineZoom: 2.2

[Metadata]
Title:I'm so Happy
TitleUnicode:I'm so Happy
Artist:Ryu*
ArtistUnicode:Ryu☆
Creator:Taka030
Version:uone's so Happy
Source:jubeat knit
Tags:sdvx konami
BeatmapID:1574818
BeatmapSetID:746812

[Difficulty]
HPDrainRate:5
CircleSize:5
OverallDifficulty:7
ApproachRate:5
SliderMultiplier:1.4
SliderTickRate:1

[Events]
//Background and Video events
0,0,"I'm so Happy.png",0,0
//Break Periods
//Storyboard Layer 0 (Background)
//Storyboard Layer 1 (Fail)
//Storyboard Layer 2 (Pass)
//Storyboard Layer 3 (Foreground)
//Storyboard Sound Samples

[TimingPoints]
564,331.491712707182,4,1,0,90,1,0
15066,-100,4,1,0,70,0,0
16475,-133.333333333333,4,1,0,70,0,0
25343,-111.111111111111,4,1,0,80,0,0
25674,-100,4,1,0,90,0,0
36365,-83.3333333333333,4,1,0,90,0,0
37691,-100,4,1,0,90,0,0
48298,-100,4,1,0,90,0,1
56088,-102.040816326531,4,1,0,90,0,1
56171,-102.040816326531,4,1,0,70,0,1
56254,-105.263157894737,4,1,0,70,0,0
58823,-105.263157894737,4,1,0,80,0,0
59238,-117.647058823529,4,1,0,80,0,0
63547,-100,4,1,0,80,0,0
64127,-100,4,1,0,90,0,0
70840,-133.333333333333,4,1,0,90,0,0
72166,-100,4,1,0,90,0,0
82773,-100,4,1,0,90,0,1
88077,-95.2380952380952,4,1,0,90,0,1
93381,-95.2380952380952,4,1,0,90,0,0

[HitObjects]
256,192,564,5,0,0:0:0:0:
256,192,729,1,0,0:0:0:0:
256,192,895,1,2,0:0:0:0:
256,192,1226,1,0,0:0:0:0:
256,192,1309,1,0,0:0:0:0:
256,192,1392,1,2,0:0:0:0:
256,192,1558,1,0,0:0:0:0:
256,192,1889,1,0,0:0:0:0:
256,192,1972,1,0,0:0:0:0:
256,192,2055,1,2,0:0:0:0:
256,192,2138,1,0,0:0:0:0:
256,192,2221,1,2,0:0:0:0:
256,192,2304,1,2,0:0:0:0:
256,192,2387,1,0,0:0:0:0:
256,192,2552,1,6,0:0:0:0:
256,192,3215,1,4,0:0:0:0:
256,192,3547,1,2,0:0:0:0:
256,192,3713,1,2,0:0:0:0:
256,192,3878,1,0,0:0:0:0:
256,192,4044,1,2,0:0:0:0:
256,192,4127,1,0,0:0:0:0:
256,192,4293,1,0,0:0:0:0:
256,192,4376,1,2,0:0:0:0:
256,192,4541,1,0,0:0:0:0:
256,192,4790,1,2,0:0:0:0:
256,192,4956,1,2,0:0:0:0:
256,192,5039,1,2,0:0:0:0:
256,192,5204,1,0,0:0:0:0:
256,192,5370,1,0,0:0:0:0:
256,192,5536,1,2,0:0:0:0:
256,192,5619,1,2,0:0:0:0:
256,192,5702,1,2,0:0:0:0:
256,192,5784,1,2,0:0:0:0:
256,192,5867,1,0,0:0:0:0:
256,192,6199,1,2,0:0:0:0:
256,192,6365,1,2,0:0:0:0:
256,192,6530,1,0,0:0:0:0:
256,192,6696,1,2,0:0:0:0:
256,192,6779,1,0,0:0:0:0:
256,192,6945,1,0,0:0:0:0:
256,192,7028,1,2,0:0:0:0:
256,192,7193,1,0,0:0:0:0:
256,192,7442,1,2,0:0:0:0:
256,192,7525,1,0,0:0:0:0:
256,192,7608,1,0,0:0:0:0:
256,192,7691,1,2,0:0:0:0:
256,192,7856,1,0,0:0:0:0:
256,192,7939,1,2,0:0:0:0:
256,192,8022,1,0,0:0:0:0:
256,192,8188,1,2,0:0:0:0:
256,192,8271,1,2,0:0:0:0:
256,192,8354,1,2,0:0:0:0:
256,192,8436,1,2,0:0:0:0:
256,192,8519,1,0,0:0:0:0:
256,192,8768,1,0,0:0:0:0:
256,192,8851,1,2,0:0:0:0:
256,192,9017,1,2,0:0:0:0:
256,192,9182,1,0,0:0:0:0:
256,192,9348,1,0,0:0:0:0:
256,192,9431,1,0,0:0:0:0:
256,192,9514,1,2,0:0:0:0:
256,192,9680,1,2,0:0:0:0:
256,192,9845,1,0,0:0:0:0:
256,192,10094,1,2,0:0:0:0:
256,192,10260,1,2,0:0:0:0:
256,192,10343,1,0,0:0:0:0:
256,192,10508,1,0,0:0:0:0:
256,192,10591,1,2,0:0:0:0:
256,192,10757,1,2,0:0:0:0:
256,192,10923,1,2,0:0:0:0:
256,192,11005,1,0,0:0:0:0:
256,192,11171,1,0,0:0:0:0:
256,192,11337,1,2,0:0:0:0:
256,192,11420,1,2,0:0:0:0:
256,192,11503,1,0,0:0:0:0:
256,192,11586,1,0,0:0:0:0:
256,192,11668,1,2,0:0:0:0:
256,192,11751,1,2,0:0:0:0:
256,192,11834,1,0,0:0:0:0:
256,192,12000,1,0,0:0:0:0:
256,192,12166,1,2,0:0:0:0:
256,192,12249,1,2,0:0:0:0:
256,192,12331,1,2,0:0:0:0:
256,192,12414,1,2,0:0:0:0:
256,192,12497,1,0,0:0:0:0:
256,192,12580,1,2,0:0:0:0:
256,192,12746,1,2,0:0:0:0:
256,192,12912,1,0,0:0:0:0:
256,192,12994,1,2,0:0:0:0:
256,192,13160,1,2,0:0:0:0:
256,192,13243,1,2,0:0:0:0:
256,192,13409,1,2,0:0:0:0:
256,192,13492,1,0,0:0:0:0:
256,192,13575,1,2,0:0:0:0:
256,192,13657,1,2,0:0:0:0:
256,192,13823,1,4,0:0:0:0:
256,192,14155,1,4,0:0:0:0:
256,192,14818,1,6,0:0:0:0:
256,192,15149,1,2,0:0:0:0:
256,192,16475,1,0,0:0:0:0:
256,192,17304,1,2,0:0:0:0:
256,192,17470,1,2,0:0:0:0:
256,192,17635,1,2,0:0:0:0:
256,192,17801,1,2,0:0:0:0:
256,192,19127,1,0,0:0:0:0:
256,192,20122,1,2,0:0:0:0:
256,192,20453,1,2,0:0:0:0:
256,192,22773,1,2,0:0:0:0:
256,192,23105,1,2,0:0:0:0:
256,192,24431,12,0,25260,0:0:0:0:
256,192,25425,5,2,0:0:0:0:
256,192,25757,1,4,0:0:0:0:
256,192,26088,1,2,0:0:0:0:
256,192,26254,1,0,0:0:0:0:
256,192,26337,1,0,0:0:0:0:
256,192,26420,1,2,0:0:0:0:
256,192,26503,1,2,0:0:0:0:
256,192,26586,1,0,0:0:0:0:
256,192,26751,1,2,0:0:0:0:
256,192,26917,1,2,0:0:0:0:
256,192,27000,1,2,0:0:0:0:
256,192,27083,1,0,0:0:0:0:
256,192,27249,1,2,0:0:0:0:
256,192,27414,1,2,0:0:0:0:
256,192,27580,1,0,0:0:0:0:
256,192,27746,1,0,0:0:0:0:
256,192,27829,1,2,0:0:0:0:
256,192,27912,1,0,0:0:0:0:
256,192,27994,1,2,0:0:0:0:
256,192,28077,1,2,0:0:0:0:
256,192,28243,1,2,0:0:0:0:
256,192,28409,1,0,0:0:0:0:
256,192,28657,1,0,0:0:0:0:
256,192,28740,1,2,0:0:0:0:
256,192,28906,1,2,0:0:0:0:
256,192,28989,1,0,0:0:0:0:
256,192,29072,1,2,0:0:0:0:
256,192,29155,1,2,0:0:0:0:
256,192,29238,1,0,0:0:0:0:
256,192,29403,1,2,0:0:0:0:
256,192,29569,1,2,0:0:0:0:
256,192,29652,1,2,0:0:0:0:
256,192,29735,1,0,0:0:0:0:
256,192,29901,1,2,0:0:0:0:
256,192,30066,1,2,0:0:0:0:
256,192,30232,1,2,0:0:0:0:
256,192,30315,1,2,0:0:0:0:
256,192,30398,1,0,0:0:0:0:
256,192,30481,1,2,0:0:0:0:
256,192,30646,1,2,0:0:0:0:
256,192,30729,1,2,0:0:0:0:
256,192,30895,1,0,0:0:0:0:
256,192,30978,1,2,0:0:0:0:
256,192,31061,1,0,0:0:0:0:
256,192,31226,1,0,0:0:0:0:
256,192,31392,1,2,0:0:0:0:
256,192,31558,1,0,0:0:0:0:
256,192,31641,1,0,0:0:0:0:
256,192,31724,1,2,0:0:0:0:
256,192,31807,1,2,0:0:0:0:
256,192,31889,1,0,0:0:0:0:
256,192,31972,1,0,0:0:0:0:
256,192,32055,1,2,0:0:0:0:
256,192,32221,1,2,0:0:0:0:
256,192,32304,1,2,0:0:0:0:
256,192,32387,1,0,0:0:0:0:
256,192,32552,1,0,0:0:0:0:
256,192,32718,1,2,0:0:0:0:
256,192,32884,1,0,0:0:0:0:
256,192,32967,1,2,0:0:0:0:
256,192,33050,1,0,0:0:0:0:
256,192,33133,1,2,0:0:0:0:
256,192,33298,1,2,0:0:0:0:
256,192,33381,1,2,0:0:0:0:
256,192,33547,1,0,0:0:0:0:
256,192,33630,1,2,0:0:0:0:
256,192,33713,1,0,0:0:0:0:
256,192,33796,1,0,0:0:0:0:
256,192,33878,1,2,0:0:0:0:
256,192,33961,1,0,0:0:0:0:
256,192,34044,1,2,0:0:0:0:
256,192,34127,1,2,0:0:0:0:
256,192,34210,1,0,0:0:0:0:
256,192,34293,1,2,0:0:0:0:
256,192,34376,1,0,0:0:0:0:
256,192,34459,1,0,0:0:0:0:
256,192,34541,1,2,0:0:0:0:
256,192,34624,1,0,0:0:0:0:
256,192,34707,1,2,0:0:0:0:
256,192,34790,1,2,0:0:0:0:
256,192,34873,1,2,0:0:0:0:
256,192,34956,1,2,0:0:0:0:
256,192,35039,1,0,0:0:0:0:
256,192,35370,1,6,0:0:0:0:
256,192,35702,1,4,0:0:0:0:
256,192,36033,1,4,0:0:0:0:
256,192,36365,1,6,0:0:0:0:
256,192,36530,1,6,0:0:0:0:
256,192,37691,1,4,0:0:0:0:
256,192,37939,1,0,0:0:0:0:
256,192,38022,1,2,0:0:0:0:
256,192,38188,1,0,0:0:0:0:
256,192,38354,1,2,0:0:0:0:
256,192,38436,1,0,0:0:0:0:
256,192,38602,1,0,0:0:0:0:
256,192,38685,1,2,0:0:0:0:
256,192,38851,1,2,0:0:0:0:
256,192,38934,1,2,0:0:0:0:
256,192,39017,1,0,0:0:0:0:
256,192,39265,1,0,0:0:0:0:
256,192,39348,1,2,0:0:0:0:
256,192,39514,1,2,0:0:0:0:
256,192,39597,1,2,0:0:0:0:
256,192,39680,1,0,0:0:0:0:
256,192,39845,1,2,0:0:0:0:
256,192,39928,1,0,0:0:0:0:
256,192,40011,1,2,0:0:0:0:
256,192,40177,1,2,0:0:0:0:
256,192,40343,1,0,0:0:0:0:
256,192,40591,1,0,0:0:0:0:
256,192,40674,1,2,0:0:0:0:
256,192,40840,1,0,0:0:0:0:
256,192,40923,1,2,0:0:0:0:
256,192,41005,1,2,0:0:0:0:
256,192,41088,1,0,0:0:0:0:
256,192,41254,1,0,0:0:0:0:
256,192,41337,1,2,0:0:0:0:
256,192,41503,1,2,0:0:0:0:
256,192,41668,1,0,0:0:0:0:
256,192,41917,1,0,0:0:0:0:
256,192,42000,1,2,0:0:0:0:
256,192,42166,1,0,0:0:0:0:
256,192,42249,1,2,0:0:0:0:
256,192,42331,1,0,0:0:0:0:
256,192,42497,1,0,0:0:0:0:
256,192,42663,1,2,0:0:0:0:
256,192,42746,1,0,0:0:0:0:
256,192,42829,1,2,0:0:0:0:
256,192,42912,1,2,0:0:0:0:
256,192,42994,1,0,0:0:0:0:
256,192,43243,1,0,0:0:0:0:
256,192,43326,1,2,0:0:0:0:
256,192,43492,1,0,0:0:0:0:
256,192,43657,1,2,0:0:0:0:
256,192,43740,1,0,0:0:0:0:
256,192,43906,1,0,0:0:0:0:
256,192,43989,1,2,0:0:0:0:
256,192,44155,1,2,0:0:0:0:
256,192,44238,1,2,0:0:0:0:
256,192,44320,1,0,0:0:0:0:
256,192,44569,1,0,0:0:0:0:
256,192,44652,1,2,0:0:0:0:
256,192,44818,1,2,0:0:0:0:
256,192,44901,1,2,0:0:0:0:
256,192,44983,1,0,0:0:0:0:
256,192,45149,1,2,0:0:0:0:
256,192,45232,1,0,0:0:0:0:
256,192,45315,1,2,0:0:0:0:
256,192,45481,1,2,0:0:0:0:
256,192,45646,1,4,0:0:0:0:
256,192,45895,1,0,0:0:0:0:
256,192,45978,1,2,0:0:0:0:
256,192,46144,1,2,0:0:0:0:
256,192,46309,1,4,0:0:0:0:
256,192,46641,1,4,0:0:0:0:
256,192,46807,1,2,0:0:0:0:
256,192,46972,1,4,0:0:0:0:
256,192,47304,1,4,0:0:0:0:
256,192,47552,1,2,0:0:0:0:
256,192,47635,1,2,0:0:0:0:
256,192,47801,1,0,0:0:0:0:
256,192,47967,1,6,0:0:0:0:
256,192,48298,1,4,0:0:0:0:
256,192,48547,1,0,0:0:0:0:
256,192,48630,1,2,0:0:0:0:
256,192,48796,1,0,0:0:0:0:
256,192,48878,1,2,0:0:0:0:
256,192,48961,1,2,0:0:0:0:
256,192,49044,1,0,0:0:0:0:
256,192,49210,1,0,0:0:0:0:
256,192,49293,1,2,0:0:0:0:
256,192,49459,1,2,0:0:0:0:
256,192,49541,1,2,0:0:0:0:
256,192,49624,1,0,0:0:0:0:
256,192,49707,1,2,0:0:0:0:
256,192,49873,1,0,0:0:0:0:
256,192,49956,1,2,0:0:0:0:
256,192,50122,1,2,0:0:0:0:
256,192,50204,1,2,0:0:0:0:
256,192,50287,1,0,0:0:0:0:
256,192,50453,1,0,0:0:0:0:
256,192,50536,1,0,0:0:0:0:
256,192,50619,1,2,0:0:0:0:
256,192,50784,1,2,0:0:0:0:
256,192,50950,1,0,0:0:0:0:
256,192,51199,1,0,0:0:0:0:
256,192,51282,1,2,0:0:0:0:
256,192,51447,1,0,0:0:0:0:
256,192,51530,1,2,0:0:0:0:
256,192,51613,1,2,0:0:0:0:
256,192,51696,1,0,0:0:0:0:
256,192,51862,1,0,0:0:0:0:
256,192,51945,1,2,0:0:0:0:
256,192,52110,1,2,0:0:0:0:
256,192,52276,1,0,0:0:0:0:
256,192,52359,1,2,0:0:0:0:
256,192,52442,1,0,0:0:0:0:
256,192,52525,1,0,0:0:0:0:
256,192,52608,1,2,0:0:0:0:
256,192,52773,1,0,0:0:0:0:
256,192,52856,1,2,0:0:0:0:
256,192,52939,1,0,0:0:0:0:
256,192,53105,1,0,0:0:0:0:
256,192,53271,1,2,0:0:0:0:
256,192,53354,1,0,0:0:0:0:
256,192,53436,1,2,0:0:0:0:
256,192,53519,1,2,0:0:0:0:
256,192,53602,1,0,0:0:0:0:
256,192,53851,1,0,0:0:0:0:
256,192,53934,1,2,0:0:0:0:
256,192,54099,1,0,0:0:0:0:
256,192,54182,1,2,0:0:0:0:
256,192,54265,1,2,0:0:0:0:
256,192,54348,1,0,0:0:0:0:
256,192,54514,1,0,0:0:0:0:
256,192,54597,1,2,0:0:0:0:
256,192,54762,1,2,0:0:0:0:
256,192,54845,1,2,0:0:0:0:
256,192,54928,1,0,0:0:0:0:
256,192,55011,1,2,0:0:0:0:
256,192,55177,1,0,0:0:0:0:
256,192,55260,1,2,0:0:0:0:
256,192,55425,1,2,0:0:0:0:
256,192,55508,1,2,0:0:0:0:
256,192,55591,1,0,0:0:0:0:
256,192,55674,1,0,0:0:0:0:
256,192,55757,1,2,0:0:0:0:
256,192,55840,1,0,0:0:0:0:
256,192,55923,1,2,0:0:0:0:
256,192,56088,1,2,0:0:0:0:
256,192,56254,1,0,0:0:0:0:
256,192,56503,1,2,0:0:0:0:
256,192,56586,1,2,0:0:0:0:
256,192,56751,1,2,0:0:0:0:
256,192,56917,1,0,0:0:0:0:
256,192,57166,1,2,0:0:0:0:
256,192,57249,1,2,0:0:0:0:
256,192,57414,1,2,0:0:0:0:
256,192,57580,1,0,0:0:0:0:
256,192,57829,1,0,0:0:0:0:
256,192,57912,1,2,0:0:0:0:
256,192,58077,1,0,0:0:0:0:
256,192,58160,1,0,0:0:0:0:
256,192,58243,1,2,0:0:0:0:
256,192,58409,1,0,0:0:0:0:
256,192,58575,1,2,0:0:0:0:
256,192,58906,1,4,0:0:0:0:
256,192,59238,1,2,0:0:0:0:
256,192,59901,1,2,0:0:0:0:
256,192,60563,1,2,0:0:0:0:
256,192,61226,1,0,0:0:0:0:
256,192,61558,1,6,0:0:0:0:
256,192,61889,1,2,0:0:0:0:
256,192,62552,1,0,0:0:0:0:
256,192,62884,1,6,0:0:0:0:
256,192,63215,1,2,0:0:0:0:
256,192,63547,1,2,0:0:0:0:
256,192,63878,1,2,0:0:0:0:
256,192,64210,1,0,0:0:0:0:
256,192,64293,1,0,0:0:0:0:
256,192,64376,1,0,0:0:0:0:
256,192,64459,1,0,0:0:0:0:
256,192,64541,1,2,0:0:0:0:
256,192,64624,1,2,0:0:0:0:
256,192,64707,1,0,0:0:0:0:
256,192,64790,1,2,0:0:0:0:
256,192,64873,1,0,0:0:0:0:
256,192,64956,1,0,0:0:0:0:
256,192,65039,1,0,0:0:0:0:
256,192,65122,1,0,0:0:0:0:
256,192,65204,1,2,0:0:0:0:
256,192,65536,1,0,0:0:0:0:
256,192,65619,1,0,0:0:0:0:
256,192,65702,1,2,0:0:0:0:
256,192,65784,1,0,0:0:0:0:
256,192,65867,1,2,0:0:0:0:
256,192,65950,1,2,0:0:0:0:
256,192,66033,1,0,0:0:0:0:
256,192,66116,1,2,0:0:0:0:
256,192,66199,1,0,0:0:0:0:
256,192,66282,1,0,0:0:0:0:
256,192,66365,1,2,0:0:0:0:
256,192,66447,1,0,0:0:0:0:
256,192,66530,1,2,0:0:0:0:
256,192,66862,1,0,0:0:0:0:
256,192,66945,1,0,0:0:0:0:
256,192,67028,1,2,0:0:0:0:
256,192,67110,1,0,0:0:0:0:
256,192,67193,1,2,0:0:0:0:
256,192,67276,1,2,0:0:0:0:
256,192,67359,1,0,0:0:0:0:
256,192,67442,1,2,0:0:0:0:
256,192,67525,1,0,0:0:0:0:
256,192,67608,1,0,0:0:0:0:
256,192,67691,1,2,0:0:0:0:
256,192,67773,1,0,0:0:0:0:
256,192,67856,1,2,0:0:0:0:
256,192,67939,1,2,0:0:0:0:
256,192,68022,1,0,0:0:0:0:
256,192,68105,1,2,0:0:0:0:
256,192,68188,1,0,0:0:0:0:
256,192,68519,1,6,0:0:0:0:
256,192,68851,1,6,0:0:0:0:
256,192,69182,1,6,0:0:0:0:
256,192,69514,1,0,0:0:0:0:
256,192,70840,1,2,0:0:0:0:
256,192,71005,1,2,0:0:0:0:
256,192,71171,1,2,0:0:0:0:
256,192,72166,1,4,0:0:0:0:
256,192,72497,1,2,0:0:0:0:
256,192,72663,1,2,0:0:0:0:
256,192,72746,1,2,0:0:0:0:
256,192,72829,1,0,0:0:0:0:
256,192,72994,1,0,0:0:0:0:
256,192,73160,1,2,0:0:0:0:
256,192,73326,1,2,0:0:0:0:
256,192,73492,1,0,0:0:0:0:
256,192,73657,1,0,0:0:0:0:
256,192,73740,1,0,0:0:0:0:
256,192,73823,1,2,0:0:0:0:
256,192,73989,1,2,0:0:0:0:
256,192,74155,1,0,0:0:0:0:
256,192,74238,1,2,0:0:0:0:
256,192,74320,1,0,0:0:0:0:
256,192,74403,1,0,0:0:0:0:
256,192,74486,1,2,0:0:0:0:
256,192,74818,1,0,0:0:0:0:
256,192,74983,1,0,0:0:0:0:
256,192,75066,1,0,0:0:0:0:
256,192,75149,1,2,0:0:0:0:
256,192,75315,1,2,0:0:0:0:
256,192,75398,1,2,0:0:0:0:
256,192,75481,1,0,0:0:0:0:
256,192,75563,1,2,0:0:0:0:
256,192,75646,1,0,0:0:0:0:
256,192,75812,1,2,0:0:0:0:
256,192,75978,1,2,0:0:0:0:
256,192,76144,1,0,0:0:0:0:
256,192,76309,1,2,0:0:0:0:
256,192,76392,1,2,0:0:0:0:
256,192,76475,1,2,0:0:0:0:
256,192,76641,1,2,0:0:0:0:
256,192,76724,1,2,0:0:0:0:
256,192,76807,1,0,0:0:0:0:
256,192,76972,1,0,0:0:0:0:
256,192,77138,1,2,0:0:0:0:
256,192,77304,1,2,0:0:0:0:
256,192,77470,1,4,0:0:0:0:
256,192,77801,1,2,0:0:0:0:
256,192,77967,1,2,0:0:0:0:
256,192,78050,1,2,0:0:0:0:
256,192,78133,1,0,0:0:0:0:
256,192,78298,1,0,0:0:0:0:
256,192,78381,1,0,0:0:0:0:
256,192,78464,1,2,0:0:0:0:
256,192,78630,1,2,0:0:0:0:
256,192,78796,1,0,0:0:0:0:
256,192,78961,1,0,0:0:0:0:
256,192,79044,1,0,0:0:0:0:
256,192,79127,1,2,0:0:0:0:
256,192,79293,1,2,0:0:0:0:
256,192,79459,1,0,0:0:0:0:
256,192,79541,1,2,0:0:0:0:
256,192,79624,1,0,0:0:0:0:
256,192,79707,1,0,0:0:0:0:
256,192,79790,1,2,0:0:0:0:
256,192,79956,1,2,0:0:0:0:
256,192,80122,1,4,0:0:0:0:
256,192,80453,1,2,0:0:0:0:
256,192,80619,1,2,0:0:0:0:
256,192,80784,1,4,0:0:0:0:
256,192,80950,1,2,0:0:0:0:
256,192,81116,1,4,0:0:0:0:
256,192,81447,1,4,0:0:0:0:
256,192,81779,1,4,0:0:0:0:
256,192,81945,1,2,0:0:0:0:
256,192,82028,1,2,0:0:0:0:
256,192,82110,1,2,0:0:0:0:
256,192,82276,1,0,0:0:0:0:
256,192,82442,1,6,0:0:0:0:
256,192,82773,1,4,0:0:0:0:
256,192,83105,1,2,0:0:0:0:
256,192,83271,1,2,0:0:0:0:
256,192,83354,1,2,0:0:0:0:
256,192,83436,1,0,0:0:0:0:
256,192,83602,1,0,0:0:0:0:
256,192,83685,1,0,0:0:0:0:
256,192,83768,1,2,0:0:0:0:
256,192,83934,1,2,0:0:0:0:
256,192,84099,1,0,0:0:0:0:
256,192,84265,1,0,0:0:0:0:
256,192,84348,1,2,0:0:0:0:
256,192,84431,1,2,0:0:0:0:
256,192,84597,1,0,0:0:0:0:
256,192,84762,1,2,0:0:0:0:
256,192,84845,1,2,0:0:0:0:
256,192,84928,1,0,0:0:0:0:
256,192,85011,1,0,0:0:0:0:
256,192,85094,1,2,0:0:0:0:
256,192,85425,1,0,0:0:0:0:
256,192,85591,1,0,0:0:0:0:
256,192,85674,1,0,0:0:0:0:
256,192,85757,1,2,0:0:0:0:
256,192,85923,1,2,0:0:0:0:
256,192,86005,1,2,0:0:0:0:
256,192,86088,1,0,0:0:0:0:
256,192,86171,1,2,0:0:0:0:
256,192,86254,1,0,0:0:0:0:
256,192,86337,1,0,0:0:0:0:
256,192,86420,1,2,0:0:0:0:
256,192,86586,1,2,0:0:0:0:
256,192,86751,1,0,0:0:0:0:
256,192,86917,1,2,0:0:0:0:
256,192,87000,1,2,0:0:0:0:
256,192,87083,1,2,0:0:0:0:
256,192,87249,1,2,0:0:0:0:
256,192,87331,1,2,0:0:0:0:
256,192,87414,1,0,0:0:0:0:
256,192,87580,1,0,0:0:0:0:
256,192,87746,1,2,0:0:0:0:
256,192,87912,1,2,0:0:0:0:
256,192,88077,1,0,0:0:0:0:
256,192,88160,1,0,0:0:0:0:
256,192,88243,1,0,0:0:0:0:
256,192,88326,1,0,0:0:0:0:
256,192,88409,1,2,0:0:0:0:
256,192,88492,1,2,0:0:0:0:
256,192,88575,1,0,0:0:0:0:
256,192,88657,1,2,0:0:0:0:
256,192,88740,1,0,0:0:0:0:
256,192,88823,1,2,0:0:0:0:
256,192,88906,1,0,0:0:0:0:
256,192,88989,1,0,0:0:0:0:
256,192,89072,1,2,0:0:0:0:
256,192,89403,1,0,0:0:0:0:
256,192,89486,1,0,0:0:0:0:
256,192,89569,1,2,0:0:0:0:
256,192,89652,1,0,0:0:0:0:
256,192,89735,1,2,0:0:0:0:
256,192,89818,1,2,0:0:0:0:
256,192,89901,1,0,0:0:0:0:
256,192,89983,1,2,0:0:0:0:
256,192,90066,1,0,0:0:0:0:
256,192,90149,1,2,0:0:0:0:
256,192,90232,1,2,0:0:0:0:
256,192,90315,1,0,0:0:0:0:
256,192,90398,1,2,0:0:0:0:
256,192,90729,1,0,0:0:0:0:
256,192,90812,1,0,0:0:0:0:
256,192,90895,1,2,0:0:0:0:
256,192,90978,1,0,0:0:0:0:
256,192,91061,1,2,0:0:0:0:
256,192,91144,1,2,0:0:0:0:
256,192,91226,1,0,0:0:0:0:
256,192,91309,1,2,0:0:0:0:
256,192,91392,1,0,0:0:0:0:
256,192,91475,1,2,0:0:0:0:
256,192,91558,1,2,0:0:0:0:
256,192,91641,1,0,0:0:0:0:
256,192,91724,1,2,0:0:0:0:
256,192,91807,1,2,0:0:0:0:
256,192,91889,1,0,0:0:0:0:
256,192,91972,1,2,0:0:0:0:
256,192,92055,1,0,0:0:0:0:
256,192,92387,1,6,0:0:0:0:
256,192,92718,1,6,0:0:0:0:
256,192,93050,1,6,0:0:0:0:
256,192,93381,1,4,0:0:0:0:
