osu file format v14

[General]
AudioFilename: Ryu - I'm so Happy[ADV].mp3
AudioLeadIn: 0
PreviewTime: 48246
Countdown: 0
SampleSet: Normal
StackLeniency: 0.7
Mode: 1
LetterboxInBreaks: 0
WidescreenStoryboard: 1

[Editor]
DistanceSpacing: 0.1
BeatDivisor: 4
GridSize: 32
TimelineZoom: 2

[Metadata]
Title:I'm so Happy
TitleUnicode:I'm so Happy
Artist:Ryu*
ArtistUnicode:Ryu☆
Creator:Taka030
Version:sing's so Happy
Source:jubeat knit
Tags:sdvx konami
BeatmapID:1584232
BeatmapSetID:746812

[Difficulty]
HPDrainRate:0
CircleSize:2
OverallDifficulty:5
ApproachRate:5
SliderMultiplier:1.4
SliderTickRate:1

[Events]
//Background and Video events
0,0,"bgbg.jpg",0,-120
//Break Periods
//Storyboard Layer 0 (Background)
//Storyboard Layer 1 (Fail)
//Storyboard Layer 2 (Pass)
//Storyboard Layer 3 (Foreground)
//Storyboard Sound Samples

[TimingPoints]
512,331.491712707182,4,1,0,100,1,0
15263,-500,4,1,0,100,0,0
25373,-25,4,1,0,100,0,0
25705,-100,4,1,0,100,0,0
37639,-133.333333333333,4,1,0,100,0,1
48246,-200,4,1,0,100,0,1
53550,-200,4,1,0,100,0,1
58854,-50,4,1,0,100,0,0
58937,-100,4,1,0,100,0,0
63826,-25,4,1,0,100,0,0
64158,-200,4,1,0,100,0,0
65484,-166.666666666667,4,1,0,100,0,0
66810,-142.857142857143,4,1,0,100,0,0
68219,-66.6666666666667,4,1,0,100,0,0
69463,331.491712707182,8,1,0,100,1,0
69463,-66.6666666666667,8,1,0,100,0,0
69544,-1000,7,1,0,100,0,0
70871,-100,7,1,0,100,0,0
72114,331.491712707182,4,1,0,100,1,0
72114,-80,4,1,0,100,0,0
77417,-66.6666666666667,4,1,0,100,0,0
82721,-50,4,1,0,100,0,1
88025,-40,4,1,0,100,0,1
93329,-25,4,1,0,100,0,0

[HitObjects]
256,192,512,5,8,0:0:0:0:
256,192,677,1,8,0:0:0:0:
256,192,843,5,4,0:0:0:0:
256,192,1174,1,8,0:0:0:0:
256,192,1257,1,8,0:0:0:0:
256,224,1340,1,8,0:0:0:0:
256,192,1506,1,4,0:0:0:0:
256,192,1837,1,8,0:0:0:0:
256,192,1893,1,8,0:0:0:0:
256,192,1948,1,8,0:0:0:0:
256,192,2003,1,8,0:0:0:0:
256,192,2086,1,8,0:0:0:0:
256,192,2169,1,8,0:0:0:0:
256,192,2224,1,8,0:0:0:0:
256,192,2279,1,8,0:0:0:0:
256,192,2335,1,8,0:0:0:0:
256,192,2418,1,8,0:0:0:0:
256,192,2500,1,4,0:0:0:0:
256,192,2832,1,0,0:0:0:0:
256,192,2998,1,8,0:0:0:0:
256,192,3053,1,8,0:0:0:0:
256,192,3108,1,8,0:0:0:0:
256,192,3163,1,0,0:0:0:0:
256,192,3329,1,0,0:0:0:0:
256,192,3495,1,8,0:0:0:0:
256,192,3661,1,0,0:0:0:0:
256,192,3826,1,8,0:0:0:0:
256,192,3992,1,0,0:0:0:0:
256,192,4075,1,0,0:0:0:0:
256,192,4158,1,8,0:0:0:0:
256,192,4241,1,0,0:0:0:0:
256,192,4407,1,0,0:0:0:0:
256,192,4489,1,8,0:0:0:0:
256,192,4655,1,8,0:0:0:0:
256,192,4738,1,0,0:0:0:0:
256,192,4904,1,0,0:0:0:0:
256,192,4987,1,0,0:0:0:0:
256,192,5070,1,8,0:0:0:0:
256,192,5152,1,0,0:0:0:0:
256,192,5318,1,8,0:0:0:0:
256,192,5484,1,0,0:0:0:0:
256,192,5539,1,8,0:0:0:0:
256,192,5594,1,8,0:0:0:0:
256,192,5650,1,8,0:0:0:0:
256,192,5732,1,8,0:0:0:0:
256,192,5815,1,0,0:0:0:0:
256,192,5981,1,0,0:0:0:0:
256,192,6147,1,8,0:0:0:0:
256,192,6313,1,0,0:0:0:0:
256,192,6478,1,8,0:0:0:0:
256,192,6644,1,0,0:0:0:0:
256,192,6727,1,0,0:0:0:0:
256,192,6810,1,8,0:0:0:0:
256,192,6893,1,0,0:0:0:0:
256,192,7059,1,0,0:0:0:0:
256,192,7141,1,12,0:0:0:0:
256,192,7307,1,8,0:0:0:0:
256,192,7390,1,0,0:0:0:0:
256,192,7473,1,12,0:0:0:0:
256,192,7639,1,0,0:0:0:0:
256,192,7722,1,8,0:0:0:0:
256,192,7804,1,4,0:0:0:0:
256,192,7970,1,8,0:0:0:0:
256,192,8136,1,0,0:0:0:0:
256,192,8191,1,8,0:0:0:0:
256,192,8246,1,8,0:0:0:0:
256,192,8302,1,8,0:0:0:0:
256,192,8384,1,8,0:0:0:0:
256,192,8467,1,0,0:0:0:0:
256,192,8633,1,0,0:0:0:0:
256,192,8799,1,8,0:0:0:0:
256,192,8965,1,0,0:0:0:0:
256,192,9130,1,8,0:0:0:0:
256,192,9296,1,0,0:0:0:0:
256,192,9379,1,0,0:0:0:0:
256,192,9462,1,8,0:0:0:0:
256,192,9545,1,0,0:0:0:0:
256,192,9711,1,0,0:0:0:0:
256,192,9793,1,8,0:0:0:0:
256,192,9959,1,8,0:0:0:0:
256,192,10042,1,0,0:0:0:0:
256,192,10208,1,0,0:0:0:0:
256,192,10291,1,0,0:0:0:0:
256,192,10374,1,8,0:0:0:0:
256,192,10456,1,0,0:0:0:0:
256,192,10622,1,8,0:0:0:0:
256,192,10788,1,0,0:0:0:0:
256,192,10871,1,0,0:0:0:0:
256,192,10953,1,8,0:0:0:0:
256,192,11036,1,8,0:0:0:0:
256,192,11119,1,4,0:0:0:0:
256,192,11285,1,0,0:0:0:0:
256,192,11451,1,12,0:0:0:0:
256,192,11616,1,8,0:0:0:0:
256,192,11782,1,4,0:0:0:0:
256,192,11948,1,8,0:0:0:0:
256,192,12114,1,0,0:0:0:0:
256,192,12197,1,0,0:0:0:0:
256,192,12279,1,0,0:0:0:0:
256,192,12362,1,0,0:0:0:0:
256,192,12445,1,12,0:0:0:0:
256,192,12528,1,12,0:0:0:0:
256,192,12694,1,12,0:0:0:0:
256,192,12860,1,4,0:0:0:0:
256,192,12942,1,12,0:0:0:0:
256,192,13108,1,4,0:0:0:0:
256,192,13191,1,4,0:0:0:0:
256,192,13357,1,0,0:0:0:0:
256,192,13440,1,0,0:0:0:0:
256,192,13481,1,0,0:0:0:0:
256,192,13523,1,0,0:0:0:0:
256,192,13564,1,8,0:0:0:0:
256,192,13771,1,4,0:0:0:0:
256,192,13937,1,0,0:0:0:0:
256,192,14103,1,4,0:0:0:0:
256,192,14268,1,8,0:0:0:0:
256,192,14434,1,12,0:0:0:0:
256,192,14600,1,8,0:0:0:0:
256,192,14766,1,4,0:0:0:0:
256,192,14931,1,0,0:0:0:0:
256,192,15097,1,12,0:0:0:0:
256,192,16423,1,8,0:0:0:0:
256,192,17252,1,0,0:0:0:0:
256,192,17418,1,8,0:0:0:0:
256,192,17583,1,0,0:0:0:0:
256,192,17749,1,0,0:0:0:0:
256,192,18909,1,8,0:0:0:0:
256,192,19075,1,0,0:0:0:0:
256,192,19407,1,8,0:0:0:0:
256,192,19904,1,0,0:0:0:0:
256,192,20070,1,8,0:0:0:0:
256,192,20401,1,0,0:0:0:0:
256,192,21727,1,0,0:0:0:0:
256,192,22224,1,0,0:0:0:0:
256,192,22556,1,0,0:0:0:0:
256,192,22721,1,8,0:0:0:0:
256,192,23053,1,0,0:0:0:0:
256,192,23384,1,8,0:0:0:0:
256,192,23882,1,0,0:0:0:0:
256,192,24047,1,8,0:0:0:0:
256,192,24213,1,0,0:0:0:0:
256,192,24379,1,0,0:0:0:0:
256,192,24710,1,8,0:0:0:0:
256,192,25042,1,0,0:0:0:0:
256,192,25208,1,0,0:0:0:0:
256,192,25373,1,12,0:0:0:0:
256,192,25705,1,4,0:0:0:0:
256,192,25871,1,0,0:0:0:0:
256,192,26036,1,8,0:0:0:0:
256,192,26202,1,0,0:0:0:0:
256,192,26285,1,0,0:0:0:0:
256,192,26368,1,8,0:0:0:0:
256,192,26451,1,0,0:0:0:0:
256,192,26616,1,0,0:0:0:0:
256,192,26699,1,8,0:0:0:0:
256,192,26865,1,8,0:0:0:0:
256,192,27031,1,0,0:0:0:0:
256,192,27141,1,0,0:0:0:0:
256,192,27252,1,0,0:0:0:0:
256,192,27362,1,8,0:0:0:0:
256,192,27445,1,8,0:0:0:0:
256,192,27528,1,8,0:0:0:0:
256,192,27611,1,8,0:0:0:0:
256,192,27694,1,0,0:0:0:0:
256,192,27804,1,0,0:0:0:0:
256,192,27915,1,8,0:0:0:0:
256,192,28025,1,0,0:0:0:0:
256,192,28108,1,0,0:0:0:0:
256,192,28191,1,8,0:0:0:0:
256,192,28357,1,4,0:0:0:0:
256,192,28523,1,0,0:0:0:0:
256,192,28688,1,8,0:0:0:0:
256,192,28854,1,0,0:0:0:0:
256,192,28937,1,0,0:0:0:0:
256,192,29020,1,8,0:0:0:0:
256,192,29103,1,0,0:0:0:0:
256,192,29268,1,0,0:0:0:0:
256,192,29351,1,8,0:0:0:0:
256,192,29517,1,8,0:0:0:0:
256,192,29683,1,0,0:0:0:0:
256,192,29793,1,0,0:0:0:0:
256,192,29904,1,0,0:0:0:0:
256,192,30014,1,8,0:0:0:0:
256,192,30097,1,8,0:0:0:0:
256,192,30180,1,8,0:0:0:0:
256,192,30263,1,8,0:0:0:0:
256,192,30346,1,0,0:0:0:0:
256,192,30429,1,0,0:0:0:0:
256,192,30511,1,8,0:0:0:0:
256,192,30594,1,0,0:0:0:0:
256,192,30677,1,8,0:0:0:0:
256,192,30788,1,8,0:0:0:0:
256,192,30898,1,0,0:0:0:0:
256,192,31009,1,12,0:0:0:0:
256,192,31174,1,0,0:0:0:0:
256,192,31340,1,8,0:0:0:0:
256,192,31506,1,0,0:0:0:0:
256,192,31561,1,0,0:0:0:0:
256,192,31616,1,0,0:0:0:0:
256,192,31672,1,0,0:0:0:0:
256,192,31755,1,0,0:0:0:0:
256,192,31837,1,8,0:0:0:0:
256,192,32003,1,0,0:0:0:0:
256,192,32169,1,8,0:0:0:0:
256,192,32335,1,0,0:0:0:0:
256,192,32418,1,8,0:0:0:0:
256,192,32500,1,0,0:0:0:0:
256,192,32583,1,0,0:0:0:0:
256,192,32666,1,8,0:0:0:0:
256,192,32749,1,8,0:0:0:0:
256,192,32832,1,0,0:0:0:0:
256,192,32915,1,8,0:0:0:0:
256,192,32998,1,0,0:0:0:0:
256,192,33053,1,0,0:0:0:0:
256,192,33108,1,0,0:0:0:0:
256,192,33163,1,0,0:0:0:0:
256,192,33247,1,0,0:0:0:0:
256,192,33329,1,8,0:0:0:0:
256,192,33495,1,0,0:0:0:0:
256,192,33661,1,4,0:0:0:0:
256,192,33826,1,0,0:0:0:0:
256,192,33992,1,8,0:0:0:0:
256,192,34075,1,8,0:0:0:0:
256,192,34158,1,8,0:0:0:0:
256,192,34241,1,8,0:0:0:0:
256,192,34324,1,4,0:0:0:0:
256,192,34489,1,0,0:0:0:0:
256,192,34655,1,8,0:0:0:0:
256,192,34738,1,8,0:0:0:0:
256,192,34821,1,0,0:0:0:0:
256,192,34904,1,8,0:0:0:0:
256,192,34987,1,4,0:0:0:0:
256,192,35152,1,8,0:0:0:0:
256,192,35318,1,4,0:0:0:0:
256,192,35484,1,8,0:0:0:0:
256,192,35650,1,12,0:0:0:0:
256,192,35815,1,0,0:0:0:0:
256,192,35981,1,12,0:0:0:0:
256,192,36313,1,8,0:0:0:0:
256,192,36354,1,8,0:0:0:0:
256,192,36478,1,8,0:0:0:0:
256,192,36520,1,8,0:0:0:0:
256,192,36644,1,0,0:0:0:0:
256,192,36976,1,8,0:0:0:0:
256,192,37058,1,0,0:0:0:0:
256,192,37141,1,8,0:0:0:0:
256,192,37223,1,8,0:0:0:0:
256,192,37306,1,0,0:0:0:0:
256,192,37389,1,0,0:0:0:0:
256,192,37472,1,8,0:0:0:0:
256,192,37639,1,4,0:0:0:0:
256,192,37804,1,0,0:0:0:0:
256,192,37887,1,8,0:0:0:0:
256,192,37970,1,0,0:0:0:0:
256,192,38053,1,8,0:0:0:0:
256,192,38219,1,8,0:0:0:0:
256,192,38302,1,0,0:0:0:0:
256,192,38467,1,0,0:0:0:0:
256,192,38550,1,0,0:0:0:0:
256,192,38633,1,8,0:0:0:0:
256,192,38716,1,0,0:0:0:0:
256,192,38882,1,0,0:0:0:0:
256,192,38965,1,8,0:0:0:0:
256,192,39130,1,0,0:0:0:0:
256,192,39213,1,8,0:0:0:0:
256,192,39296,1,0,0:0:0:0:
256,192,39379,1,0,0:0:0:0:
256,192,39545,1,8,0:0:0:0:
256,192,39628,1,0,0:0:0:0:
256,192,39793,1,12,0:0:0:0:
256,192,39959,1,0,0:0:0:0:
256,192,40125,1,12,0:0:0:0:
256,192,40291,1,4,0:0:0:0:
256,192,40456,1,0,0:0:0:0:
256,192,40539,1,8,0:0:0:0:
256,192,40622,1,0,0:0:0:0:
256,192,40705,1,8,0:0:0:0:
256,192,40871,1,8,0:0:0:0:
256,192,40954,1,0,0:0:0:0:
256,192,41119,1,0,0:0:0:0:
256,192,41202,1,0,0:0:0:0:
256,192,41285,1,8,0:0:0:0:
256,192,41368,1,0,0:0:0:0:
256,192,41534,1,0,0:0:0:0:
256,192,41617,1,8,0:0:0:0:
256,192,41782,1,0,0:0:0:0:
256,192,41865,1,8,0:0:0:0:
256,192,41948,1,0,0:0:0:0:
256,192,42031,1,0,0:0:0:0:
256,192,42197,1,8,0:0:0:0:
256,192,42280,1,0,0:0:0:0:
256,192,42445,1,0,0:0:0:0:
256,192,42528,1,8,0:0:0:0:
256,192,42611,1,0,0:0:0:0:
256,192,42694,1,0,0:0:0:0:
256,192,42777,1,8,0:0:0:0:
256,192,42860,1,8,0:0:0:0:
256,192,42942,1,4,0:0:0:0:
256,192,43107,1,0,0:0:0:0:
256,192,43190,1,8,0:0:0:0:
256,192,43273,1,0,0:0:0:0:
256,192,43356,1,8,0:0:0:0:
256,192,43522,1,8,0:0:0:0:
256,192,43605,1,0,0:0:0:0:
256,192,43770,1,0,0:0:0:0:
256,192,43853,1,0,0:0:0:0:
256,192,43936,1,8,0:0:0:0:
256,192,44019,1,0,0:0:0:0:
256,192,44185,1,0,0:0:0:0:
256,192,44268,1,8,0:0:0:0:
256,192,44433,1,0,0:0:0:0:
256,192,44516,1,8,0:0:0:0:
256,192,44599,1,0,0:0:0:0:
256,192,44682,1,0,0:0:0:0:
256,192,44848,1,8,0:0:0:0:
256,192,44931,1,0,0:0:0:0:
256,192,45096,1,12,0:0:0:0:
256,192,45262,1,0,0:0:0:0:
256,192,45346,1,0,0:0:0:0:
256,192,45428,1,12,0:0:0:0:
256,192,45594,1,4,0:0:0:0:
256,192,45760,1,8,0:0:0:0:
256,192,45926,1,0,0:0:0:0:
256,192,46009,1,0,0:0:0:0:
256,192,46092,1,8,0:0:0:0:
256,192,46174,1,8,0:0:0:0:
256,192,46257,1,4,0:0:0:0:
256,192,46423,1,8,0:0:0:0:
256,192,46589,1,0,0:0:0:0:
256,192,46672,1,0,0:0:0:0:
256,192,46755,1,8,0:0:0:0:
256,192,46837,1,0,0:0:0:0:
256,192,46920,1,12,0:0:0:0:
256,192,47086,1,0,0:0:0:0:
256,192,47252,1,8,0:0:0:0:
256,192,47418,1,0,0:0:0:0:
256,192,47500,1,0,0:0:0:0:
256,192,47583,1,8,0:0:0:0:
256,192,47666,1,0,0:0:0:0:
256,192,47749,1,8,0:0:0:0:
256,192,47832,1,8,0:0:0:0:
256,192,47915,1,8,0:0:0:0:
256,192,47998,1,0,0:0:0:0:
256,192,48081,1,8,0:0:0:0:
256,192,48163,1,8,0:0:0:0:
256,192,48246,1,0,0:0:0:0:
256,192,48412,1,0,0:0:0:0:
256,192,48495,1,8,0:0:0:0:
256,192,48578,1,0,0:0:0:0:
256,192,48661,1,0,0:0:0:0:
256,192,48826,1,0,0:0:0:0:
256,192,48909,1,8,0:0:0:0:
256,192,49075,1,8,0:0:0:0:
256,192,49158,1,0,0:0:0:0:
256,192,49241,1,0,0:0:0:0:
256,192,49324,1,8,0:0:0:0:
256,192,49489,1,8,0:0:0:0:
256,192,49572,1,0,0:0:0:0:
256,192,49738,1,0,0:0:0:0:
256,192,49904,1,8,0:0:0:0:
256,192,50070,1,0,0:0:0:0:
256,192,50235,1,4,0:0:0:0:
256,192,50401,1,8,0:0:0:0:
256,192,50484,1,8,0:0:0:0:
256,192,50567,1,4,0:0:0:0:
256,192,50732,1,8,0:0:0:0:
256,192,50815,1,0,0:0:0:0:
256,192,50898,1,12,0:0:0:0:
256,192,51064,1,0,0:0:0:0:
256,192,51147,1,8,0:0:0:0:
256,192,51230,1,0,0:0:0:0:
256,192,51313,1,0,0:0:0:0:
256,192,51478,1,0,0:0:0:0:
256,192,51561,1,8,0:0:0:0:
256,192,51727,1,8,0:0:0:0:
256,192,51810,1,0,0:0:0:0:
256,192,51893,1,0,0:0:0:0:
256,192,51976,1,8,0:0:0:0:
256,192,52141,1,8,0:0:0:0:
256,192,52224,1,0,0:0:0:0:
256,192,52307,1,0,0:0:0:0:
256,192,52390,1,0,0:0:0:0:
256,192,52473,1,0,0:0:0:0:
256,192,52556,1,8,0:0:0:0:
256,192,52639,1,0,0:0:0:0:
256,192,52721,1,8,0:0:0:0:
256,192,52804,1,8,0:0:0:0:
256,192,52887,1,4,0:0:0:0:
256,192,53053,1,0,0:0:0:0:
256,192,53219,1,12,0:0:0:0:
256,192,53384,1,8,0:0:0:0:
256,192,53550,1,4,0:0:0:0:
256,192,53716,1,0,0:0:0:0:
256,192,53799,1,8,0:0:0:0:
256,192,53882,1,0,0:0:0:0:
256,192,53965,1,0,0:0:0:0:
256,192,54130,1,8,0:0:0:0:
256,192,54213,1,0,0:0:0:0:
256,192,54379,1,8,0:0:0:0:
256,192,54462,1,0,0:0:0:0:
256,192,54545,1,0,0:0:0:0:
256,192,54628,1,8,0:0:0:0:
256,192,54710,1,0,0:0:0:0:
256,192,54793,1,0,0:0:0:0:
256,192,54876,1,8,0:0:0:0:
256,192,54987,1,0,0:0:0:0:
256,192,55097,1,8,0:0:0:0:
256,192,55208,1,0,0:0:0:0:
256,192,55318,1,8,0:0:0:0:
256,192,55429,1,8,0:0:0:0:
256,192,55539,1,4,0:0:0:0:
256,192,55705,1,0,0:0:0:0:
256,192,55871,1,12,0:0:0:0:
256,192,56036,1,8,0:0:0:0:
256,192,56202,1,4,0:0:0:0:
256,192,56368,1,0,0:0:0:0:
256,192,56451,1,0,0:0:0:0:
256,192,56534,1,8,0:0:0:0:
256,192,56616,1,0,0:0:0:0:
256,192,56699,1,8,0:0:0:0:
256,192,56782,1,8,0:0:0:0:
256,192,56865,1,4,0:0:0:0:
256,192,57031,1,8,0:0:0:0:
256,192,57197,1,12,0:0:0:0:
256,192,57362,1,0,0:0:0:0:
256,192,57528,1,4,0:0:0:0:
256,192,57694,1,0,0:0:0:0:
256,192,57860,1,12,0:0:0:0:
256,192,58025,1,8,0:0:0:0:
256,192,58191,1,0,0:0:0:0:
256,192,58274,1,8,0:0:0:0:
256,192,58357,1,0,0:0:0:0:
256,192,58440,1,0,0:0:0:0:
256,192,58523,1,12,0:0:0:0:
256,192,58688,1,8,0:0:0:0:
256,192,58854,1,4,0:0:0:0:
256,192,59186,1,8,0:0:0:0:
256,192,59849,1,0,0:0:0:0:
256,192,60180,1,8,0:0:0:0:
256,192,60511,1,0,0:0:0:0:
256,192,61174,1,8,0:3:0:0:
256,192,61506,1,4,0:3:0:0:
256,192,61837,1,8,0:3:0:0:
256,192,62500,1,0,0:0:0:0:
256,192,62832,1,12,0:0:0:0:
256,192,63163,1,0,0:0:0:0:
256,192,63329,1,8,0:0:0:0:
256,192,63495,1,0,0:0:0:0:
256,192,63826,1,12,0:0:0:0:
256,192,64158,1,0,0:0:0:0:
256,192,64241,1,0,0:0:0:0:
256,192,64324,1,0,0:0:0:0:
256,192,64407,1,0,0:0:0:0:
256,192,64489,1,8,0:0:0:0:
256,192,64572,1,0,0:0:0:0:
256,192,64655,1,0,0:0:0:0:
256,192,64738,1,0,0:0:0:0:
256,192,64821,1,8,0:0:0:0:
256,192,64904,1,8,0:0:0:0:
256,192,64987,1,0,0:0:0:0:
256,192,65070,1,0,0:0:0:0:
256,192,65152,1,12,0:0:0:0:
256,192,65484,1,0,0:0:0:0:
256,192,65567,1,0,0:0:0:0:
256,192,65650,1,0,0:0:0:0:
256,192,65732,1,0,0:0:0:0:
256,192,65815,1,8,0:0:0:0:
256,192,65898,1,8,0:0:0:0:
256,192,65981,1,0,0:0:0:0:
256,192,66064,1,0,0:0:0:0:
256,192,66147,1,0,0:0:0:0:
256,192,66230,1,8,0:0:0:0:
256,192,66313,1,0,0:0:0:0:
256,192,66395,1,0,0:0:0:0:
256,192,66478,1,12,0:0:0:0:
256,192,66810,1,8,0:0:0:0:
256,192,66893,1,0,0:0:0:0:
256,192,66976,1,0,0:0:0:0:
256,192,67058,1,0,0:0:0:0:
256,192,67141,1,8,0:0:0:0:
256,192,67224,1,0,0:0:0:0:
256,192,67307,1,0,0:0:0:0:
256,192,67390,1,0,0:0:0:0:
256,192,67473,1,8,0:0:0:0:
256,192,67556,1,8,0:0:0:0:
256,192,67639,1,0,0:0:0:0:
256,192,67721,1,0,0:0:0:0:
256,192,67804,1,8,0:0:0:0:
256,192,67887,1,8,0:0:0:0:
256,192,67970,1,0,0:0:0:0:
256,192,68053,1,0,0:0:0:0:
256,192,68136,1,12,0:0:0:0:
256,192,68302,1,0,0:0:0:0:
256,192,68384,1,0,0:0:0:0:
256,192,68467,1,12,0:0:0:0:
256,192,68633,1,0,0:0:0:0:
256,192,68716,1,0,0:0:0:0:
256,192,68799,1,12,0:0:0:0:
256,192,68965,1,8,0:0:0:0:
256,192,69047,1,0,0:0:0:0:
256,192,69130,1,12,0:0:0:0:
256,192,69296,1,8,0:0:0:0:
256,192,69379,1,8,0:0:0:0:
256,192,69462,1,4,0:0:0:0:
256,192,70788,1,8,0:0:0:0:
256,192,71617,1,0,0:0:0:0:
256,192,71783,1,8,0:0:0:0:
256,192,71949,1,0,0:0:0:0:
256,192,72114,1,4,0:0:0:0:
256,192,72279,1,0,0:0:0:0:
256,192,72362,1,0,0:0:0:0:
256,192,72445,1,8,0:0:0:0:
256,192,72611,1,0,0:0:0:0:
256,192,72776,1,8,0:0:0:0:
256,192,72859,1,8,0:0:0:0:
256,192,72942,1,0,0:0:0:0:
256,192,73025,1,0,0:0:0:0:
256,192,73108,1,8,0:0:0:0:
256,192,73274,1,0,0:0:0:0:
256,192,73605,1,8,0:0:0:0:
256,192,73771,1,0,0:0:0:0:
256,192,73854,1,0,0:0:0:0:
256,192,73937,1,8,0:0:0:0:
256,192,74102,1,0,0:0:0:0:
256,192,74185,1,0,0:0:0:0:
256,192,74268,1,8,0:0:0:0:
256,192,74351,1,8,0:0:0:0:
256,192,74434,1,0,0:0:0:0:
256,192,74544,1,0,0:0:0:0:
256,192,74655,1,8,0:0:0:0:
256,192,74765,1,4,0:0:0:0:
256,192,74931,1,0,0:0:0:0:
256,192,75014,1,0,0:0:0:0:
256,192,75097,1,8,0:0:0:0:
256,192,75263,1,0,0:0:0:0:
256,192,75428,1,8,0:0:0:0:
256,192,75511,1,8,0:0:0:0:
256,192,75594,1,0,0:0:0:0:
256,192,75677,1,0,0:0:0:0:
256,192,75760,1,8,0:0:0:0:
256,192,75926,1,0,0:0:0:0:
256,192,76257,1,8,0:0:0:0:
256,192,76423,1,0,0:0:0:0:
256,192,76506,1,0,0:0:0:0:
256,192,76589,1,8,0:0:0:0:
256,192,76754,1,8,0:0:0:0:
256,192,76796,1,8,0:0:0:0:
256,192,76837,1,0,0:0:0:0:
256,192,76920,1,8,0:0:0:0:
256,192,76962,1,8,0:0:0:0:
256,192,77003,1,8,0:0:0:0:
256,192,77044,1,8,0:0:0:0:
256,192,77086,1,0,0:0:0:0:
256,192,77252,1,0,0:0:0:0:
256,192,77417,1,12,0:0:0:0:
256,192,77583,1,0,0:0:0:0:
256,192,77666,1,0,0:0:0:0:
256,192,77749,1,8,0:0:0:0:
256,192,77915,1,0,0:0:0:0:
256,192,78080,1,8,0:0:0:0:
256,192,78163,1,8,0:0:0:0:
256,192,78246,1,0,0:0:0:0:
256,192,78329,1,8,0:0:0:0:
256,192,78412,1,0,0:0:0:0:
256,192,78578,1,8,0:0:0:0:
256,192,78909,1,0,0:0:0:0:
256,192,79075,1,8,0:0:0:0:
256,192,79158,1,8,0:0:0:0:
256,192,79241,1,0,0:0:0:0:
256,192,79323,1,0,0:0:0:0:
256,192,79406,1,12,0:0:0:0:
256,192,79572,1,0,0:0:0:0:
256,192,79738,1,8,0:0:0:0:
256,192,79821,1,8,0:0:0:0:
256,192,79904,1,8,0:0:0:0:
256,192,79986,1,8,0:0:0:0:
256,192,80069,1,4,0:0:0:0:
256,192,80235,1,0,0:0:0:0:
256,192,80401,1,8,0:0:0:0:
256,192,80567,1,0,0:0:0:0:
256,192,80649,1,0,0:0:0:0:
256,192,80732,1,12,0:0:0:0:
256,192,80898,1,0,0:0:0:0:
256,192,80981,1,0,0:0:0:0:
256,192,81064,1,12,0:0:0:0:
256,192,81230,1,0,0:0:0:0:
256,192,81312,1,8,0:0:0:0:
256,192,81395,1,4,0:0:0:0:
256,192,81561,1,8,0:0:0:0:
256,192,81644,1,0,0:0:0:0:
256,192,81727,1,12,0:0:0:0:
256,192,81893,1,0,0:0:0:0:
256,192,82058,1,0,0:0:0:0:
256,192,82141,1,8,0:0:0:0:
256,192,82224,1,0,0:0:0:0:
256,192,82307,1,0,0:0:0:0:
256,192,82390,1,12,0:0:0:0:
256,192,82555,1,0,0:0:0:0:
256,192,82721,1,0,0:0:0:0:
256,192,82804,1,0,0:0:0:0:
256,192,82887,1,8,0:0:0:0:
256,192,82970,1,0,0:0:0:0:
256,192,83053,1,8,0:0:0:0:
256,192,83136,1,8,0:0:0:0:
256,192,83218,1,0,0:0:0:0:
256,192,83301,1,8,0:0:0:0:
256,192,83384,1,4,0:0:0:0:
256,192,83550,1,8,0:0:0:0:
256,192,83633,1,8,0:0:0:0:
256,192,83716,1,4,0:0:0:0:
256,192,83881,1,8,0:0:0:0:
256,192,84213,1,8,0:0:0:0:
256,192,84268,1,8,0:0:0:0:
256,192,84323,1,8,0:0:0:0:
256,192,84379,1,0,0:0:0:0:
256,192,84462,1,0,0:0:0:0:
256,192,84544,1,8,0:0:0:0:
256,192,84600,1,8,0:0:0:0:
256,192,84655,1,8,0:0:0:0:
256,192,84710,1,0,0:0:0:0:
256,192,84793,1,8,0:0:0:0:
256,192,84876,1,0,0:0:0:0:
256,192,84959,1,0,0:0:0:0:
256,192,85042,1,12,0:0:0:0:
256,192,85373,1,0,0:0:0:0:
256,192,85456,1,0,0:0:0:0:
256,192,85539,1,8,0:0:0:0:
256,192,85622,1,8,0:0:0:0:
256,192,85705,1,0,0:0:0:0:
256,192,85788,1,8,0:0:0:0:
256,192,85870,1,0,0:0:0:0:
256,192,85953,1,0,0:0:0:0:
256,192,86036,1,12,0:0:0:0:
256,192,86202,1,0,0:0:0:0:
256,192,86285,1,0,0:0:0:0:
256,192,86368,1,12,0:0:0:0:
256,192,86533,1,0,0:0:0:0:
256,192,86865,1,8,0:0:0:0:
256,192,86920,1,8,0:0:0:0:
256,192,86975,1,8,0:0:0:0:
256,192,87031,1,0,0:0:0:0:
256,192,87113,1,0,0:0:0:0:
256,192,87196,1,8,0:0:0:0:
256,192,87279,1,8,0:0:0:0:
256,192,87362,1,4,0:0:0:0:
256,192,87473,1,4,0:0:0:0:
256,192,87583,1,4,0:0:0:0:
256,192,87694,1,12,0:0:0:0:
256,192,87859,1,0,0:0:0:0:
256,192,88025,1,0,0:0:0:0:
256,192,88108,1,0,0:0:0:0:
256,192,88191,1,0,0:0:0:0:
256,192,88274,1,0,0:0:0:0:
256,192,88357,1,8,0:0:0:0:
256,192,88439,1,8,0:0:0:0:
256,192,88522,1,0,0:0:0:0:
256,192,88605,1,8,0:0:0:0:
256,192,88688,1,0,0:0:0:0:
256,192,88771,1,0,0:0:0:0:
256,192,88854,1,8,0:0:0:0:
256,192,88937,1,0,0:0:0:0:
256,192,89020,1,8,0:0:0:0:
256,192,89102,1,8,0:0:0:0:
256,192,89185,1,0,0:0:0:0:
256,192,89268,1,0,0:0:0:0:
256,192,89351,1,8,0:0:0:0:
256,192,89434,1,0,0:0:0:0:
256,192,89517,1,0,0:0:0:0:
256,192,89600,1,0,0:0:0:0:
256,192,89683,1,8,0:0:0:0:
256,192,89765,1,8,0:0:0:0:
256,192,89848,1,0,0:0:0:0:
256,192,89931,1,8,0:0:0:0:
256,192,90014,1,0,0:0:0:0:
256,192,90097,1,0,0:0:0:0:
256,192,90180,1,8,0:0:0:0:
256,192,90263,1,8,0:0:0:0:
256,192,90346,1,8,0:0:0:0:
256,192,90428,1,0,0:0:0:0:
256,192,90511,1,8,0:0:0:0:
256,192,90594,1,8,0:0:0:0:
256,192,90677,1,4,0:0:0:0:
256,192,90843,1,0,0:0:0:0:
256,192,90926,1,0,0:0:0:0:
256,192,91009,1,12,0:0:0:0:
256,192,91174,1,0,0:0:0:0:
256,192,91257,1,0,0:0:0:0:
256,192,91340,1,12,0:0:0:0:
256,192,91506,1,0,0:0:0:0:
256,192,91589,1,8,0:0:0:0:
256,192,91672,1,4,0:0:0:0:
256,192,91837,1,8,0:0:0:0:
256,192,91920,1,0,0:0:0:0:
256,192,92003,1,12,0:0:0:0:
256,192,92169,1,0,0:0:0:0:
256,192,92334,1,12,0:0:0:0:
256,192,92500,1,0,0:0:0:0:
256,192,92666,1,12,0:0:0:0:
256,192,92832,1,8,0:0:0:0:
256,192,92997,1,4,0:0:0:0:
256,192,93329,1,12,0:0:0:0:
