osu file format v14

[General]
AudioFilename: Ryu - I'm so Happy[ADV].mp3
AudioLeadIn: 0
PreviewTime: 48246
Countdown: 0
SampleSet: Normal
StackLeniency: 0.7
Mode: 1
LetterboxInBreaks: 0
WidescreenStoryboard: 1

[Editor]
DistanceSpacing: 0.1
BeatDivisor: 6
GridSize: 32
TimelineZoom: 1.8

[Metadata]
Title:I'm so Happy
TitleUnicode:I'm so Happy
Artist:Ryu*
ArtistUnicode:Ryu☆
Creator:Taka030
Version:hoku's so Happy ^-^
Source:jubeat knit
Tags:sdvx konami
BeatmapID:1576561
BeatmapSetID:746812

[Difficulty]
HPDrainRate:5
CircleSize:5
OverallDifficulty:5
ApproachRate:5
SliderMultiplier:1.4
SliderTickRate:1

[Events]
//Background and Video events
0,0,"papa_preview.jpg",0,0
//Break Periods
//Storyboard Layer 0 (Background)
//Storyboard Layer 1 (Fail)
//Storyboard Layer 2 (Pass)
//Storyboard Layer 3 (Foreground)
//Storyboard Sound Samples

[TimingPoints]
512,331.491712707182,4,1,0,100,1,0
15097,-125,4,1,0,100,0,0
25622,-111.111111111111,4,1,0,100,0,0
33578,-100,4,1,0,100,0,0
37639,-90.9090909090909,4,1,0,100,0,1
58854,-125,4,1,0,100,0,0
63992,-111.111111111111,4,1,0,100,0,0
66644,-100,4,1,0,100,0,0
72114,-90.9090909090909,4,1,0,100,0,1

[HitObjects]
384,160,512,5,4,0:0:0:0:
379,226,843,1,12,0:0:0:0:
216,181,1174,1,0,0:0:0:0:
216,181,1257,1,0,0:0:0:0:
216,181,1340,1,0,0:0:0:0:
218,185,1423,1,0,0:0:0:0:
216,181,1506,1,8,0:0:0:0:
257,223,1837,1,0,0:0:0:0:
257,223,1893,1,0,0:0:0:0:
257,223,1948,1,0,0:0:0:0:
257,223,2003,1,8,0:0:0:0:
195,129,2086,1,0,0:0:0:0:
254,153,2169,1,8,0:0:0:0:
254,153,2252,1,8,0:0:0:0:
271,158,2335,1,0,0:0:0:0:
270,158,2418,1,0,0:0:0:0:
270,157,2500,1,8,0:0:0:0:
256,88,2832,1,12,0:0:0:0:
296,178,3163,1,4,0:0:0:0:
334,207,3329,1,0,0:0:0:0:
334,207,3495,1,8,0:0:0:0:
334,207,3578,1,8,0:0:0:0:
334,207,3661,1,0,0:0:0:0:
334,207,3826,1,8,0:0:0:0:
334,207,3909,1,0,0:0:0:0:
334,207,4075,1,0,0:0:0:0:
334,207,4158,1,8,0:0:0:0:
334,207,4241,1,8,0:0:0:0:
334,207,4324,1,0,0:0:0:0:
334,207,4489,1,0,0:0:0:0:
334,207,4572,1,0,0:0:0:0:
334,207,4738,1,0,0:0:0:0:
334,207,4821,1,8,0:0:0:0:
334,207,4904,1,0,0:0:0:0:
334,207,4987,1,0,0:0:0:0:
334,207,5152,1,0,0:0:0:0:
334,207,5318,1,0,0:0:0:0:
334,207,5401,1,0,0:0:0:0:
334,207,5484,1,8,0:0:0:0:
232,168,5650,1,0,0:0:0:0:
284,198,5815,1,8,0:0:0:0:
284,198,5898,1,8,0:0:0:0:
284,198,5981,1,0,0:0:0:0:
284,198,6147,1,8,0:0:0:0:
284,198,6230,1,0,0:0:0:0:
284,198,6313,1,0,0:0:0:0:
284,198,6478,1,8,0:0:0:0:
284,198,6561,1,0,0:0:0:0:
284,198,6644,1,0,0:0:0:0:
284,198,6727,1,0,0:0:0:0:
284,198,6810,1,8,0:0:0:0:
284,198,6893,1,8,0:0:0:0:
284,198,6976,1,8,0:0:0:0:
275,151,7141,1,4,0:0:0:0:
275,151,7473,1,4,0:0:0:0:
266,128,7804,1,8,0:0:0:0:
266,128,7970,1,8,0:0:0:0:
194,104,8053,1,8,0:0:0:0:
231,75,8136,1,0,0:0:0:0:
231,75,8219,1,0,0:0:0:0:
135,184,8302,1,8,0:0:0:0:
231,75,8384,1,0,0:0:0:0:
223,82,8467,1,8,0:0:0:0:
323,177,8633,1,0,0:0:0:0:
233,197,8799,1,8,0:0:0:0:
257,188,8882,1,0,0:0:0:0:
258,180,8965,1,0,0:0:0:0:
133,210,9047,1,0,0:0:0:0:
131,218,9130,1,8,0:0:0:0:
131,218,9213,1,0,0:0:0:0:
182,155,9379,1,0,0:0:0:0:
181,160,9462,1,8,0:0:0:0:
181,178,9545,1,8,0:0:0:0:
181,178,9628,1,0,0:0:0:0:
301,137,9793,1,0,0:0:0:0:
301,137,9876,1,0,0:0:0:0:
163,141,10042,1,0,0:0:0:0:
182,155,10125,1,8,0:0:0:0:
189,163,10208,1,8,0:0:0:0:
189,163,10291,1,0,0:0:0:0:
189,160,10456,1,8,0:0:0:0:
189,160,10539,1,0,0:0:0:0:
201,121,10705,1,8,0:0:0:0:
198,125,10788,1,0,0:0:0:0:
198,131,10871,1,0,0:0:0:0:
197,131,10953,1,8,0:0:0:0:
204,193,11119,1,0,0:0:0:0:
204,193,11202,1,0,0:0:0:0:
204,193,11285,1,0,0:0:0:0:
204,193,11368,1,0,0:0:0:0:
204,193,11451,1,8,0:0:0:0:
361,143,11506,1,8,0:0:0:0:
204,193,11561,1,8,0:0:0:0:
318,127,11616,1,0,0:0:0:0:
250,175,11699,1,8,0:0:0:0:
250,175,11782,1,0,0:0:0:0:
242,229,11948,1,0,0:0:0:0:
303,278,12114,1,0,0:0:0:0:
246,253,12197,1,0,0:0:0:0:
417,192,12279,1,8,0:0:0:0:
248,253,12362,1,0,0:0:0:0:
248,253,12445,1,8,0:0:0:0:
295,84,12500,1,0,0:0:0:0:
299,86,12556,1,0,0:0:0:0:
298,87,12611,1,8,0:0:0:0:
211,193,12694,1,0,0:0:0:0:
219,128,12777,1,8,0:0:0:0:
219,128,12832,1,8,0:0:0:0:
219,128,12887,1,8,0:0:0:0:
257,165,12942,1,0,0:0:0:0:
257,165,13025,1,0,0:0:0:0:
257,165,13108,1,8,0:0:0:0:
255,173,13191,1,8,0:0:0:0:
255,173,13274,1,8,0:0:0:0:
255,173,13357,1,8,0:0:0:0:
166,201,13440,1,8,0:0:0:0:
419,135,13523,1,8,0:0:0:0:
106,122,13605,1,8,0:0:0:0:
168,87,13771,1,4,0:0:0:0:
295,153,14103,1,4,0:0:0:0:
241,119,14600,1,0,0:0:0:0:
95,208,14766,1,12,0:0:0:0:
258,199,14931,1,8,0:0:0:0:
258,199,15097,1,4,0:0:0:0:
186,263,15429,1,0,0:0:0:0:
182,234,15594,1,0,0:0:0:0:
182,234,15926,1,8,0:0:0:0:
238,223,16423,1,0,0:0:0:0:
239,217,16755,1,8,0:0:0:0:
239,215,16920,1,0,0:0:0:0:
255,184,17252,1,0,0:0:0:0:
255,184,17418,1,8,0:0:0:0:
255,184,17583,1,8,0:0:0:0:
255,184,17666,1,8,0:0:0:0:
255,184,17749,1,0,0:0:0:0:
146,82,18081,1,0,0:0:0:0:
146,82,18246,1,0,0:0:0:0:
140,93,18578,1,8,0:0:0:0:
68,87,18909,1,0,0:0:0:0:
68,87,18992,1,0,0:0:0:0:
68,87,19075,1,0,0:0:0:0:
253,197,19407,1,8,0:0:0:0:
253,197,19572,1,8,0:0:0:0:
93,220,19904,1,0,0:0:0:0:
99,224,20070,1,8,0:0:0:0:
99,224,20235,1,8,0:0:0:0:
99,227,20401,1,0,0:0:0:0:
301,163,20732,1,0,0:0:0:0:
291,169,20898,1,0,0:0:0:0:
261,176,21230,1,8,0:0:0:0:
242,141,21561,1,0,0:0:0:0:
242,141,21644,1,8,0:0:0:0:
242,141,21727,1,8,0:0:0:0:
242,141,21893,1,8,0:0:0:0:
242,141,22058,1,8,0:0:0:0:
242,141,22224,1,0,0:0:0:0:
223,193,22721,1,0,0:0:0:0:
223,193,23053,1,8,0:0:0:0:
195,204,23716,1,0,0:0:0:0:
161,66,23882,1,0,0:0:0:0:
260,188,24047,1,8,0:0:0:0:
260,188,24213,1,8,0:0:0:0:
251,190,24296,1,8,0:0:0:0:
245,190,24379,1,0,0:0:0:0:
107,168,24545,1,0,0:0:0:0:
136,169,24710,1,8,0:0:0:0:
218,178,25208,1,0,0:0:0:0:
196,177,25373,1,12,0:0:0:0:
325,165,25705,1,0,0:0:0:0:
166,127,25871,1,0,0:0:0:0:
166,127,26036,1,8,0:0:0:0:
162,121,26202,1,0,0:0:0:0:
166,127,26285,1,0,0:0:0:0:
166,127,26368,1,0,0:0:0:0:
158,133,26451,1,8,0:0:0:0:
158,133,26534,1,0,0:0:0:0:
158,138,26699,1,8,0:0:0:0:
185,181,26865,1,0,0:0:0:0:
185,181,26948,1,0,0:0:0:0:
185,181,27031,1,0,0:0:0:0:
185,181,27197,1,0,0:0:0:0:
185,188,27362,1,8,0:0:0:0:
185,188,27445,1,8,0:0:0:0:
178,152,27528,1,0,0:0:0:0:
177,150,27611,1,0,0:0:0:0:
178,145,27694,1,8,0:0:0:0:
202,235,27860,1,0,0:0:0:0:
204,240,27942,1,0,0:0:0:0:
204,240,28025,1,8,0:0:0:0:
243,194,28108,1,0,0:0:0:0:
243,194,28191,1,8,0:0:0:0:
243,194,28274,1,8,0:0:0:0:
243,194,28357,1,0,0:0:0:0:
251,216,28523,1,0,0:0:0:0:
255,215,28688,1,8,0:0:0:0:
276,222,28854,1,0,0:0:0:0:
276,222,28937,1,0,0:0:0:0:
276,223,29020,1,0,0:0:0:0:
276,224,29103,1,8,0:0:0:0:
276,227,29186,1,0,0:0:0:0:
187,180,29351,1,8,0:0:0:0:
228,174,29517,1,0,0:0:0:0:
235,171,29600,1,0,0:0:0:0:
236,171,29683,1,8,0:0:0:0:
236,177,29766,1,8,0:0:0:0:
236,178,29849,1,8,0:0:0:0:
236,178,29931,1,8,0:0:0:0:
246,188,30014,1,0,0:0:0:0:
262,199,30097,1,8,0:0:0:0:
246,225,30180,1,0,0:0:0:0:
246,225,30263,1,0,0:0:0:0:
241,227,30346,1,8,0:0:0:0:
194,193,30511,1,0,0:0:0:0:
187,190,30594,1,0,0:0:0:0:
187,190,30677,1,8,0:0:0:0:
187,190,30760,1,8,0:0:0:0:
187,190,30843,1,8,0:0:0:0:
187,190,30926,1,8,0:0:0:0:
187,190,31009,1,0,0:0:0:0:
211,148,31174,1,0,0:0:0:0:
352,160,31340,1,8,0:0:0:0:
209,174,31506,1,0,0:0:0:0:
231,229,31672,1,0,0:0:0:0:
231,229,31837,1,8,0:0:0:0:
231,229,32003,1,0,0:0:0:0:
101,175,32086,1,8,0:0:0:0:
103,181,32169,1,0,0:0:0:0:
104,187,32252,1,8,0:0:0:0:
231,229,32335,1,0,0:0:0:0:
181,193,32500,1,0,0:0:0:0:
192,96,32666,1,8,0:0:0:0:
352,160,32832,1,8,0:0:0:0:
160,160,32998,1,8,0:0:0:0:
352,96,33163,1,0,0:0:0:0:
275,220,33329,1,0,0:0:0:0:
331,247,33495,1,8,0:0:0:0:
154,221,33661,1,0,0:0:0:0:
153,232,33744,1,8,0:0:0:0:
153,232,33826,1,8,0:0:0:0:
153,232,33909,1,8,0:0:0:0:
154,233,33992,1,0,0:0:0:0:
245,178,34075,1,0,0:0:0:0:
245,178,34158,1,8,0:0:0:0:
245,178,34241,1,8,0:0:0:0:
245,178,34324,1,0,0:0:0:0:
245,178,34407,1,8,0:0:0:0:
341,124,34489,1,0,0:0:0:0:
322,136,34572,1,0,0:0:0:0:
161,142,34655,1,8,0:0:0:0:
161,142,34738,1,8,0:0:0:0:
161,142,34821,1,0,0:0:0:0:
281,246,34904,1,0,0:0:0:0:
227,97,34987,1,0,0:0:0:0:
359,117,35318,1,4,0:0:0:0:
274,179,35650,1,12,0:0:0:0:
274,179,35981,1,12,0:0:0:0:
274,179,36313,1,4,0:0:0:0:
274,179,36478,1,4,0:0:0:0:
83,203,37639,1,4,0:0:0:0:
139,218,37887,1,0,0:0:0:0:
139,218,37970,1,8,0:0:0:0:
295,172,38136,1,0,0:0:0:0:
279,185,38302,1,8,0:0:0:0:
279,184,38384,1,0,0:0:0:0:
278,183,38550,1,0,0:0:0:0:
279,183,38633,1,8,0:0:0:0:
278,184,38799,1,0,0:0:0:0:
278,184,38882,1,8,0:0:0:0:
277,184,38965,1,0,0:0:0:0:
277,184,39047,1,0,0:0:0:0:
281,158,39213,1,0,0:0:0:0:
281,160,39296,1,8,0:0:0:0:
178,153,39462,1,8,0:0:0:0:
178,153,39545,1,8,0:0:0:0:
178,153,39628,1,0,0:0:0:0:
178,153,39793,1,8,0:0:0:0:
178,153,39959,1,0,0:0:0:0:
178,153,40042,1,0,0:0:0:0:
178,153,40125,1,8,0:0:0:0:
178,153,40208,1,8,0:0:0:0:
178,153,40291,1,0,0:0:0:0:
189,187,40456,1,0,0:0:0:0:
189,187,40539,1,8,0:0:0:0:
194,175,40705,1,0,0:0:0:0:
266,153,40788,1,8,0:0:0:0:
194,175,40871,1,0,0:0:0:0:
194,175,40953,1,8,0:0:0:0:
137,154,41119,1,8,0:0:0:0:
137,154,41202,1,0,0:0:0:0:
147,168,41368,1,0,0:0:0:0:
147,168,41451,1,8,0:0:0:0:
220,179,41616,1,8,0:0:0:0:
220,179,41672,1,8,0:0:0:0:
220,179,41727,1,8,0:0:0:0:
253,178,41782,1,0,0:0:0:0:
253,178,41865,1,0,0:0:0:0:
253,178,41948,1,8,0:0:0:0:
253,178,42031,1,8,0:0:0:0:
253,178,42114,1,0,0:0:0:0:
253,178,42197,1,0,0:0:0:0:
164,148,42279,1,8,0:0:0:0:
230,112,42362,1,8,0:0:0:0:
230,112,42445,1,8,0:0:0:0:
230,112,42528,1,8,0:0:0:0:
230,112,42611,1,0,0:0:0:0:
230,112,42694,1,8,0:0:0:0:
230,112,42777,1,8,0:0:0:0:
230,112,42860,1,8,0:0:0:0:
230,112,42942,1,0,0:0:0:0:
266,213,43108,1,0,0:0:0:0:
266,213,43191,1,0,0:0:0:0:
266,213,43274,1,8,0:0:0:0:
219,182,43440,1,0,0:0:0:0:
219,182,43605,1,8,0:0:0:0:
219,182,43688,1,0,0:0:0:0:
116,143,43854,1,0,0:0:0:0:
116,143,43937,1,8,0:0:0:0:
204,158,44103,1,8,0:0:0:0:
291,169,44268,1,8,0:0:0:0:
291,169,44351,1,0,0:0:0:0:
292,174,44434,1,0,0:0:0:0:
293,177,44517,1,8,0:0:0:0:
293,188,44600,1,8,0:0:0:0:
228,221,44766,1,0,0:0:0:0:
171,157,44931,1,8,0:0:0:0:
171,157,45014,1,8,0:0:0:0:
171,157,45097,1,0,0:0:0:0:
171,157,45180,1,0,0:0:0:0:
171,157,45263,1,8,0:0:0:0:
171,157,45346,1,0,0:0:0:0:
171,157,45429,1,8,0:0:0:0:
171,157,45511,1,8,0:0:0:0:
175,159,45594,1,0,0:0:0:0:
253,245,45760,1,0,0:0:0:0:
253,236,45843,1,0,0:0:0:0:
258,238,45926,1,8,0:0:0:0:
258,238,46092,1,0,0:0:0:0:
258,238,46174,1,0,0:0:0:0:
258,238,46257,1,8,0:0:0:0:
258,238,46340,1,0,0:0:0:0:
258,238,46506,1,0,0:0:0:0:
258,238,46589,1,8,0:0:0:0:
221,122,46755,1,0,0:0:0:0:
221,122,46837,1,0,0:0:0:0:
125,173,46920,1,8,0:0:0:0:
125,173,47003,1,8,0:0:0:0:
125,173,47086,1,0,0:0:0:0:
125,173,47169,1,0,0:0:0:0:
125,173,47252,1,8,0:0:0:0:
125,173,47335,1,0,0:0:0:0:
125,173,47418,1,0,0:0:0:0:
125,173,47500,1,0,0:0:0:0:
197,166,47583,1,8,0:0:0:0:
197,166,47639,1,8,0:0:0:0:
197,166,47694,1,8,0:0:0:0:
261,259,47749,1,0,0:0:0:0:
261,259,47832,1,0,0:0:0:0:
261,259,47915,1,8,0:0:0:0:
261,259,47998,1,0,0:0:0:0:
261,259,48081,1,8,0:0:0:0:
261,259,48163,1,8,0:0:0:0:
261,259,48246,1,0,0:0:0:0:
320,96,48412,1,0,0:0:0:0:
320,96,48578,1,8,0:0:0:0:
256,192,48744,1,0,0:0:0:0:
256,192,48826,1,0,0:0:0:0:
256,192,48909,1,0,0:0:0:0:
256,192,48992,1,8,0:0:0:0:
256,192,49075,1,0,0:0:0:0:
256,192,49158,1,0,0:0:0:0:
256,192,49241,1,8,0:0:0:0:
128,192,49407,1,0,0:0:0:0:
288,192,49572,1,8,0:0:0:0:
288,192,49614,1,8,0:0:0:0:
192,128,49738,1,8,0:0:0:0:
192,128,49779,1,8,0:0:0:0:
192,128,49904,1,8,0:0:0:0:
192,128,49945,1,8,0:0:0:0:
192,128,50070,1,8,0:0:0:0:
192,128,50111,1,8,0:0:0:0:
320,160,50235,1,0,0:0:0:0:
288,128,50318,1,0,0:0:0:0:
256,128,50401,1,8,0:0:0:0:
256,128,50484,1,0,0:0:0:0:
256,128,50567,1,8,0:0:0:0:
224,64,50650,1,0,0:0:0:0:
256,128,50732,1,0,0:0:0:0:
256,128,50815,1,0,0:0:0:0:
256,128,50898,1,8,0:0:0:0:
224,64,51064,1,0,0:0:0:0:
224,64,51230,1,8,0:0:0:0:
256,192,51395,1,8,0:0:0:0:
256,192,51478,1,8,0:0:0:0:
256,192,51561,1,0,0:0:0:0:
224,224,51727,1,0,0:0:0:0:
224,192,51893,1,8,0:0:0:0:
224,160,52058,1,0,0:0:0:0:
224,160,52114,1,0,0:0:0:0:
224,160,52169,1,0,0:0:0:0:
224,160,52224,1,8,0:0:0:0:
288,224,52307,1,8,0:0:0:0:
288,224,52390,1,0,0:0:0:0:
288,224,52473,1,8,0:0:0:0:
288,224,52556,1,0,0:0:0:0:
288,224,52639,1,0,0:0:0:0:
288,224,52721,1,8,0:0:0:0:
320,128,52804,1,0,0:0:0:0:
320,128,52887,1,8,0:0:0:0:
96,192,52970,1,8,0:0:0:0:
96,192,53053,1,0,0:0:0:0:
224,160,53136,1,0,0:0:0:0:
224,160,53219,1,8,0:0:0:0:
192,96,53302,1,0,0:0:0:0:
96,192,53384,1,8,0:0:0:0:
288,160,53467,1,8,0:0:0:0:
288,160,53550,1,0,0:0:0:0:
160,192,53716,1,0,0:0:0:0:
256,192,53882,1,8,0:0:0:0:
256,192,54047,1,0,0:0:0:0:
256,192,54130,1,8,0:0:0:0:
256,192,54213,1,0,0:0:0:0:
256,192,54296,1,8,0:0:0:0:
256,192,54379,1,8,0:0:0:0:
256,192,54462,1,0,0:0:0:0:
256,192,54545,1,8,0:0:0:0:
224,192,54710,1,0,0:0:0:0:
320,256,54876,1,0,0:0:0:0:
256,160,54987,1,0,0:0:0:0:
256,96,55097,1,0,0:0:0:0:
256,96,55208,1,0,0:0:0:0:
256,96,55318,1,0,0:0:0:0:
256,96,55429,1,0,0:0:0:0:
256,192,55539,1,12,0:0:0:0:
256,160,55871,1,12,0:0:0:0:
96,160,56202,1,0,0:0:0:0:
96,160,56368,1,0,0:0:0:0:
96,160,56534,1,8,0:0:0:0:
256,224,56699,1,0,0:0:0:0:
256,224,56782,1,0,0:0:0:0:
256,224,56865,1,0,0:0:0:0:
256,224,57031,1,0,0:0:0:0:
256,224,57197,1,8,0:0:0:0:
256,224,57362,1,0,0:0:0:0:
288,160,57528,1,8,0:0:0:0:
288,160,57611,1,8,0:0:0:0:
288,160,57694,1,0,0:0:0:0:
288,160,57777,1,0,0:0:0:0:
288,160,57860,1,8,0:0:0:0:
288,160,57942,1,0,0:0:0:0:
288,160,58025,1,0,0:0:0:0:
288,160,58108,1,0,0:0:0:0:
288,160,58191,1,8,0:0:0:0:
288,160,58274,1,8,0:0:0:0:
288,160,58357,1,8,0:0:0:0:
288,160,58440,1,8,0:0:0:0:
288,160,58523,1,0,0:0:0:0:
320,128,58688,1,0,0:0:0:0:
320,128,58854,1,12,0:0:0:0:
256,160,59186,1,0,0:0:0:0:
256,160,59351,1,8,0:0:0:0:
224,128,59683,1,0,0:0:0:0:
224,128,59849,1,0,0:0:0:0:
224,128,60014,1,8,0:0:0:0:
256,192,60180,1,8,0:0:0:0:
256,192,60346,1,0,0:0:0:0:
256,192,60511,1,0,0:0:0:0:
256,192,60677,1,8,0:0:0:0:
288,128,61009,1,0,0:0:0:0:
288,128,61092,1,0,0:0:0:0:
288,128,61174,1,0,0:0:0:0:
288,128,61340,1,0,0:0:0:0:
192,160,61506,1,12,0:0:0:0:
256,256,61837,1,0,0:0:0:0:
224,128,62003,1,12,0:0:0:0:
352,192,62335,1,0,0:0:0:0:
320,192,62500,1,8,0:0:0:0:
320,192,62666,1,0,0:0:0:0:
224,224,62832,1,8,0:0:0:0:
192,224,62915,1,8,0:0:0:0:
192,224,62998,1,0,0:0:0:0:
192,224,63081,1,0,0:0:0:0:
192,224,63163,1,8,0:0:0:0:
288,192,63329,5,0,0:0:0:0:
256,192,63495,1,8,0:0:0:0:
256,192,63578,1,8,0:0:0:0:
256,192,63661,1,0,0:0:0:0:
256,192,63826,1,12,0:0:0:0:
192,160,64158,1,0,0:0:0:0:
192,224,64241,1,0,0:0:0:0:
192,224,64324,1,0,0:0:0:0:
192,224,64407,1,0,0:0:0:0:
192,224,64489,1,8,0:0:0:0:
192,224,64572,1,0,0:0:0:0:
192,224,64655,1,0,0:0:0:0:
192,224,64738,1,0,0:0:0:0:
192,224,64821,1,8,0:0:0:0:
192,256,64904,1,0,0:0:0:0:
192,256,64987,1,0,0:0:0:0:
192,256,65070,1,0,0:0:0:0:
192,256,65152,1,8,0:0:0:0:
352,192,65484,1,0,0:0:0:0:
352,192,65567,1,0,0:0:0:0:
352,192,65650,1,8,0:0:0:0:
352,192,65732,1,0,0:0:0:0:
352,192,65815,1,8,0:0:0:0:
352,192,65898,1,0,0:0:0:0:
352,192,65981,1,0,0:0:0:0:
352,192,66064,1,0,0:0:0:0:
352,192,66147,1,8,0:0:0:0:
352,192,66230,1,8,0:0:0:0:
352,192,66313,1,0,0:0:0:0:
352,192,66395,1,0,0:0:0:0:
352,192,66478,1,8,0:0:0:0:
352,128,66810,1,0,0:0:0:0:
160,160,66893,1,8,0:0:0:0:
160,160,66976,1,0,0:0:0:0:
160,160,67058,1,0,0:0:0:0:
256,224,67141,1,8,0:0:0:0:
256,224,67224,1,8,0:0:0:0:
256,224,67307,1,0,0:0:0:0:
256,224,67390,1,8,0:0:0:0:
288,192,67473,1,0,0:0:0:0:
288,192,67556,1,0,0:0:0:0:
256,192,67639,1,8,0:0:0:0:
256,192,67721,1,8,0:0:0:0:
256,192,67804,1,0,0:0:0:0:
256,192,67887,1,8,0:0:0:0:
128,160,67970,1,0,0:0:0:0:
256,192,68053,1,0,0:0:0:0:
256,192,68136,1,8,0:0:0:0:
224,256,68467,1,8,0:0:0:0:
224,224,68799,1,8,0:0:0:0:
224,224,69130,1,8,0:0:0:0:
288,160,69462,1,0,0:0:0:0:
288,160,69628,1,0,0:0:0:0:
288,160,69793,1,8,0:0:0:0:
256,160,69959,1,0,0:0:0:0:
256,160,70042,1,0,0:0:0:0:
256,160,70125,1,0,0:0:0:0:
256,160,70208,1,8,0:0:0:0:
256,160,70291,1,0,0:0:0:0:
320,160,70456,1,8,0:0:0:0:
256,128,70622,1,0,0:0:0:0:
256,128,70705,1,0,0:0:0:0:
256,128,70788,1,8,0:0:0:0:
256,128,70953,1,8,0:0:0:0:
256,128,71119,1,8,0:0:0:0:
288,256,72114,1,4,0:0:0:0:
288,128,72279,1,0,0:0:0:0:
160,192,72362,1,0,0:0:0:0:
160,192,72445,1,8,0:0:0:0:
352,224,72611,1,0,0:0:0:0:
160,128,72777,1,0,0:0:0:0:
160,128,72860,1,0,0:0:0:0:
160,128,72942,1,8,0:0:0:0:
160,128,73025,1,0,0:0:0:0:
256,160,73108,1,8,0:0:0:0:
192,128,73274,1,8,0:0:0:0:
192,128,73357,1,8,0:0:0:0:
192,128,73440,1,0,0:0:0:0:
320,224,73605,1,0,0:0:0:0:
320,224,73771,1,8,0:0:0:0:
320,224,73854,1,8,0:0:0:0:
320,224,73937,1,0,0:0:0:0:
320,224,74020,1,0,0:0:0:0:
320,224,74103,1,8,0:0:0:0:
224,160,74186,1,0,0:0:0:0:
192,160,74268,1,0,0:0:0:0:
320,96,74351,1,0,0:0:0:0:
448,224,74434,1,8,0:0:0:0:
448,224,74545,1,8,0:0:0:0:
448,224,74655,1,8,0:0:0:0:
192,128,74766,1,4,0:0:0:0:
256,256,74931,1,0,0:0:0:0:
256,256,75014,1,0,0:0:0:0:
256,256,75097,1,8,0:0:0:0:
288,192,75263,1,0,0:0:0:0:
320,256,75429,1,8,0:0:0:0:
320,256,75511,1,8,0:0:0:0:
320,256,75594,1,0,0:0:0:0:
160,192,75677,1,0,0:0:0:0:
320,256,75760,1,8,0:0:0:0:
320,256,75843,1,8,0:0:0:0:
320,256,75926,1,8,0:0:0:0:
320,256,76009,1,8,0:0:0:0:
320,256,76092,1,0,0:0:0:0:
256,128,76257,1,0,0:0:0:0:
256,128,76340,1,0,0:0:0:0:
256,128,76423,1,8,0:0:0:0:
256,128,76506,1,8,0:0:0:0:
192,160,76589,1,0,0:0:0:0:
192,160,76672,1,0,0:0:0:0:
320,160,76755,1,8,0:0:0:0:
320,160,76810,1,8,0:0:0:0:
320,160,76865,1,8,0:0:0:0:
416,128,76920,1,0,0:0:0:0:
448,128,77003,1,0,0:0:0:0:
320,288,77086,1,8,0:0:0:0:
64,128,77169,1,0,0:0:0:0:
320,288,77252,1,8,0:0:0:0:
320,288,77335,1,8,0:0:0:0:
320,288,77418,1,0,0:0:0:0:
224,128,77583,1,0,0:0:0:0:
224,160,77666,1,0,0:0:0:0:
224,160,77749,1,8,0:0:0:0:
0,128,77915,1,8,0:0:0:0:
192,160,78081,1,0,0:0:0:0:
192,160,78163,1,0,0:0:0:0:
192,160,78246,1,8,0:0:0:0:
224,96,78329,1,0,0:0:0:0:
192,160,78412,1,8,0:0:0:0:
256,160,78578,1,0,0:0:0:0:
256,192,78744,1,0,0:0:0:0:
256,192,78826,1,0,0:0:0:0:
256,192,78909,1,0,0:0:0:0:
256,192,78992,1,0,0:0:0:0:
256,192,79075,1,8,0:0:0:0:
256,192,79158,1,8,0:0:0:0:
256,192,79241,1,8,0:0:0:0:
256,192,79324,1,8,0:0:0:0:
224,128,79407,1,0,0:0:0:0:
224,128,79489,1,0,0:0:0:0:
224,128,79572,1,8,0:0:0:0:
224,128,79655,1,0,0:0:0:0:
160,192,79738,1,8,0:0:0:0:
160,192,79821,1,0,0:0:0:0:
320,128,79904,1,8,0:0:0:0:
320,128,79959,1,8,0:0:0:0:
320,128,80014,1,8,0:0:0:0:
320,128,80070,1,0,0:0:0:0:
320,160,80235,1,0,0:0:0:0:
320,192,80401,1,8,0:0:0:0:
320,192,80567,1,0,0:0:0:0:
320,192,80732,1,12,0:0:0:0:
192,192,80898,1,0,0:0:0:0:
256,160,81064,1,12,0:0:0:0:
320,96,81230,1,8,0:0:0:0:
224,224,81395,1,8,0:0:0:0:
224,224,81478,1,8,0:0:0:0:
224,224,81561,1,8,0:0:0:0:
224,224,81644,1,8,0:0:0:0:
224,224,81727,1,0,0:0:0:0:
224,224,81810,1,8,0:0:0:0:
224,224,81893,1,0,0:0:0:0:
224,224,81976,1,0,0:0:0:0:
320,128,82058,1,8,0:0:0:0:
160,128,82141,1,8,0:0:0:0:
320,128,82224,1,0,0:0:0:0:
320,128,82307,1,0,0:0:0:0:
288,192,82390,1,8,0:0:0:0:
288,192,82445,1,8,0:0:0:0:
288,192,82500,1,8,0:0:0:0:
288,192,82556,1,8,0:0:0:0:
288,192,82611,1,8,0:0:0:0:
288,192,82666,1,8,0:0:0:0:
288,192,82721,1,0,0:0:0:0:
192,192,82887,1,0,0:0:0:0:
192,192,83053,1,8,0:0:0:0:
224,160,83219,1,0,0:0:0:0:
224,160,83274,1,0,0:0:0:0:
224,160,83329,1,0,0:0:0:0:
448,32,83384,1,8,0:0:0:0:
256,128,83467,1,0,0:0:0:0:
256,128,83550,1,8,0:0:0:0:
256,128,83633,1,8,0:0:0:0:
256,128,83716,1,0,0:0:0:0:
160,192,83882,1,0,0:0:0:0:
160,192,84047,1,8,0:0:0:0:
256,192,84213,1,0,0:0:0:0:
256,192,84296,1,0,0:0:0:0:
256,192,84379,1,8,0:0:0:0:
256,192,84545,1,0,0:0:0:0:
256,192,84628,1,0,0:0:0:0:
256,192,84710,1,8,0:0:0:0:
256,192,84793,1,8,0:0:0:0:
288,32,84876,1,8,0:0:0:0:
288,32,84959,1,8,0:0:0:0:
288,32,85042,1,0,0:0:0:0:
256,160,85208,1,8,0:0:0:0:
256,160,85263,1,8,0:0:0:0:
256,160,85318,1,8,0:0:0:0:
256,160,85373,1,0,0:0:0:0:
416,224,85539,1,0,0:0:0:0:
416,224,85705,1,8,0:0:0:0:
128,192,85871,1,8,0:0:0:0:
416,224,85953,1,8,0:0:0:0:
416,224,86036,1,0,0:0:0:0:
288,256,86092,1,8,0:0:0:0:
288,224,86147,1,8,0:0:0:0:
288,224,86202,1,0,0:0:0:0:
384,224,86285,1,0,0:0:0:0:
384,224,86368,1,8,0:0:0:0:
224,128,86534,1,8,0:0:0:0:
224,128,86616,1,8,0:0:0:0:
224,128,86699,1,0,0:0:0:0:
448,160,86865,1,0,0:0:0:0:
448,160,86948,1,0,0:0:0:0:
448,160,87031,1,8,0:0:0:0:
448,160,87114,1,8,0:0:0:0:
288,288,87197,1,8,0:0:0:0:
448,160,87279,1,0,0:0:0:0:
256,192,87362,1,8,0:0:0:0:
320,160,87418,1,8,0:0:0:0:
320,160,87473,1,8,0:0:0:0:
320,160,87528,1,0,0:0:0:0:
192,192,87611,1,0,0:0:0:0:
320,64,87694,1,8,0:0:0:0:
352,192,87860,1,8,0:0:0:0:
352,192,87942,1,8,0:0:0:0:
128,128,88025,1,0,0:0:0:0:
128,128,88108,1,0,0:0:0:0:
128,128,88191,1,0,0:0:0:0:
256,160,88274,1,0,0:0:0:0:
256,160,88357,1,8,0:0:0:0:
128,128,88440,1,0,0:0:0:0:
128,128,88523,1,0,0:0:0:0:
128,128,88605,1,0,0:0:0:0:
288,128,88688,1,8,0:0:0:0:
288,128,88771,1,8,0:0:0:0:
128,128,88854,1,0,0:0:0:0:
128,128,88937,1,0,0:0:0:0:
384,256,89020,1,8,0:0:0:0:
448,224,89186,1,8,0:0:0:0:
224,192,89351,1,0,0:0:0:0:
224,192,89434,1,0,0:0:0:0:
384,192,89517,1,8,0:0:0:0:
384,192,89600,1,8,0:0:0:0:
384,192,89683,1,8,0:0:0:0:
384,192,89766,1,8,0:0:0:0:
384,192,89849,1,0,0:0:0:0:
384,192,89931,1,0,0:0:0:0:
160,96,90014,1,8,0:0:0:0:
160,96,90097,1,0,0:0:0:0:
160,128,90180,1,0,0:0:0:0:
160,128,90263,1,0,0:0:0:0:
384,160,90346,1,8,0:0:0:0:
32,128,90429,1,0,0:0:0:0:
384,160,90511,1,8,0:0:0:0:
384,160,90594,1,8,0:0:0:0:
288,128,90677,1,0,0:0:0:0:
288,128,90760,1,0,0:0:0:0:
288,128,90843,1,0,0:0:0:0:
288,128,90926,1,0,0:0:0:0:
352,160,91009,1,8,0:0:0:0:
352,160,91064,1,8,0:0:0:0:
352,160,91119,1,8,0:0:0:0:
352,160,91174,1,0,0:0:0:0:
352,160,91257,1,0,0:0:0:0:
160,192,91340,1,8,0:0:0:0:
160,192,91395,1,8,0:0:0:0:
160,192,91451,1,0,0:0:0:0:
160,192,91506,1,0,0:0:0:0:
256,192,91589,1,0,0:0:0:0:
320,192,91672,1,8,0:0:0:0:
320,192,91755,1,0,0:0:0:0:
320,192,91837,1,8,0:0:0:0:
320,192,91920,1,8,0:0:0:0:
320,192,92003,1,0,0:0:0:0:
256,160,92086,1,0,0:0:0:0:
320,288,92169,1,0,0:0:0:0:
256,192,92252,1,0,0:0:0:0:
256,192,92335,1,8,0:0:0:0:
256,192,92418,1,8,0:0:0:0:
256,192,92500,1,0,0:0:0:0:
256,192,92583,1,8,0:0:0:0:
256,192,92666,1,0,0:0:0:0:
192,160,92749,1,0,0:0:0:0:
64,128,92832,1,8,0:0:0:0:
192,160,92915,1,0,0:0:0:0:
192,160,92998,1,12,0:0:0:0:
288,128,93329,1,4,0:0:0:0:
