osu file format v14

[General]
AudioFilename: Ryu - I'm so Happy.mp3
AudioLeadIn: 0
PreviewTime: 48298
Countdown: 0
SampleSet: Normal
StackLeniency: 0.7
Mode: 1
LetterboxInBreaks: 0
WidescreenStoryboard: 1

[Editor]
DistanceSpacing: 0.1
BeatDivisor: 4
GridSize: 32
TimelineZoom: 1.9

[Metadata]
Title:I'm so Happy
TitleUnicode:I'm so Happy
Artist:Ryu*
ArtistUnicode:Ryu☆
Creator:Taka030
Version:Yuni's so Happy
Source:jubeat knit
Tags:sdvx konami
BeatmapID:1574787
BeatmapSetID:746812

[Difficulty]
HPDrainRate:5
CircleSize:5
OverallDifficulty:5
ApproachRate:5
SliderMultiplier:1.4
SliderTickRate:1

[Events]
//Background and Video events
0,0,"Konachan.com+-+261388+sample.jpg",0,0
//Break Periods
//Storyboard Layer 0 (Background)
//Storyboard Layer 1 (Fail)
//Storyboard Layer 2 (Pass)
//Storyboard Layer 3 (Foreground)
//Storyboard Sound Samples

[TimingPoints]
564,331.491712707182,4,1,0,100,1,0
15149,-133.333333333333,4,1,0,100,0,0
24431,-200,4,1,0,100,0,0
25425,-76.9230769230769,4,1,0,100,0,0
25757,-117.647058823529,4,1,0,100,0,0
30895,-113.636363636364,4,1,0,100,0,0
30978,-112.359550561798,4,1,0,100,0,0
31061,-111.111111111111,4,1,0,100,0,0
32387,-105.263157894737,4,1,0,100,0,0
33713,-100,4,1,0,100,0,0
37691,-100,4,1,0,100,0,1
58906,-100,4,1,0,100,0,0
60149,-111.111111111111,4,1,0,100,0,0
60978,-125,4,1,0,100,0,0
61475,-142.857142857143,4,1,0,100,0,0
62470,-166.666666666667,4,1,0,100,0,0
62801,-200,4,1,0,100,0,0
63464,-133.333333333333,4,1,0,100,0,0
64210,-100,4,1,0,100,0,0
70923,-102.040816326531,4,1,0,100,0,0
71088,-104.166666666667,4,1,0,70,0,0
71254,-106.382978723404,4,1,0,40,0,0
71586,-106.382978723404,4,1,0,100,0,0
71751,-104.166666666667,4,1,0,100,0,0
71917,-102.040816326531,4,1,0,100,0,0
72166,-100,4,1,0,100,0,1
82773,-97.0873786407767,4,1,0,100,0,1
93381,-97.0873786407767,4,1,0,100,0,0

[HitObjects]
192,128,564,5,4,0:0:0:0:
192,128,729,1,0,0:0:0:0:
192,128,895,1,2,0:0:0:0:
192,128,978,1,2,0:0:0:0:
192,128,1061,1,2,0:0:0:0:
192,128,1226,1,0,0:0:0:0:
192,128,1309,1,0,0:0:0:0:
192,128,1392,1,0,0:0:0:0:
192,128,1558,1,2,0:0:0:0:
192,128,1889,1,0,0:0:0:0:
192,128,1972,1,0,0:0:0:0:
192,128,2055,1,0,0:0:0:0:
192,128,2138,1,0,0:0:0:0:
192,128,2221,1,2,0:0:0:0:
192,128,2304,1,2,0:0:0:0:
160,64,2387,5,2,0:0:0:0:
192,96,2552,1,2,0:0:0:0:
128,64,2925,1,0,0:0:0:0:
160,96,3215,1,4,0:0:0:0:
160,96,4044,1,0,0:0:0:0:
128,64,4541,1,0,0:0:0:0:
192,96,5204,1,0,0:0:0:0:
192,96,5370,1,0,0:0:0:0:
192,96,5536,1,2,0:0:0:0:
192,96,5619,1,2,0:0:0:0:
192,96,5702,1,2,0:0:0:0:
192,96,5784,1,2,0:0:0:0:
192,96,5867,1,0,0:0:0:0:
192,96,6696,1,0,0:0:0:0:
192,96,7193,1,0,0:0:0:0:
160,128,7525,1,0,0:0:0:0:
224,128,7856,1,2,0:0:0:0:
224,128,8022,1,0,0:0:0:0:
224,128,8188,1,2,0:0:0:0:
224,128,8271,1,0,0:0:0:0:
224,128,8354,1,0,0:0:0:0:
192,64,8436,1,0,0:0:0:0:
224,128,8519,1,0,0:0:0:0:
224,128,8685,1,2,0:0:0:0:
224,128,8768,1,2,0:0:0:0:
224,128,8851,1,0,0:0:0:0:
224,96,9017,1,2,0:0:0:0:
192,96,9182,1,0,0:0:0:0:
192,64,9348,1,2,0:0:0:0:
192,64,9431,1,0,0:0:0:0:
192,64,9514,1,0,0:0:0:0:
128,64,9597,1,2,0:0:0:0:
192,64,9680,1,2,0:0:0:0:
192,64,9845,1,0,0:0:0:0:
128,64,10011,1,2,0:0:0:0:
160,64,10094,5,0,0:0:0:0:
160,64,10260,1,0,0:0:0:0:
160,64,10343,1,2,0:0:0:0:
160,64,10508,1,0,0:0:0:0:
160,64,10674,1,0,0:0:0:0:
160,64,10757,1,2,0:0:0:0:
160,64,10840,1,0,0:0:0:0:
160,64,10923,1,2,0:0:0:0:
192,64,11005,1,2,0:0:0:0:
192,64,11171,1,0,0:0:0:0:
160,64,11337,1,2,0:0:0:0:
160,64,11420,1,2,0:0:0:0:
160,64,11503,1,0,0:0:0:0:
160,32,11668,1,2,0:0:0:0:
160,64,11834,1,0,0:0:0:0:
160,64,12000,1,0,0:0:0:0:
160,64,12083,1,2,0:0:0:0:
160,64,12166,1,0,0:0:0:0:
160,64,12249,1,2,0:0:0:0:
128,96,12331,1,2,0:0:0:0:
128,96,12414,1,2,0:0:0:0:
128,96,12497,1,0,0:0:0:0:
160,32,12580,1,0,0:0:0:0:
128,96,12746,1,0,0:0:0:0:
128,96,12912,1,0,0:0:0:0:
128,96,12994,1,2,0:0:0:0:
160,96,13160,1,2,0:0:0:0:
128,128,13243,1,0,0:0:0:0:
128,128,13409,1,0,0:0:0:0:
160,96,13575,1,0,0:0:0:0:
160,96,13657,1,0,0:0:0:0:
160,96,13823,1,0,0:0:0:0:
160,96,14155,1,0,0:0:0:0:
160,96,14486,1,0,0:0:0:0:
160,96,14569,1,2,0:0:0:0:
160,96,14652,1,0,0:0:0:0:
160,96,14818,1,0,0:0:0:0:
160,96,15149,1,4,0:0:0:0:
160,96,16475,1,0,0:0:0:0:
160,96,17304,1,0,0:0:0:0:
160,96,17470,1,2,0:0:0:0:
160,96,17635,1,2,0:0:0:0:
160,96,17801,1,0,0:0:0:0:
160,96,19127,1,0,0:0:0:0:
160,96,20122,1,2,0:0:0:0:
160,96,20453,1,2,0:0:0:0:
128,128,22773,1,2,0:0:0:0:
128,128,23105,1,2,0:0:0:0:
256,192,24431,12,0,25260,0:0:0:0:
160,64,25425,5,12,0:0:0:0:
160,96,25757,1,4,0:0:0:0:
256,96,26088,1,2,0:0:0:0:
256,128,26254,1,0,0:0:0:0:
256,128,26337,1,0,0:0:0:0:
256,128,26586,1,0,0:0:0:0:
256,128,26751,1,2,0:0:0:0:
160,32,26917,1,2,0:0:0:0:
256,128,27083,1,0,0:0:0:0:
256,128,27414,1,2,0:0:0:0:
160,96,27580,1,0,0:0:0:0:
160,32,27663,1,0,0:0:0:0:
160,64,27829,1,2,0:0:0:0:
160,64,27912,1,0,0:0:0:0:
160,96,27994,1,0,0:0:0:0:
160,64,28077,1,2,0:0:0:0:
160,64,28326,1,2,0:0:0:0:
160,64,28409,1,0,0:0:0:0:
160,64,28575,1,0,0:0:0:0:
160,64,28740,1,2,0:0:0:0:
160,64,28906,1,0,0:0:0:0:
160,64,28989,1,2,0:0:0:0:
160,64,29238,1,0,0:0:0:0:
160,64,29403,1,2,0:0:0:0:
128,96,29569,1,2,0:0:0:0:
160,64,29735,1,0,0:0:0:0:
160,64,30066,1,2,0:0:0:0:
160,64,30232,1,2,0:0:0:0:
160,64,30398,1,0,0:0:0:0:
160,64,30481,1,2,0:0:0:0:
128,64,30646,1,2,0:0:0:0:
128,64,30729,1,2,0:0:0:0:
160,32,30895,1,2,0:0:0:0:
128,64,30978,1,2,0:0:0:0:
128,64,31061,1,0,0:0:0:0:
160,32,31226,1,0,0:0:0:0:
160,32,31392,1,2,0:0:0:0:
160,32,31558,1,0,0:0:0:0:
160,32,31641,1,0,0:0:0:0:
160,32,31724,1,0,0:0:0:0:
160,32,31889,1,0,0:0:0:0:
160,32,31972,1,0,0:0:0:0:
160,32,32055,1,2,0:0:0:0:
160,32,32221,1,2,0:0:0:0:
160,32,32387,1,4,0:0:0:0:
160,32,32552,1,0,0:0:0:0:
160,32,32718,1,2,0:0:0:0:
160,32,32884,1,0,0:0:0:0:
160,32,32967,1,0,0:0:0:0:
160,32,33050,1,0,0:0:0:0:
160,32,33133,1,2,0:0:0:0:
160,32,33215,1,0,0:0:0:0:
160,32,33298,5,2,0:0:0:0:
160,32,33381,1,2,0:0:0:0:
160,32,33547,1,2,0:0:0:0:
160,32,33713,1,0,0:0:0:0:
160,32,33796,1,0,0:0:0:0:
160,32,33878,1,0,0:0:0:0:
160,32,33961,1,0,0:0:0:0:
160,32,34044,1,2,0:0:0:0:
160,32,34127,1,0,0:0:0:0:
160,32,34210,1,0,0:0:0:0:
160,32,34293,1,0,0:0:0:0:
160,32,34376,1,2,0:0:0:0:
160,32,34459,1,2,0:0:0:0:
160,32,34541,1,0,0:0:0:0:
160,32,34624,1,0,0:0:0:0:
160,32,34707,1,2,0:0:0:0:
160,32,34790,1,0,0:0:0:0:
160,32,34873,1,0,0:0:0:0:
160,32,34956,1,0,0:0:0:0:
160,32,35039,1,2,0:0:0:0:
160,32,35370,1,0,0:0:0:0:
160,32,35702,1,0,0:0:0:0:
160,32,36033,1,0,0:0:0:0:
160,32,36365,1,12,0:0:0:0:
160,32,36530,1,12,0:0:0:0:
256,192,36696,12,0,37525,0:0:0:0:
128,128,37691,5,4,0:0:0:0:
128,128,37856,1,2,0:0:0:0:
128,128,37939,1,0,0:0:0:0:
128,128,38105,1,0,0:0:0:0:
160,128,38188,1,2,0:0:0:0:
160,128,38354,1,0,0:0:0:0:
128,128,38519,1,0,0:0:0:0:
128,128,38602,1,2,0:0:0:0:
128,128,38768,1,2,0:0:0:0:
128,128,38851,1,2,0:0:0:0:
128,128,39017,1,0,0:0:0:0:
128,128,39182,1,2,0:0:0:0:
128,128,39265,1,0,0:0:0:0:
128,128,39431,1,0,0:0:0:0:
128,128,39514,1,0,0:0:0:0:
128,128,39680,1,0,0:0:0:0:
128,128,39762,1,0,0:0:0:0:
128,128,39845,1,2,0:0:0:0:
128,128,39928,1,2,0:0:0:0:
128,128,40011,1,0,0:0:0:0:
128,128,40094,1,0,0:0:0:0:
128,128,40177,1,2,0:0:0:0:
128,128,40343,1,0,0:0:0:0:
160,64,40425,1,0,0:0:0:0:
160,64,40508,1,0,0:0:0:0:
160,64,40591,1,2,0:0:0:0:
160,64,40757,1,0,0:0:0:0:
160,64,40840,1,2,0:0:0:0:
160,64,41005,1,2,0:0:0:0:
160,64,41088,1,2,0:0:0:0:
160,64,41171,1,0,0:0:0:0:
160,64,41254,1,2,0:0:0:0:
160,64,41420,1,0,0:0:0:0:
160,64,41503,1,2,0:0:0:0:
160,64,41668,1,0,0:0:0:0:
160,64,41751,1,0,0:0:0:0:
160,64,41834,1,0,0:0:0:0:
160,64,41917,1,2,0:0:0:0:
160,64,42000,1,0,0:0:0:0:
160,64,42083,1,0,0:0:0:0:
160,64,42166,1,2,0:0:0:0:
160,64,42249,1,2,0:0:0:0:
160,64,42331,1,0,0:0:0:0:
192,64,42414,1,0,0:0:0:0:
192,64,42497,1,2,0:0:0:0:
192,64,42663,1,0,0:0:0:0:
192,64,42746,1,0,0:0:0:0:
192,64,42829,1,2,0:0:0:0:
192,64,42912,1,2,0:0:0:0:
192,64,42994,1,0,0:0:0:0:
192,64,43160,1,2,0:0:0:0:
192,64,43243,1,0,0:0:0:0:
192,64,43409,1,0,0:0:0:0:
192,64,43492,1,2,0:0:0:0:
192,64,43575,1,2,0:0:0:0:
192,64,43657,1,0,0:0:0:0:
192,64,43823,1,2,0:0:0:0:
192,64,43906,1,0,0:0:0:0:
192,64,44072,1,0,0:0:0:0:
192,64,44155,1,2,0:0:0:0:
192,64,44238,1,0,0:0:0:0:
192,64,44320,1,0,0:0:0:0:
192,64,44486,1,2,0:0:0:0:
192,64,44569,1,0,0:0:0:0:
192,64,44735,1,0,0:0:0:0:
192,64,44818,1,2,0:0:0:0:
192,64,44901,1,2,0:0:0:0:
192,64,44983,1,0,0:0:0:0:
192,64,45066,1,0,0:0:0:0:
192,64,45149,1,2,0:0:0:0:
192,64,45315,1,2,0:0:0:0:
192,96,45398,1,0,0:0:0:0:
192,96,45481,1,2,0:0:0:0:
192,96,45563,1,2,0:0:0:0:
192,96,45646,1,0,0:0:0:0:
192,96,45812,1,2,0:0:0:0:
192,96,45895,1,0,0:0:0:0:
192,96,45978,1,0,0:0:0:0:
192,96,46061,1,0,0:0:0:0:
192,96,46144,1,2,0:0:0:0:
192,96,46226,1,0,0:0:0:0:
192,96,46309,1,2,0:0:0:0:
192,96,46475,1,0,0:0:0:0:
192,96,46558,1,2,0:0:0:0:
192,96,46641,1,0,0:0:0:0:
192,96,46724,1,0,0:0:0:0:
192,96,46807,1,2,0:0:0:0:
192,96,46889,1,0,0:0:0:0:
192,96,46972,1,2,0:0:0:0:
192,96,47138,1,0,0:0:0:0:
192,96,47221,1,2,0:0:0:0:
192,96,47304,1,0,0:0:0:0:
192,96,47470,1,0,0:0:0:0:
192,96,47635,1,2,0:0:0:0:
192,96,47967,1,2,0:0:0:0:
192,96,48133,1,2,0:0:0:0:
128,128,48298,5,4,0:0:0:0:
128,128,48463,1,2,0:0:0:0:
128,128,48546,1,0,0:0:0:0:
128,128,48712,1,0,0:0:0:0:
160,128,48795,1,2,0:0:0:0:
160,128,48961,1,0,0:0:0:0:
128,128,49126,1,0,0:0:0:0:
128,128,49209,1,2,0:0:0:0:
160,128,49293,1,0,0:0:0:0:
128,128,49375,1,2,0:0:0:0:
128,128,49458,1,2,0:0:0:0:
128,128,49624,1,0,0:0:0:0:
128,128,49789,1,2,0:0:0:0:
128,128,49872,1,0,0:0:0:0:
128,128,50038,1,0,0:0:0:0:
128,128,50121,1,0,0:0:0:0:
128,128,50287,1,0,0:0:0:0:
128,128,50369,1,0,0:0:0:0:
128,128,50452,1,2,0:0:0:0:
128,128,50535,1,2,0:0:0:0:
128,128,50618,1,0,0:0:0:0:
128,128,50701,1,0,0:0:0:0:
128,128,50784,1,2,0:0:0:0:
128,128,50950,1,0,0:0:0:0:
160,64,51032,1,0,0:0:0:0:
160,64,51115,1,0,0:0:0:0:
160,64,51198,1,2,0:0:0:0:
160,64,51364,1,0,0:0:0:0:
160,64,51447,1,2,0:0:0:0:
160,64,51612,1,2,0:0:0:0:
160,64,51695,1,2,0:0:0:0:
160,64,51778,1,0,0:0:0:0:
160,64,51861,1,2,0:0:0:0:
160,128,51945,1,0,0:0:0:0:
160,64,52027,1,0,0:0:0:0:
160,64,52110,1,2,0:0:0:0:
160,64,52275,1,0,0:0:0:0:
160,64,52358,1,0,0:0:0:0:
160,64,52441,1,0,0:0:0:0:
160,64,52524,1,2,0:0:0:0:
160,64,52607,1,0,0:0:0:0:
160,64,52690,1,0,0:0:0:0:
160,64,52773,1,2,0:0:0:0:
160,64,52856,1,2,0:0:0:0:
160,64,52938,1,0,0:0:0:0:
192,64,53021,1,0,0:0:0:0:
192,64,53104,1,2,0:0:0:0:
192,64,53270,1,0,0:0:0:0:
192,64,53353,1,0,0:0:0:0:
192,64,53436,1,2,0:0:0:0:
192,64,53519,1,2,0:0:0:0:
192,64,53601,1,0,0:0:0:0:
192,64,53767,1,2,0:0:0:0:
192,64,53850,1,0,0:0:0:0:
192,64,54016,1,0,0:0:0:0:
192,64,54099,1,2,0:0:0:0:
192,64,54182,1,2,0:0:0:0:
192,64,54264,1,0,0:0:0:0:
192,64,54430,1,2,0:0:0:0:
192,64,54513,1,0,0:0:0:0:
192,64,54679,1,0,0:0:0:0:
192,64,54762,1,2,0:0:0:0:
160,0,54845,1,0,0:0:0:0:
160,64,54928,1,0,0:0:0:0:
192,64,55093,1,2,0:0:0:0:
192,64,55176,1,0,0:0:0:0:
160,64,55260,1,0,0:0:0:0:
160,64,55343,1,0,0:0:0:0:
192,64,55425,1,2,0:0:0:0:
192,64,55508,1,2,0:0:0:0:
192,64,55590,1,0,0:0:0:0:
192,64,55673,1,0,0:0:0:0:
192,64,55756,1,2,0:0:0:0:
192,64,55922,1,2,0:0:0:0:
192,96,56005,1,0,0:0:0:0:
192,96,56088,1,2,0:0:0:0:
160,32,56254,1,2,0:0:0:0:
160,64,56337,1,0,0:0:0:0:
192,32,56420,1,0,0:0:0:0:
160,32,56503,1,2,0:0:0:0:
192,96,56585,1,0,0:0:0:0:
192,96,56668,1,0,0:0:0:0:
192,96,56751,1,2,0:0:0:0:
192,96,56833,1,0,0:0:0:0:
192,96,56916,1,2,0:0:0:0:
160,64,57000,1,2,0:0:0:0:
192,96,57082,1,0,0:0:0:0:
192,96,57165,1,2,0:0:0:0:
192,96,57248,1,0,0:0:0:0:
192,96,57331,1,0,0:0:0:0:
192,96,57414,1,2,0:0:0:0:
192,96,57496,1,0,0:0:0:0:
192,96,57579,1,2,0:0:0:0:
160,0,57746,5,0,0:0:0:0:
160,0,57829,1,2,0:0:0:0:
160,0,57912,1,0,0:0:0:0:
192,96,58077,1,0,0:0:0:0:
192,96,58242,1,2,0:0:0:0:
160,0,58409,1,0,0:0:0:0:
160,64,58492,1,2,0:0:0:0:
160,64,58657,1,0,0:0:0:0:
192,96,58740,1,2,0:0:0:0:
160,32,58906,1,4,0:0:0:0:
224,128,60232,1,0,0:0:0:0:
224,128,61061,1,2,0:0:0:0:
224,128,61226,1,4,0:0:0:0:
224,128,61558,1,4,0:0:0:0:
192,160,62552,1,4,0:0:0:0:
192,160,62884,1,4,0:0:0:0:
224,128,63547,1,2,0:0:0:0:
160,96,63878,1,12,0:0:0:0:
224,128,64210,1,0,0:0:0:0:
224,128,64293,1,0,0:0:0:0:
224,128,64376,1,0,0:0:0:0:
224,128,64459,1,0,0:0:0:0:
192,96,64541,1,2,0:0:0:0:
224,128,64624,1,0,0:0:0:0:
224,128,64707,1,0,0:0:0:0:
224,128,64790,1,0,0:0:0:0:
224,128,64873,1,0,0:0:0:0:
224,128,64956,1,0,0:0:0:0:
224,128,65039,1,0,0:0:0:0:
224,128,65122,1,0,0:0:0:0:
224,128,65204,1,2,0:0:0:0:
224,128,65536,1,0,0:0:0:0:
224,128,65619,1,0,0:0:0:0:
224,128,65702,1,0,0:0:0:0:
224,128,65784,1,0,0:0:0:0:
224,128,65867,1,2,0:0:0:0:
224,128,65950,1,0,0:0:0:0:
224,128,66033,1,0,0:0:0:0:
224,128,66116,1,0,0:0:0:0:
192,96,66199,1,2,0:0:0:0:
224,128,66282,1,0,0:0:0:0:
224,128,66365,1,0,0:0:0:0:
224,128,66447,1,0,0:0:0:0:
224,128,66530,1,2,0:0:0:0:
160,64,66862,1,2,0:0:0:0:
192,96,66945,1,0,0:0:0:0:
192,96,67028,1,0,0:0:0:0:
192,96,67110,1,0,0:0:0:0:
192,96,67193,1,2,0:0:0:0:
192,96,67276,1,2,0:0:0:0:
192,96,67359,1,0,0:0:0:0:
192,96,67442,1,0,0:0:0:0:
192,96,67525,1,2,0:0:0:0:
192,96,67608,1,0,0:0:0:0:
192,96,67691,1,0,0:0:0:0:
192,96,67773,1,0,0:0:0:0:
192,96,67856,1,2,0:0:0:0:
192,96,67939,1,2,0:0:0:0:
192,96,68022,1,0,0:0:0:0:
192,96,68105,1,0,0:0:0:0:
192,96,68188,1,2,0:0:0:0:
160,64,68519,1,12,0:0:0:0:
160,64,68851,1,12,0:0:0:0:
160,64,69182,1,12,0:0:0:0:
160,64,69514,1,0,0:0:0:0:
160,64,69845,1,2,0:0:0:0:
160,64,70011,1,0,0:0:0:0:
160,64,70094,1,0,0:0:0:0:
160,64,70343,1,0,0:0:0:0:
160,64,70508,1,2,0:0:0:0:
160,64,70840,1,2,0:0:0:0:
160,64,71005,1,2,0:0:0:0:
160,64,71171,1,2,0:0:0:0:
160,64,71337,1,2,0:0:0:0:
160,64,71668,1,0,0:0:0:0:
160,64,71834,1,2,0:0:0:0:
160,64,72000,1,2,0:0:0:0:
160,64,72166,1,4,0:0:0:0:
192,32,72331,1,0,0:0:0:0:
160,64,72414,1,0,0:0:0:0:
160,64,72497,1,2,0:0:0:0:
160,64,72663,1,0,0:0:0:0:
160,64,72829,1,2,0:0:0:0:
160,64,72912,1,0,0:0:0:0:
160,64,72994,1,0,0:0:0:0:
160,64,73077,1,0,0:0:0:0:
160,64,73160,1,2,0:0:0:0:
160,32,73243,1,2,0:0:0:0:
160,32,73326,1,0,0:0:0:0:
160,64,73492,1,0,0:0:0:0:
160,64,73657,1,0,0:0:0:0:
160,64,73740,1,0,0:0:0:0:
160,64,73823,1,2,0:0:0:0:
160,64,73906,1,2,0:0:0:0:
160,64,73989,1,0,0:0:0:0:
160,64,74155,1,2,0:0:0:0:
160,32,74238,1,0,0:0:0:0:
160,32,74320,1,2,0:0:0:0:
160,32,74486,1,0,0:0:0:0:
96,160,74652,1,2,0:0:0:0:
160,32,74818,1,0,0:0:0:0:
160,32,74901,1,0,0:0:0:0:
160,32,74983,1,0,0:0:0:0:
160,32,75066,1,0,0:0:0:0:
160,32,75149,1,2,0:0:0:0:
160,32,75232,1,0,0:0:0:0:
160,32,75315,1,0,0:0:0:0:
160,32,75481,1,2,0:0:0:0:
160,32,75563,1,2,0:0:0:0:
160,32,75646,1,0,0:0:0:0:
160,32,75729,1,0,0:0:0:0:
160,32,75812,1,2,0:0:0:0:
160,32,75895,1,0,0:0:0:0:
160,32,75978,1,2,0:0:0:0:
160,32,76144,1,0,0:0:0:0:
160,32,76226,1,0,0:0:0:0:
160,32,76309,1,2,0:0:0:0:
160,32,76392,1,2,0:0:0:0:
160,32,76475,1,0,0:0:0:0:
160,32,76558,1,0,0:0:0:0:
160,32,76641,1,2,0:0:0:0:
160,32,76724,1,0,0:0:0:0:
160,32,76807,1,2,0:0:0:0:
160,32,76972,1,0,0:0:0:0:
160,32,77138,1,2,0:0:0:0:
160,32,77221,1,2,0:0:0:0:
160,32,77304,1,0,0:0:0:0:
160,32,77470,1,4,0:0:0:0:
160,32,77635,1,0,0:0:0:0:
160,32,77718,1,0,0:0:0:0:
160,32,77801,1,2,0:0:0:0:
160,32,77884,1,2,0:0:0:0:
160,32,77967,1,0,0:0:0:0:
160,32,78133,1,2,0:0:0:0:
160,32,78215,1,2,0:0:0:0:
160,32,78298,1,0,0:0:0:0:
160,32,78381,1,0,0:0:0:0:
160,32,78464,1,2,0:0:0:0:
160,32,78547,1,0,0:0:0:0:
160,32,78630,1,2,0:0:0:0:
160,32,78796,1,0,0:0:0:0:
160,32,78878,1,0,0:0:0:0:
160,32,78961,1,2,0:0:0:0:
160,32,79044,1,0,0:0:0:0:
160,32,79127,1,2,0:0:0:0:
160,32,79210,1,2,0:0:0:0:
160,32,79293,1,0,0:0:0:0:
160,64,79459,1,2,0:0:0:0:
160,64,79541,1,0,0:0:0:0:
160,64,79624,1,2,0:0:0:0:
160,32,79707,1,2,0:0:0:0:
160,32,79790,1,0,0:0:0:0:
160,32,79873,1,0,0:0:0:0:
224,96,79956,1,2,0:0:0:0:
160,32,80122,1,0,0:0:0:0:
160,32,80204,1,0,0:0:0:0:
160,32,80287,1,2,0:0:0:0:
160,32,80370,1,2,0:0:0:0:
160,32,80453,1,0,0:0:0:0:
160,32,80536,1,0,0:0:0:0:
160,32,80619,1,2,0:0:0:0:
160,32,80702,1,0,0:0:0:0:
160,32,80784,1,2,0:0:0:0:
160,32,80867,1,2,0:0:0:0:
160,32,80950,1,0,0:0:0:0:
160,32,81033,1,0,0:0:0:0:
160,32,81116,1,2,0:0:0:0:
160,32,81199,1,0,0:0:0:0:
160,32,81282,1,2,0:0:0:0:
160,32,81365,1,2,0:0:0:0:
160,32,81447,1,0,0:0:0:0:
160,32,81530,1,0,0:0:0:0:
160,32,81613,1,2,0:0:0:0:
160,32,81696,1,0,0:0:0:0:
160,32,81779,1,2,0:0:0:0:
160,32,81862,1,2,0:0:0:0:
160,32,81945,1,0,0:0:0:0:
160,32,82028,1,2,0:0:0:0:
160,32,82110,1,0,0:0:0:0:
160,32,82276,1,0,0:0:0:0:
160,32,82442,1,12,0:0:0:0:
160,32,82773,5,0,0:0:0:0:
160,64,82856,1,0,0:0:0:0:
160,128,82939,1,0,0:0:0:0:
160,64,83021,1,0,0:0:0:0:
192,32,83105,1,2,0:0:0:0:
192,64,83188,1,2,0:0:0:0:
160,64,83270,1,0,0:0:0:0:
192,64,83354,1,0,0:0:0:0:
160,64,83436,1,2,0:0:0:0:
192,32,83519,1,2,0:0:0:0:
192,32,83602,1,0,0:0:0:0:
192,32,83685,1,0,0:0:0:0:
192,32,83768,1,2,0:0:0:0:
96,128,83851,1,0,0:0:0:0:
192,64,83934,1,2,0:0:0:0:
160,32,84017,1,2,0:0:0:0:
192,32,84099,1,0,0:0:0:0:
192,64,84182,1,0,0:0:0:0:
160,32,84265,1,2,0:0:0:0:
160,64,84347,1,0,0:0:0:0:
160,64,84430,1,2,0:0:0:0:
160,64,84513,1,2,0:0:0:0:
160,64,84596,1,0,0:0:0:0:
192,32,84680,1,0,0:0:0:0:
160,64,84762,1,2,0:0:0:0:
160,32,84845,1,0,0:0:0:0:
160,32,84927,1,2,0:0:0:0:
192,32,85011,1,2,0:0:0:0:
160,32,85093,1,0,0:0:0:0:
160,32,85425,1,2,0:0:0:0:
160,32,85508,1,0,0:0:0:0:
160,32,85590,1,0,0:0:0:0:
160,32,85673,1,0,0:0:0:0:
160,32,85756,1,2,0:0:0:0:
128,32,85840,1,2,0:0:0:0:
128,32,85923,1,0,0:0:0:0:
128,32,86005,1,0,0:0:0:0:
160,32,86088,1,2,0:0:0:0:
160,32,86170,1,2,0:0:0:0:
160,32,86253,1,0,0:0:0:0:
160,32,86336,1,0,0:0:0:0:
160,32,86419,1,2,0:0:0:0:
160,32,86502,1,0,0:0:0:0:
160,32,86585,1,2,0:0:0:0:
160,64,86668,1,2,0:0:0:0:
160,32,86751,1,0,0:0:0:0:
160,32,86833,1,0,0:0:0:0:
160,32,86916,1,2,0:0:0:0:
160,32,86999,1,2,0:0:0:0:
160,32,87082,1,0,0:0:0:0:
160,32,87165,1,0,0:0:0:0:
160,32,87248,1,2,0:0:0:0:
160,32,87331,1,0,0:0:0:0:
160,32,87414,1,2,0:0:0:0:
160,64,87497,1,2,0:0:0:0:
160,32,87579,1,0,0:0:0:0:
128,64,87663,1,0,0:0:0:0:
160,32,87745,1,2,0:0:0:0:
160,32,87828,1,2,0:0:0:0:
160,32,87911,1,0,0:0:0:0:
160,32,87994,1,2,0:0:0:0:
160,32,88077,1,0,0:0:0:0:
160,32,88160,1,0,0:0:0:0:
160,32,88242,1,0,0:0:0:0:
160,32,88325,1,0,0:0:0:0:
160,32,88408,1,2,0:0:0:0:
160,32,88491,1,2,0:0:0:0:
160,32,88574,1,0,0:0:0:0:
160,32,88657,1,0,0:0:0:0:
160,32,88740,1,2,0:0:0:0:
160,32,88822,1,2,0:0:0:0:
160,32,88905,1,0,0:0:0:0:
160,32,88988,1,0,0:0:0:0:
160,32,89071,1,2,0:0:0:0:
160,0,89238,1,2,0:0:0:0:
160,128,89403,1,2,0:0:0:0:
160,32,89485,1,0,0:0:0:0:
160,128,89569,1,0,0:0:0:0:
160,32,89651,1,0,0:0:0:0:
160,32,89734,1,2,0:0:0:0:
160,32,89817,1,2,0:0:0:0:
160,32,89900,1,0,0:0:0:0:
160,32,89983,1,0,0:0:0:0:
160,32,90066,1,2,0:0:0:0:
160,64,90148,1,0,0:0:0:0:
160,64,90231,1,2,0:0:0:0:
128,64,90315,1,0,0:0:0:0:
128,64,90398,1,2,0:0:0:0:
160,32,90729,1,0,0:0:0:0:
160,32,90811,1,0,0:0:0:0:
160,32,90894,1,2,0:0:0:0:
160,32,90977,1,2,0:0:0:0:
160,32,91060,1,0,0:0:0:0:
160,32,91143,1,0,0:0:0:0:
160,32,91226,1,2,0:0:0:0:
160,32,91309,1,0,0:0:0:0:
160,32,91391,1,2,0:0:0:0:
160,32,91474,1,2,0:0:0:0:
160,32,91557,1,0,0:0:0:0:
160,32,91640,1,0,0:0:0:0:
160,32,91723,1,2,0:0:0:0:
160,32,91806,1,0,0:0:0:0:
160,32,91889,1,2,0:0:0:0:
160,32,91972,1,2,0:0:0:0:
160,32,92054,1,0,0:0:0:0:
160,128,92387,1,4,0:0:0:0:
160,128,92718,1,12,0:0:0:0:
160,128,93050,1,12,0:0:0:0:
160,32,93381,1,4,0:0:0:0:
