osu file format v14

[General]
AudioFilename: Ryu - I'm so Happy.mp3
AudioLeadIn: 0
PreviewTime: 48298
Countdown: 0
SampleSet: Normal
StackLeniency: 0.7
Mode: 1
LetterboxInBreaks: 0
WidescreenStoryboard: 1

[Editor]
DistanceSpacing: 0.1
BeatDivisor: 4
GridSize: 32
TimelineZoom: 2.999999

[Metadata]
Title:I'm so Happy
TitleUnicode:I'm so Happy
Artist:Ryu*
ArtistUnicode:Ryu☆
Creator:Taka030
Version:Ishida's so happy
Source:jubeat knit
Tags:sdvx konami
BeatmapID:1592434
BeatmapSetID:746812

[Difficulty]
HPDrainRate:8
CircleSize:5
OverallDifficulty:6
ApproachRate:5
SliderMultiplier:1.4
SliderTickRate:1

[Events]
//Background and Video events
0,0,"56149210_p0.jpg",0,0
//Break Periods
//Storyboard Layer 0 (Background)
//Storyboard Layer 1 (Fail)
//Storyboard Layer 2 (Pass)
//Storyboard Layer 3 (Foreground)
//Storyboard Sound Samples

[TimingPoints]
564,331.491712707182,4,1,0,90,1,0
37083,-98.0392156862745,4,1,0,90,0,0
37138,-96.1538461538461,4,1,0,90,0,0
37193,-94.3396226415094,4,1,0,90,0,0
37249,-92.5925925925926,4,1,0,90,0,0
37304,-90.9090909090909,4,1,0,90,0,0
37359,-89.2857142857143,4,1,0,90,0,0
37414,-87.719298245614,4,1,0,90,0,0
37470,-86.2068965517241,4,1,0,90,0,0
37525,-84.7457627118644,4,1,0,90,0,0
37580,-83.3333333333333,4,1,0,90,0,0
37635,-81.9672131147541,4,1,0,90,0,0
37691,-80.6451612903226,4,1,0,90,0,1
48298,-66.6666666666667,4,1,0,90,0,1
56254,-50,4,1,0,90,0,1
58906,-33.3333333333333,4,1,0,90,0,0
59072,-133.333333333333,4,1,0,90,0,0
64210,-25,4,1,0,90,0,0
64293,-26.6666666666667,4,1,0,90,0,0
64376,-28.5714285714286,4,1,0,90,0,0
64459,-30.7692307692308,4,1,0,90,0,0
64541,-33.3333333333333,4,1,0,90,0,0
64624,-36.3636363636364,4,1,0,90,0,0
64707,-40,4,1,0,90,0,0
64790,-44.4444444444445,4,1,0,90,0,0
64873,-50,4,1,0,90,0,0
64956,-57.1428571428571,4,1,0,90,0,0
65039,-66.6666666666667,4,1,0,90,0,0
65122,-80,4,1,0,90,0,0
65204,-25,4,1,0,90,0,0
65536,-25,4,1,0,90,0,0
65619,-26.6666666666667,4,1,0,90,0,0
65702,-28.5714285714286,4,1,0,90,0,0
65785,-30.7692307692308,4,1,0,90,0,0
65867,-33.3333333333333,4,1,0,90,0,0
65950,-36.3636363636364,4,1,0,90,0,0
66033,-40,4,1,0,90,0,0
66116,-44.4444444444445,4,1,0,90,0,0
66199,-50,4,1,0,90,0,0
66282,-57.1428571428571,4,1,0,90,0,0
66365,-66.6666666666667,4,1,0,90,0,0
66448,-80,4,1,0,90,0,0
66530,-25,4,1,0,90,0,0
66862,-100,4,1,0,90,0,0
66945,-200,4,1,0,90,0,0
67028,-100,4,1,0,90,0,0
67110,-400,4,1,0,90,0,0
67193,-100,4,1,0,90,0,0
67276,-200,4,1,0,90,0,0
67359,-100,4,1,0,90,0,0
67442,-400,4,1,0,90,0,0
67525,-100,4,1,0,90,0,0
67608,-200,4,1,0,90,0,0
67691,-100,4,1,0,90,0,0
67773,-400,4,1,0,90,0,0
67856,-100,4,1,0,90,0,0
67939,-200,4,1,0,90,0,0
68022,-100,4,1,0,90,0,0
68105,-400,4,1,0,90,0,0
68188,-100,4,1,0,90,0,0
68519,-90.9090909090909,4,1,0,90,0,0
68851,-83.3333333333333,4,1,0,90,0,0
69182,-76.9230769230769,4,1,0,90,0,0
69514,-50,4,1,0,90,0,0
71005,-100,4,1,0,90,0,0
71171,-200,4,1,0,90,0,0
71834,-117.647058823529,4,1,0,90,0,0
72000,-83.3333333333333,4,1,0,90,0,0
72166,-74.0740740740741,4,1,0,90,0,0
72249,-66.6666666666667,4,1,0,90,0,1
77470,-57.1428571428571,4,1,0,90,0,1
82773,-50,4,1,0,90,0,1
88077,-40,4,1,0,90,0,1
89403,-33.3333333333333,4,1,0,90,0,1
90729,-28.5714285714286,4,1,0,90,0,1
92055,-25,4,1,0,90,0,1
93381,-25,4,1,0,90,0,0

[HitObjects]
256,192,564,5,4,0:0:0:0:
256,192,729,1,0,0:0:0:0:
256,192,895,1,8,0:0:0:0:
256,192,1226,1,4,0:0:0:0:
256,192,1309,1,0,0:0:0:0:
256,192,1392,1,0,0:0:0:0:
256,192,1475,1,0,0:0:0:0:
256,192,1558,1,8,0:0:0:0:
256,192,1889,1,4,0:0:0:0:
256,192,1972,1,0,0:0:0:0:
256,192,2055,1,0,0:0:0:0:
256,192,2138,1,0,0:0:0:0:
256,192,2221,1,0,0:0:0:0:
256,192,2304,1,0,0:0:0:0:
256,192,2387,1,0,0:0:0:0:
256,192,2470,1,0,0:0:0:0:
256,192,2552,1,8,0:0:0:0:
256,192,2718,1,8,0:0:0:0:
256,192,2884,1,0,0:0:0:0:
256,192,3215,1,12,0:0:0:0:
256,192,3381,1,0,0:0:0:0:
256,192,3547,1,8,0:0:0:0:
256,192,3713,1,8,0:0:0:0:
256,192,3878,1,0,0:0:0:0:
256,192,4044,1,4,0:0:0:0:
256,192,4210,1,0,0:0:0:0:
256,192,4293,1,0,0:0:0:0:
256,192,4376,1,0,0:0:0:0:
256,192,4541,1,4,0:0:0:0:
256,192,4624,1,0,0:0:0:0:
256,192,4790,1,0,0:0:0:0:
256,192,4956,1,0,0:0:0:0:
256,192,5039,1,0,0:0:0:0:
256,192,5204,1,0,0:0:0:0:
256,192,5370,1,0,0:0:0:0:
256,192,5536,1,0,0:0:0:0:
256,192,5619,1,0,0:0:0:0:
256,192,5702,1,0,0:0:0:0:
256,192,5784,1,0,0:0:0:0:
256,192,5867,1,12,0:0:0:0:
256,192,6033,1,0,0:0:0:0:
256,192,6199,1,8,0:0:0:0:
256,192,6365,1,8,0:0:0:0:
256,192,6530,1,0,0:0:0:0:
256,192,6696,1,4,0:0:0:0:
256,192,6862,1,0,0:0:0:0:
256,192,6945,1,0,0:0:0:0:
256,192,7028,1,0,0:0:0:0:
256,192,7193,1,4,0:0:0:0:
256,192,7276,1,0,0:0:0:0:
256,192,7442,1,0,0:0:0:0:
256,192,7608,1,0,0:0:0:0:
256,192,7691,1,8,0:0:0:0:
256,192,7856,1,8,0:0:0:0:
256,192,8022,1,8,0:0:0:0:
256,192,8188,1,8,0:0:0:0:
256,192,8271,1,8,0:0:0:0:
256,192,8354,1,8,0:0:0:0:
256,192,8436,1,8,0:0:0:0:
256,192,8519,1,12,0:0:0:0:
256,192,8685,1,8,0:0:0:0:
256,192,8851,1,0,0:0:0:0:
256,192,8934,1,0,0:0:0:0:
256,192,9017,1,8,0:0:0:0:
256,192,9182,1,0,0:0:0:0:
256,192,9348,1,8,0:0:0:0:
256,192,9514,1,0,0:0:0:0:
256,192,9597,1,0,0:0:0:0:
256,192,9680,1,8,0:0:0:0:
256,192,9845,1,0,0:0:0:0:
256,192,10011,1,8,0:0:0:0:
256,192,10177,1,0,0:0:0:0:
256,192,10260,1,0,0:0:0:0:
256,192,10343,1,8,0:0:0:0:
256,192,10508,1,0,0:0:0:0:
256,192,10674,1,8,0:0:0:0:
256,192,10757,1,0,0:0:0:0:
256,192,10923,1,0,0:0:0:0:
256,192,11005,1,8,0:0:0:0:
256,192,11171,1,4,0:0:0:0:
256,192,11337,1,8,0:0:0:0:
256,192,11503,1,0,0:0:0:0:
256,192,11586,1,0,0:0:0:0:
256,192,11668,1,8,0:0:0:0:
256,192,11834,1,4,0:0:0:0:
256,192,12000,1,4,0:0:0:0:
256,192,12166,1,0,0:0:0:0:
256,192,12249,1,0,0:0:0:0:
256,192,12331,1,0,0:0:0:0:
256,192,12414,1,0,0:0:0:0:
256,192,12497,1,4,0:0:0:0:
256,192,12580,1,0,0:0:0:0:
256,192,12746,1,0,0:0:0:0:
256,192,12912,1,0,0:0:0:0:
256,192,12994,1,8,0:0:0:0:
256,192,13160,1,12,0:0:0:0:
256,192,13243,1,8,0:0:0:0:
256,192,13409,1,8,0:0:0:0:
256,192,13575,1,8,0:0:0:0:
256,192,13657,1,0,0:0:0:0:
256,192,13740,1,0,0:0:0:0:
256,192,13823,1,4,0:0:0:0:
256,192,13989,1,0,0:0:0:0:
256,192,14155,1,12,0:0:0:0:
256,192,14403,1,8,0:0:0:0:
256,192,14486,1,0,0:0:0:0:
256,192,14569,1,8,0:0:0:0:
256,192,14652,1,0,0:0:0:0:
256,192,14735,1,0,0:0:0:0:
256,192,14818,1,12,0:0:0:0:
256,192,14983,1,8,0:0:0:0:
256,192,15066,1,8,0:0:0:0:
256,192,15149,12,0,17718,0:0:0:0:
256,192,17801,12,0,20370,0:0:0:0:
256,192,20453,12,0,23022,0:0:0:0:
256,192,23105,12,0,25343,0:0:0:0:
480,160,25425,5,8,0:0:0:0:
480,160,25757,1,0,0:0:0:0:
480,160,25923,1,0,0:0:0:0:
480,160,26005,1,0,0:0:0:0:
480,160,26088,1,8,0:0:0:0:
480,160,26254,1,0,0:0:0:0:
480,160,26337,1,8,0:0:0:0:
480,160,26420,1,0,0:0:0:0:
480,160,26503,1,8,0:0:0:0:
480,160,26586,1,0,0:0:0:0:
480,160,26668,1,0,0:0:0:0:
480,160,26751,1,8,0:0:0:0:
480,160,26917,1,8,0:0:0:0:
480,160,27000,1,8,0:0:0:0:
480,160,27083,1,0,0:0:0:0:
480,160,27249,1,0,0:0:0:0:
480,160,27331,1,0,0:0:0:0:
480,160,27414,1,8,0:0:0:0:
480,160,27580,1,0,0:0:0:0:
480,160,27663,1,8,0:0:0:0:
480,160,27746,1,0,0:0:0:0:
480,160,27829,1,8,0:0:0:0:
480,160,27912,1,0,0:0:0:0:
480,160,27994,1,8,0:0:0:0:
480,160,28077,1,8,0:0:0:0:
480,160,28160,1,0,0:0:0:0:
480,160,28243,1,8,0:0:0:0:
480,160,28326,1,8,0:0:0:0:
480,160,28409,1,0,0:0:0:0:
480,160,28575,1,8,0:0:0:0:
480,160,28657,1,0,0:0:0:0:
480,160,28740,1,8,0:0:0:0:
480,160,28906,1,0,0:0:0:0:
480,160,28989,1,8,0:0:0:0:
480,160,29072,1,0,0:0:0:0:
480,160,29155,1,8,0:0:0:0:
480,160,29238,1,8,0:0:0:0:
480,160,29320,1,0,0:0:0:0:
480,160,29403,1,8,0:0:0:0:
480,160,29569,1,8,0:0:0:0:
480,160,29735,1,0,0:0:0:0:
480,160,29901,1,0,0:0:0:0:
480,160,29983,1,0,0:0:0:0:
480,160,30066,1,8,0:0:0:0:
480,160,30232,1,0,0:0:0:0:
480,160,30315,1,8,0:0:0:0:
480,160,30398,1,0,0:0:0:0:
480,160,30481,1,8,0:0:0:0:
480,160,30563,1,0,0:0:0:0:
480,160,30646,1,8,0:0:0:0:
480,160,30729,1,8,0:0:0:0:
480,160,30812,1,0,0:0:0:0:
480,160,30895,1,8,0:0:0:0:
480,160,30978,1,8,0:0:0:0:
480,160,31061,1,0,0:0:0:0:
480,160,31226,1,0,0:0:0:0:
480,160,31309,1,0,0:0:0:0:
480,160,31392,1,8,0:0:0:0:
480,160,31558,1,0,0:0:0:0:
480,160,31641,1,0,0:0:0:0:
480,160,31807,1,8,0:0:0:0:
480,160,31889,1,0,0:0:0:0:
480,160,31972,1,0,0:0:0:0:
480,160,32055,1,8,0:0:0:0:
480,160,32221,1,8,0:0:0:0:
480,160,32387,1,0,0:0:0:0:
480,160,32552,1,0,0:0:0:0:
480,160,32718,1,8,0:0:0:0:
480,160,32884,1,0,0:0:0:0:
480,160,33050,1,0,0:0:0:0:
480,160,33133,1,0,0:0:0:0:
480,160,33215,1,0,0:0:0:0:
480,160,33298,1,0,0:0:0:0:
480,160,33381,1,8,0:0:0:0:
480,160,33464,1,8,0:0:0:0:
480,160,33547,1,0,0:0:0:0:
480,160,33630,1,0,0:0:0:0:
480,160,33713,1,0,0:0:0:0:
480,160,33796,1,0,0:0:0:0:
480,160,33878,1,0,0:0:0:0:
480,160,33961,1,0,0:0:0:0:
480,160,34044,1,0,0:0:0:0:
480,160,34127,1,0,0:0:0:0:
480,160,34210,1,0,0:0:0:0:
480,160,34293,1,0,0:0:0:0:
480,160,34376,1,0,0:0:0:0:
480,160,34459,1,0,0:0:0:0:
480,160,34541,1,0,0:0:0:0:
480,160,34624,1,0,0:0:0:0:
480,160,34707,1,0,0:0:0:0:
480,160,34790,1,0,0:0:0:0:
480,160,34873,1,0,0:0:0:0:
480,160,34956,1,0,0:0:0:0:
480,160,35039,1,4,0:0:0:0:
480,160,35370,1,12,0:0:0:0:
480,160,35702,1,4,0:0:0:0:
480,160,36033,1,4,0:0:0:0:
480,160,36365,1,12,0:0:0:0:
480,160,36530,1,12,0:0:0:0:
480,160,36696,1,0,0:0:0:0:
480,160,37028,1,0,0:0:0:0:
480,160,37083,1,0,0:0:0:0:
480,160,37138,1,0,0:0:0:0:
480,160,37193,1,8,0:0:0:0:
480,160,37249,1,0,0:0:0:0:
480,160,37304,1,0,0:0:0:0:
480,160,37359,1,8,0:0:0:0:
480,160,37414,1,0,0:0:0:0:
480,160,37470,1,0,0:0:0:0:
480,160,37525,1,8,0:0:0:0:
480,160,37580,1,0,0:0:0:0:
480,160,37635,1,0,0:0:0:0:
480,160,37691,1,12,0:0:0:0:
480,160,37773,1,0,0:0:0:0:
480,160,37856,1,0,0:0:0:0:
480,160,37939,1,8,0:0:0:0:
480,160,38022,1,0,0:0:0:0:
480,160,38105,1,0,0:0:0:0:
480,160,38188,1,8,0:0:0:0:
480,160,38271,1,0,0:0:0:0:
480,160,38354,1,8,0:0:0:0:
480,160,38436,1,0,0:0:0:0:
480,160,38519,1,0,0:0:0:0:
480,160,38602,1,8,0:0:0:0:
480,160,38685,1,0,0:0:0:0:
480,160,38768,1,0,0:0:0:0:
480,160,38851,1,8,0:0:0:0:
480,160,38934,1,8,0:0:0:0:
480,160,39017,1,8,0:0:0:0:
480,160,39099,1,0,0:0:0:0:
480,160,39182,1,0,0:0:0:0:
480,160,39265,1,8,0:0:0:0:
480,160,39348,1,0,0:0:0:0:
480,160,39431,1,0,0:0:0:0:
480,160,39514,1,8,0:0:0:0:
480,160,39597,1,0,0:0:0:0:
480,160,39680,1,8,0:0:0:0:
480,160,39762,1,0,0:0:0:0:
480,160,39845,1,8,0:0:0:0:
480,160,39928,1,8,0:0:0:0:
480,160,40011,1,0,0:0:0:0:
480,160,40094,1,8,0:0:0:0:
480,160,40177,1,8,0:0:0:0:
480,160,40260,1,0,0:0:0:0:
480,160,40343,1,8,0:0:0:0:
480,160,40425,1,0,0:0:0:0:
480,160,40508,1,0,0:0:0:0:
480,160,40591,1,8,0:0:0:0:
480,160,40674,1,0,0:0:0:0:
480,160,40757,1,0,0:0:0:0:
480,160,40840,1,8,0:0:0:0:
480,160,40923,1,0,0:0:0:0:
480,160,41005,1,8,0:0:0:0:
480,160,41088,1,0,0:0:0:0:
480,160,41171,1,0,0:0:0:0:
480,160,41254,1,8,0:0:0:0:
480,160,41337,1,0,0:0:0:0:
480,160,41420,1,0,0:0:0:0:
480,160,41503,1,8,0:0:0:0:
480,160,41586,1,8,0:0:0:0:
480,160,41668,1,8,0:0:0:0:
480,160,41751,1,0,0:0:0:0:
480,160,41834,1,0,0:0:0:0:
480,160,41917,1,8,0:0:0:0:
480,160,42000,1,0,0:0:0:0:
480,160,42083,1,0,0:0:0:0:
480,160,42166,1,8,0:0:0:0:
480,160,42249,1,8,0:0:0:0:
480,160,42331,1,0,0:0:0:0:
480,160,42414,1,0,0:0:0:0:
480,160,42497,1,8,0:0:0:0:
480,160,42580,1,8,0:0:0:0:
480,160,42663,1,0,0:0:0:0:
480,160,42746,1,8,0:0:0:0:
480,160,42829,1,0,0:0:0:0:
480,160,42912,1,8,0:0:0:0:
480,160,42994,1,12,0:0:0:0:
480,160,43077,1,0,0:0:0:0:
480,160,43160,1,0,0:0:0:0:
480,160,43243,1,8,0:0:0:0:
480,160,43326,1,0,0:0:0:0:
480,160,43409,1,0,0:0:0:0:
480,160,43492,1,8,0:0:0:0:
480,160,43575,1,0,0:0:0:0:
480,160,43657,1,8,0:0:0:0:
480,160,43740,1,0,0:0:0:0:
480,160,43823,1,0,0:0:0:0:
480,160,43906,1,8,0:0:0:0:
480,160,43989,1,0,0:0:0:0:
480,160,44072,1,0,0:0:0:0:
480,160,44155,1,8,0:0:0:0:
480,160,44238,1,8,0:0:0:0:
480,160,44320,1,8,0:0:0:0:
480,160,44403,1,0,0:0:0:0:
480,160,44486,1,0,0:0:0:0:
480,160,44569,1,8,0:0:0:0:
480,160,44652,1,0,0:0:0:0:
480,160,44735,1,0,0:0:0:0:
480,160,44818,1,8,0:0:0:0:
480,160,44901,1,0,0:0:0:0:
480,160,44983,1,8,0:0:0:0:
480,160,45066,1,8,0:0:0:0:
480,160,45149,1,0,0:0:0:0:
480,160,45232,1,8,0:0:0:0:
480,160,45315,1,8,0:0:0:0:
480,160,45398,1,0,0:0:0:0:
480,160,45481,1,8,0:0:0:0:
480,160,45563,1,8,0:0:0:0:
480,160,45646,1,12,0:0:0:0:
480,160,45729,1,0,0:0:0:0:
480,160,45812,1,0,0:0:0:0:
480,160,45895,1,0,0:0:0:0:
480,160,45978,1,0,0:0:0:0:
480,160,46061,1,0,0:0:0:0:
480,160,46144,1,0,0:0:0:0:
480,160,46226,1,0,0:0:0:0:
480,160,46309,1,12,0:0:0:0:
480,160,46392,1,0,0:0:0:0:
480,160,46475,1,0,0:0:0:0:
480,160,46558,1,0,0:0:0:0:
480,160,46641,1,12,0:0:0:0:
480,160,46724,1,0,0:0:0:0:
480,160,46807,1,0,0:0:0:0:
480,160,46889,1,0,0:0:0:0:
480,160,46972,1,12,0:0:0:0:
480,160,47055,1,0,0:0:0:0:
480,160,47138,1,0,0:0:0:0:
480,160,47221,1,0,0:0:0:0:
480,160,47304,1,12,0:0:0:0:
480,160,47387,1,0,0:0:0:0:
480,160,47470,1,0,0:0:0:0:
480,160,47552,1,0,0:0:0:0:
480,160,47635,1,12,0:0:0:0:
480,160,47718,1,8,0:0:0:0:
480,160,47801,1,0,0:0:0:0:
480,160,47884,1,0,0:0:0:0:
480,160,47967,1,12,0:0:0:0:
480,160,48050,1,8,0:0:0:0:
480,160,48133,1,8,0:0:0:0:
480,160,48215,1,8,0:0:0:0:
480,160,48298,1,12,0:0:0:0:
480,160,48354,1,0,0:0:0:0:
480,160,48409,1,0,0:0:0:0:
480,160,48464,1,8,0:0:0:0:
480,160,48547,1,0,0:0:0:0:
480,160,48630,1,8,0:0:0:0:
480,160,48685,1,8,0:0:0:0:
480,160,48740,1,8,0:0:0:0:
480,160,48796,1,0,0:0:0:0:
480,160,48878,1,0,0:0:0:0:
480,160,48961,1,8,0:0:0:0:
480,160,49017,1,0,0:0:0:0:
480,160,49072,1,0,0:0:0:0:
480,160,49127,1,8,0:0:0:0:
480,160,49210,1,0,0:0:0:0:
480,160,49293,1,8,0:0:0:0:
480,160,49348,1,8,0:0:0:0:
480,160,49403,1,8,0:0:0:0:
480,160,49459,1,0,0:0:0:0:
480,160,49541,1,0,0:0:0:0:
480,160,49624,1,8,0:0:0:0:
480,160,49680,1,0,0:0:0:0:
480,160,49735,1,0,0:0:0:0:
480,160,49790,1,0,0:0:0:0:
480,160,49845,1,8,0:0:0:0:
480,160,49901,1,8,0:0:0:0:
480,160,49956,1,8,0:0:0:0:
480,160,50039,1,0,0:0:0:0:
480,160,50122,1,8,0:0:0:0:
480,160,50177,1,8,0:0:0:0:
480,160,50232,1,8,0:0:0:0:
480,160,50287,1,0,0:0:0:0:
480,160,50370,1,8,0:0:0:0:
480,160,50453,1,0,0:0:0:0:
480,160,50508,1,0,0:0:0:0:
480,160,50563,1,0,0:0:0:0:
480,160,50619,1,8,0:0:0:0:
480,160,50702,1,8,0:0:0:0:
480,160,50784,1,8,0:0:0:0:
480,160,50867,1,8,0:0:0:0:
480,160,50950,1,12,0:0:0:0:
480,160,51005,1,0,0:0:0:0:
480,160,51061,1,0,0:0:0:0:
480,160,51116,1,0,0:0:0:0:
480,160,51199,1,8,0:0:0:0:
480,160,51254,1,0,0:0:0:0:
480,160,51310,1,0,0:0:0:0:
480,160,51365,1,0,0:0:0:0:
480,160,51447,1,8,0:0:0:0:
480,160,51503,1,0,0:0:0:0:
480,160,51558,1,0,0:0:0:0:
480,160,51613,1,8,0:0:0:0:
480,160,51668,1,0,0:0:0:0:
480,160,51724,1,0,0:0:0:0:
480,160,51779,1,0,0:0:0:0:
480,160,51862,1,8,0:0:0:0:
480,160,51917,1,0,0:0:0:0:
480,160,51973,1,0,0:0:0:0:
480,160,52028,1,0,0:0:0:0:
480,160,52110,1,8,0:0:0:0:
480,160,52166,1,0,0:0:0:0:
480,160,52221,1,0,0:0:0:0:
480,160,52276,1,8,0:0:0:0:
480,160,52331,1,0,0:0:0:0:
480,160,52387,1,0,0:0:0:0:
480,160,52442,1,0,0:0:0:0:
480,160,52497,1,0,0:0:0:0:
480,160,52552,1,0,0:0:0:0:
480,160,52608,1,8,0:0:0:0:
480,160,52691,1,0,0:0:0:0:
480,160,52773,1,8,0:0:0:0:
480,160,52856,1,8,0:0:0:0:
480,160,52939,1,0,0:0:0:0:
480,160,53022,1,8,0:0:0:0:
480,160,53105,1,0,0:0:0:0:
480,160,53160,1,0,0:0:0:0:
480,160,53215,1,0,0:0:0:0:
480,160,53271,1,8,0:0:0:0:
480,160,53354,1,0,0:0:0:0:
480,160,53436,1,8,0:0:0:0:
480,160,53492,1,8,0:0:0:0:
480,160,53547,1,8,0:0:0:0:
480,160,53602,1,0,0:0:0:0:
480,160,53685,1,0,0:0:0:0:
480,160,53768,1,8,0:0:0:0:
480,160,53823,1,0,0:0:0:0:
480,160,53878,1,0,0:0:0:0:
480,160,53934,1,8,0:0:0:0:
480,160,54017,1,0,0:0:0:0:
480,160,54099,1,8,0:0:0:0:
480,160,54155,1,8,0:0:0:0:
480,160,54210,1,0,0:0:0:0:
480,160,54265,1,8,0:0:0:0:
480,160,54320,1,8,0:0:0:0:
480,160,54376,1,0,0:0:0:0:
480,160,54431,1,0,0:0:0:0:
480,160,54514,1,8,0:0:0:0:
480,160,54569,1,8,0:0:0:0:
480,160,54625,1,0,0:0:0:0:
480,160,54680,1,0,0:0:0:0:
480,160,54762,1,8,0:0:0:0:
480,160,54818,1,8,0:0:0:0:
480,160,54873,1,8,0:0:0:0:
480,160,54928,1,0,0:0:0:0:
480,160,55011,1,8,0:0:0:0:
480,160,55094,1,0,0:0:0:0:
480,160,55149,1,0,0:0:0:0:
480,160,55204,1,0,0:0:0:0:
480,160,55260,1,8,0:0:0:0:
480,160,55343,1,8,0:0:0:0:
480,160,55425,1,0,0:0:0:0:
480,160,55481,1,0,0:0:0:0:
480,160,55536,1,0,0:0:0:0:
480,160,55591,1,8,0:0:0:0:
480,160,55674,1,0,0:0:0:0:
480,160,55757,1,8,0:0:0:0:
480,160,55812,1,0,0:0:0:0:
480,160,55867,1,0,0:0:0:0:
480,160,55923,1,8,0:0:0:0:
480,160,56005,1,0,0:0:0:0:
480,160,56088,1,8,0:0:0:0:
480,160,56171,1,8,0:0:0:0:
480,160,56254,1,4,0:0:0:0:
480,160,56420,1,0,0:0:0:0:
480,160,56503,1,0,0:0:0:0:
480,160,56586,1,8,0:0:0:0:
480,160,56751,1,0,0:0:0:0:
480,160,56834,1,0,0:0:0:0:
480,160,56917,1,4,0:0:0:0:
480,160,57083,1,0,0:0:0:0:
480,160,57166,1,0,0:0:0:0:
480,160,57249,1,8,0:0:0:0:
480,160,57414,1,0,0:0:0:0:
480,160,57497,1,0,0:0:0:0:
480,160,57580,1,4,0:0:0:0:
480,160,57746,1,0,0:0:0:0:
480,160,57829,1,0,0:0:0:0:
480,160,57912,1,8,0:0:0:0:
480,160,57994,1,0,0:0:0:0:
480,160,58077,1,0,0:0:0:0:
480,160,58160,1,0,0:0:0:0:
480,160,58243,1,12,0:0:0:0:
480,160,58409,1,0,0:0:0:0:
480,160,58575,1,12,0:0:0:0:
480,160,58740,1,8,0:0:0:0:
480,160,58906,1,4,0:0:0:0:
480,160,59238,1,8,0:0:0:0:
448,160,59901,1,8,0:0:0:0:
416,160,60563,1,8,0:0:0:0:
384,160,61226,1,8,0:0:0:0:
384,160,61558,1,0,0:0:0:0:
352,160,61889,1,8,0:0:0:0:
320,160,62552,1,8,0:0:0:0:
352,160,62884,1,0,0:0:0:0:
352,160,63215,1,8,0:0:0:0:
352,160,63547,1,8,0:0:0:0:
352,160,63713,1,0,0:0:0:0:
352,160,63796,1,0,0:0:0:0:
352,160,63878,1,8,0:0:0:0:
352,160,64044,1,8,0:0:0:0:
352,160,64210,1,0,0:0:0:0:
352,160,64293,1,0,0:0:0:0:
352,160,64376,1,0,0:0:0:0:
352,160,64459,1,0,0:0:0:0:
352,160,64541,1,0,0:0:0:0:
352,160,64624,1,0,0:0:0:0:
352,160,64707,1,0,0:0:0:0:
352,160,64790,1,0,0:0:0:0:
352,160,64873,1,0,0:0:0:0:
352,160,64956,1,0,0:0:0:0:
352,160,65039,1,0,0:0:0:0:
352,160,65122,1,0,0:0:0:0:
352,160,65204,1,12,0:0:0:0:
352,160,65536,1,0,0:0:0:0:
352,160,65619,1,0,0:0:0:0:
352,160,65702,1,0,0:0:0:0:
352,160,65784,1,0,0:0:0:0:
352,160,65867,1,0,0:0:0:0:
352,160,65950,1,0,0:0:0:0:
352,160,66033,1,0,0:0:0:0:
352,160,66116,1,0,0:0:0:0:
352,160,66199,1,0,0:0:0:0:
352,160,66282,1,0,0:0:0:0:
352,160,66365,1,0,0:0:0:0:
352,160,66447,1,0,0:0:0:0:
352,160,66530,1,12,0:0:0:0:
352,160,66862,1,4,0:0:0:0:
352,160,66945,1,0,0:0:0:0:
352,160,67028,1,0,0:0:0:0:
352,160,67110,1,0,0:0:0:0:
352,160,67193,1,4,0:0:0:0:
352,160,67276,1,0,0:0:0:0:
352,160,67359,1,0,0:0:0:0:
352,160,67442,1,0,0:0:0:0:
352,160,67525,1,4,0:0:0:0:
352,160,67608,1,0,0:0:0:0:
352,160,67691,1,0,0:0:0:0:
352,160,67773,1,0,0:0:0:0:
352,160,67856,1,4,0:0:0:0:
352,160,67939,1,0,0:0:0:0:
352,160,68022,1,0,0:0:0:0:
352,160,68105,1,0,0:0:0:0:
352,160,68188,1,4,0:0:0:0:
352,160,68354,1,0,0:0:0:0:
352,160,68436,1,0,0:0:0:0:
352,160,68519,1,12,0:0:0:0:
352,160,68685,1,0,0:0:0:0:
352,160,68851,1,12,0:0:0:0:
352,160,69017,1,0,0:0:0:0:
352,160,69182,1,12,0:0:0:0:
352,160,69265,1,8,0:0:0:0:
352,160,69348,1,8,0:0:0:0:
352,160,69431,1,8,0:0:0:0:
352,160,69514,1,12,0:0:0:0:
352,160,69680,1,0,0:0:0:0:
352,160,69845,1,8,0:0:0:0:
352,160,70011,1,8,0:0:0:0:
352,160,70094,1,8,0:0:0:0:
352,160,70177,1,0,0:0:0:0:
352,160,70260,1,8,0:0:0:0:
352,160,70343,1,0,0:0:0:0:
352,160,70425,1,8,0:0:0:0:
352,160,70508,1,8,0:0:0:0:
352,160,70674,1,0,0:0:0:0:
352,160,70840,1,8,0:0:0:0:
352,160,71005,1,8,0:0:0:0:
352,160,71171,1,8,0:0:0:0:
352,128,71668,1,0,0:0:0:0:
352,128,71834,1,8,0:0:0:0:
352,128,72000,1,0,0:0:0:0:
352,128,72166,1,8,0:0:0:0:
352,128,72249,1,0,0:0:0:0:
352,128,72331,1,0,0:0:0:0:
352,128,72387,1,0,0:0:0:0:
352,128,72442,1,0,0:0:0:0:
352,128,72497,1,8,0:0:0:0:
352,128,72580,1,0,0:0:0:0:
352,128,72663,1,8,0:0:0:0:
352,128,72718,1,8,0:0:0:0:
352,128,72773,1,8,0:0:0:0:
352,128,72829,1,0,0:0:0:0:
352,128,72912,1,0,0:0:0:0:
352,128,72994,1,8,0:0:0:0:
352,128,73077,1,0,0:0:0:0:
352,128,73160,1,8,0:0:0:0:
352,128,73215,1,0,0:0:0:0:
352,128,73271,1,0,0:0:0:0:
352,128,73326,1,8,0:0:0:0:
352,128,73381,1,0,0:0:0:0:
352,128,73436,1,0,0:0:0:0:
352,128,73492,1,8,0:0:0:0:
352,128,73575,1,0,0:0:0:0:
352,128,73657,1,0,0:0:0:0:
352,128,73713,1,0,0:0:0:0:
352,128,73768,1,0,0:0:0:0:
352,128,73823,1,8,0:0:0:0:
352,128,73906,1,0,0:0:0:0:
352,128,73989,1,8,0:0:0:0:
352,128,74044,1,8,0:0:0:0:
352,128,74099,1,8,0:0:0:0:
352,128,74155,1,0,0:0:0:0:
352,128,74196,1,0,0:0:0:0:
352,128,74238,1,8,0:0:0:0:
352,128,74279,1,0,0:0:0:0:
352,128,74320,1,0,0:0:0:0:
352,128,74362,1,8,0:0:0:0:
352,128,74403,1,0,0:0:0:0:
352,128,74445,1,0,0:0:0:0:
352,128,74486,1,8,0:0:0:0:
352,128,74528,1,0,0:0:0:0:
352,128,74569,1,0,0:0:0:0:
352,128,74610,1,8,0:0:0:0:
352,128,74652,1,0,0:0:0:0:
352,128,74693,1,0,0:0:0:0:
352,128,74735,1,8,0:0:0:0:
352,128,74776,1,0,0:0:0:0:
352,128,74818,1,12,0:0:0:0:
352,128,74901,1,0,0:0:0:0:
352,128,74983,1,0,0:0:0:0:
352,128,75039,1,0,0:0:0:0:
352,128,75094,1,0,0:0:0:0:
352,128,75149,1,8,0:0:0:0:
352,128,75232,1,8,0:0:0:0:
352,128,75315,1,0,0:0:0:0:
352,128,75370,1,0,0:0:0:0:
352,128,75425,1,0,0:0:0:0:
352,128,75481,1,8,0:0:0:0:
352,128,75563,1,8,0:0:0:0:
352,128,75646,1,0,0:0:0:0:
352,128,75702,1,0,0:0:0:0:
352,128,75757,1,0,0:0:0:0:
352,128,75812,1,8,0:0:0:0:
352,128,75895,1,0,0:0:0:0:
352,128,75978,1,8,0:0:0:0:
352,128,76033,1,8,0:0:0:0:
352,128,76088,1,8,0:0:0:0:
352,128,76144,1,0,0:0:0:0:
352,128,76199,1,0,0:0:0:0:
352,128,76254,1,8,0:0:0:0:
352,128,76309,1,0,0:0:0:0:
352,128,76365,1,8,0:0:0:0:
352,128,76420,1,8,0:0:0:0:
352,128,76475,1,0,0:0:0:0:
352,128,76530,1,0,0:0:0:0:
352,128,76586,1,8,0:0:0:0:
352,128,76641,1,0,0:0:0:0:
352,128,76696,1,8,0:0:0:0:
352,128,76751,1,8,0:0:0:0:
352,128,76807,1,0,0:0:0:0:
352,128,76848,1,0,0:0:0:0:
352,128,76889,1,8,0:0:0:0:
352,128,76931,1,0,0:0:0:0:
352,128,76972,1,8,0:0:0:0:
352,128,77014,1,8,0:0:0:0:
352,128,77055,1,0,0:0:0:0:
352,128,77097,1,0,0:0:0:0:
352,128,77138,1,8,0:0:0:0:
352,128,77180,1,0,0:0:0:0:
352,128,77221,1,8,0:0:0:0:
352,128,77262,1,8,0:0:0:0:
352,128,77304,1,0,0:0:0:0:
352,128,77331,1,0,0:0:0:0:
352,128,77359,1,8,0:0:0:0:
352,128,77387,1,0,0:0:0:0:
352,128,77414,1,8,0:0:0:0:
352,128,77442,1,8,0:0:0:0:
352,128,77470,1,4,0:0:0:0:
352,128,77552,1,0,0:0:0:0:
352,128,77635,1,0,0:0:0:0:
352,128,77691,1,8,0:0:0:0:
352,128,77746,1,8,0:0:0:0:
352,128,77801,1,0,0:0:0:0:
352,128,77856,1,8,0:0:0:0:
352,128,77912,1,8,0:0:0:0:
352,128,77967,1,0,0:0:0:0:
352,128,78022,1,8,0:0:0:0:
352,128,78077,1,8,0:0:0:0:
352,128,78133,1,0,0:0:0:0:
352,128,78215,1,0,0:0:0:0:
352,128,78298,1,8,0:0:0:0:
352,128,78354,1,0,0:0:0:0:
352,128,78409,1,0,0:0:0:0:
352,128,78464,1,8,0:0:0:0:
352,128,78519,1,0,0:0:0:0:
352,128,78575,1,0,0:0:0:0:
352,128,78630,1,8,0:0:0:0:
352,128,78671,1,0,0:0:0:0:
352,128,78713,1,0,0:0:0:0:
352,128,78754,1,0,0:0:0:0:
352,128,78796,1,8,0:0:0:0:
352,128,78878,1,0,0:0:0:0:
352,128,78961,1,8,0:0:0:0:
352,128,79017,1,8,0:0:0:0:
352,128,79072,1,0,0:0:0:0:
352,128,79127,1,0,0:0:0:0:
352,128,79182,1,8,0:0:0:0:
352,128,79238,1,8,0:0:0:0:
352,128,79293,1,8,0:0:0:0:
352,128,79348,1,0,0:0:0:0:
352,128,79403,1,0,0:0:0:0:
352,128,79459,1,8,0:0:0:0:
352,128,79541,1,0,0:0:0:0:
352,128,79624,1,0,0:0:0:0:
352,128,79707,1,8,0:0:0:0:
352,128,79790,1,0,0:0:0:0:
352,128,79845,1,8,0:0:0:0:
352,128,79901,1,8,0:0:0:0:
352,128,79956,1,0,0:0:0:0:
352,128,80011,1,8,0:0:0:0:
352,128,80066,1,8,0:0:0:0:
352,128,80122,1,0,0:0:0:0:
352,128,80204,1,0,0:0:0:0:
352,128,80287,1,0,0:0:0:0:
352,128,80343,1,0,0:0:0:0:
352,128,80398,1,0,0:0:0:0:
352,128,80453,1,8,0:0:0:0:
352,128,80536,1,0,0:0:0:0:
352,128,80619,1,8,0:0:0:0:
352,128,80702,1,8,0:0:0:0:
352,128,80784,1,0,0:0:0:0:
352,128,80867,1,0,0:0:0:0:
352,128,80950,1,0,0:0:0:0:
352,128,81005,1,0,0:0:0:0:
352,128,81061,1,0,0:0:0:0:
352,128,81116,1,8,0:0:0:0:
352,128,81199,1,0,0:0:0:0:
352,128,81282,1,8,0:0:0:0:
352,128,81365,1,8,0:0:0:0:
352,128,81447,1,8,0:0:0:0:
352,128,81503,1,0,0:0:0:0:
352,128,81558,1,0,0:0:0:0:
352,128,81613,1,0,0:0:0:0:
352,128,81668,1,0,0:0:0:0:
352,128,81724,1,0,0:0:0:0:
352,128,81779,1,8,0:0:0:0:
352,128,81834,1,0,0:0:0:0:
352,128,81889,1,0,0:0:0:0:
352,128,81945,1,0,0:0:0:0:
352,128,82000,1,0,0:0:0:0:
352,128,82055,1,0,0:0:0:0:
352,128,82110,1,8,0:0:0:0:
352,128,82152,1,0,0:0:0:0:
352,128,82235,1,0,0:0:0:0:
352,128,82276,1,8,0:0:0:0:
352,128,82359,1,0,0:0:0:0:
352,128,82401,1,0,0:0:0:0:
352,128,82442,1,8,0:0:0:0:
352,128,82483,1,0,0:0:0:0:
352,128,82566,1,0,0:0:0:0:
352,128,82608,1,8,0:0:0:0:
352,128,82691,1,0,0:0:0:0:
352,128,82732,1,0,0:0:0:0:
352,128,82773,1,12,0:0:0:0:
352,128,82856,1,0,0:0:0:0:
352,128,82898,1,0,0:0:0:0:
352,128,82939,1,8,0:0:0:0:
352,128,83022,1,0,0:0:0:0:
352,128,83105,1,8,0:0:0:0:
352,128,83188,1,0,0:0:0:0:
352,128,83229,1,0,0:0:0:0:
352,128,83271,1,8,0:0:0:0:
352,128,83354,1,0,0:0:0:0:
352,128,83436,1,8,0:0:0:0:
352,128,83519,1,0,0:0:0:0:
352,128,83561,1,0,0:0:0:0:
352,128,83602,1,8,0:0:0:0:
352,128,83685,1,0,0:0:0:0:
352,128,83768,1,8,0:0:0:0:
352,128,83823,1,0,0:0:0:0:
352,128,83878,1,0,0:0:0:0:
352,128,83934,1,0,0:0:0:0:
352,128,83989,1,0,0:0:0:0:
352,128,84044,1,0,0:0:0:0:
352,128,84099,1,8,0:0:0:0:
352,128,84182,1,0,0:0:0:0:
352,128,84224,1,0,0:0:0:0:
352,128,84265,1,8,0:0:0:0:
352,128,84348,1,0,0:0:0:0:
352,128,84431,1,8,0:0:0:0:
352,128,84514,1,0,0:0:0:0:
352,128,84555,1,0,0:0:0:0:
352,128,84597,1,8,0:0:0:0:
352,128,84680,1,0,0:0:0:0:
352,128,84762,1,8,0:0:0:0:
352,128,84845,1,0,0:0:0:0:
352,128,84887,1,0,0:0:0:0:
352,128,84928,1,0,0:0:0:0:
352,128,85011,1,8,0:0:0:0:
352,128,85094,1,0,0:0:0:0:
352,128,85135,1,0,0:0:0:0:
352,128,85177,1,0,0:0:0:0:
352,128,85260,1,8,0:0:0:0:
352,128,85343,1,0,0:0:0:0:
352,128,85425,1,8,0:0:0:0:
352,128,85467,1,8,0:0:0:0:
352,128,85508,1,8,0:0:0:0:
352,128,85591,1,0,0:0:0:0:
352,128,85674,1,0,0:0:0:0:
352,128,85757,1,8,0:0:0:0:
352,128,85840,1,0,0:0:0:0:
352,128,85923,1,0,0:0:0:0:
352,128,85964,1,0,0:0:0:0:
352,128,86005,1,0,0:0:0:0:
352,128,86088,1,8,0:0:0:0:
352,128,86130,1,8,0:0:0:0:
352,128,86171,1,8,0:0:0:0:
352,128,86254,1,0,0:0:0:0:
352,128,86337,1,0,0:0:0:0:
352,128,86420,1,8,0:0:0:0:
352,128,86503,1,0,0:0:0:0:
352,128,86586,1,8,0:0:0:0:
352,128,86627,1,8,0:0:0:0:
352,128,86668,1,8,0:0:0:0:
352,128,86751,1,0,0:0:0:0:
352,128,86793,1,0,0:0:0:0:
352,128,86834,1,0,0:0:0:0:
352,128,86917,1,8,0:0:0:0:
352,128,87000,1,8,0:0:0:0:
352,128,87083,1,0,0:0:0:0:
352,128,87124,1,0,0:0:0:0:
352,128,87166,1,0,0:0:0:0:
352,128,87249,1,8,0:0:0:0:
352,128,87331,1,8,0:0:0:0:
352,128,87414,1,0,0:0:0:0:
352,128,87470,1,0,0:0:0:0:
352,128,87525,1,0,0:0:0:0:
352,128,87580,1,8,0:0:0:0:
352,128,87635,1,8,0:0:0:0:
352,128,87691,1,8,0:0:0:0:
352,128,87746,1,0,0:0:0:0:
352,128,87801,1,0,0:0:0:0:
352,128,87856,1,0,0:0:0:0:
352,128,87912,1,8,0:0:0:0:
352,128,87967,1,8,0:0:0:0:
352,128,88022,1,8,0:0:0:0:
352,128,88077,1,0,0:0:0:0:
352,128,88160,1,0,0:0:0:0:
352,128,88243,1,0,0:0:0:0:
352,128,88326,1,0,0:0:0:0:
352,128,88409,1,0,0:0:0:0:
352,128,88492,1,0,0:0:0:0:
352,128,88575,1,0,0:0:0:0:
352,128,88657,1,0,0:0:0:0:
352,128,88740,1,0,0:0:0:0:
352,128,88823,1,0,0:0:0:0:
352,128,88906,1,0,0:0:0:0:
352,128,88989,1,0,0:0:0:0:
352,128,89072,1,12,0:0:0:0:
352,128,89403,1,0,0:0:0:0:
352,128,89486,1,0,0:0:0:0:
352,128,89569,1,0,0:0:0:0:
352,128,89652,1,0,0:0:0:0:
352,128,89735,1,0,0:0:0:0:
352,128,89818,1,0,0:0:0:0:
352,128,89901,1,0,0:0:0:0:
352,128,89983,1,0,0:0:0:0:
352,128,90066,1,0,0:0:0:0:
352,128,90149,1,0,0:0:0:0:
352,128,90232,1,0,0:0:0:0:
352,128,90315,1,0,0:0:0:0:
352,128,90398,1,12,0:0:0:0:
352,128,90729,1,4,0:0:0:0:
352,128,90812,1,0,0:0:0:0:
352,128,90895,1,0,0:0:0:0:
352,128,90978,1,0,0:0:0:0:
352,128,91061,1,4,0:0:0:0:
352,128,91144,1,0,0:0:0:0:
352,128,91226,1,0,0:0:0:0:
352,128,91309,1,0,0:0:0:0:
352,128,91392,1,4,0:0:0:0:
352,128,91475,1,0,0:0:0:0:
352,128,91558,1,0,0:0:0:0:
352,128,91641,1,0,0:0:0:0:
352,128,91724,1,4,0:0:0:0:
352,128,91807,1,0,0:0:0:0:
352,128,91889,1,0,0:0:0:0:
352,128,91972,1,0,0:0:0:0:
352,128,92055,1,4,0:0:0:0:
352,128,92221,1,0,0:0:0:0:
352,128,92387,1,12,0:0:0:0:
352,128,92552,1,0,0:0:0:0:
352,128,92718,1,4,0:0:0:0:
352,128,92884,1,0,0:0:0:0:
352,128,93050,1,12,0:0:0:0:
352,128,93215,1,0,0:0:0:0:
352,128,93381,1,12,0:0:0:0:
