osu file format v14

[General]
AudioFilename: Ryu - I'm so Happy[EXH].mp3
AudioLeadIn: 0
PreviewTime: 48282
Countdown: 0
SampleSet: Normal
StackLeniency: 0.7
Mode: 1
LetterboxInBreaks: 0
WidescreenStoryboard: 0

[Editor]
Bookmarks: 3199,15133,25740,37672,48279,58889,69495,82754,93362
DistanceSpacing: 0.1
BeatDivisor: 16
GridSize: 32
TimelineZoom: 3.899999

[Metadata]
Title:I'm so Happy
TitleUnicode:I'm so Happy
Artist:Ryu*
ArtistUnicode:Ryu☆
Creator:Taka030
Version:Fan's so Crazy
Source:jubeat knit
Tags:sdvx konami
BeatmapID:1587511
BeatmapSetID:746812

[Difficulty]
HPDrainRate:0
CircleSize:2
OverallDifficulty:0
ApproachRate:6
SliderMultiplier:1.4
SliderTickRate:1

[Events]
//Background and Video events
0,0,"FB_IMG_1516356805136.jpg",0,0
//Break Periods
//Storyboard Layer 0 (Background)
//Storyboard Layer 1 (Fail)
//Storyboard Layer 2 (Pass)
//Storyboard Layer 3 (Foreground)
//Storyboard Sound Samples

[TimingPoints]
-776,331.491712707182,4,1,0,100,1,0
541,331.491712707182,4,1,0,100,1,0
543,331.491712707182,4,1,0,100,1,0
545,331.491712707182,4,1,0,100,1,0
547,331.491712707182,4,1,0,100,1,0
548,1E+17,4,1,0,100,1,8
548,-33.3333333333333,4,1,0,100,0,0
708,331.491712707182,4,1,0,100,1,0
710,331.491712707182,4,1,0,100,1,0
712,331.491712707182,4,1,0,100,1,0
714,331.491712707182,4,1,0,100,1,0
715,1E+17,4,1,0,100,1,8
715,-33.3333333333333,4,1,0,100,0,0
799,-100,4,1,1,100,0,0
868,331.491712707182,4,1,1,100,1,1
870,331.491712707182,4,1,1,100,1,1
872,331.491712707182,4,1,1,100,1,1
874,331.491712707182,4,1,1,100,1,1
876,331.491712707182,4,1,1,100,1,1
878,331.491712707182,4,1,1,100,1,1
879,331.491712707182,4,1,1,100,1,1
879,-12.5,4,1,1,100,0,1
881,331.491712707182,4,1,1,100,1,1
883,331.491712707182,4,1,1,100,1,1
885,331.491712707182,4,1,1,100,1,1
887,331.491712707182,4,1,1,100,1,1
1044,-12.5,4,1,0,100,0,0
1203,331.491712707182,4,1,0,100,1,0
1205,331.491712707182,4,1,0,100,1,0
1207,331.491712707182,4,1,0,100,1,0
1209,331.491712707182,4,1,0,100,1,0
1210,1E+17,4,1,0,100,1,8
1210,-33.3333333333333,4,1,0,100,0,0
1286,331.491712707182,4,1,0,100,1,0
1288,331.491712707182,4,1,0,100,1,0
1290,331.491712707182,4,1,0,100,1,0
1292,331.491712707182,4,1,0,100,1,0
1293,1E+17,4,1,0,100,1,8
1293,-33.3333333333333,4,1,0,100,0,0
1369,331.491712707182,4,1,0,100,1,0
1371,331.491712707182,4,1,0,100,1,0
1373,331.491712707182,4,1,0,100,1,0
1375,331.491712707182,4,1,0,100,1,0
1376,1E+17,4,1,0,100,1,8
1376,-33.3333333333333,4,1,0,100,0,0
1460,-100,4,1,1,100,0,0
1531,331.491712707182,4,1,1,100,1,1
1533,331.491712707182,4,1,1,100,1,1
1535,331.491712707182,4,1,1,100,1,1
1537,331.491712707182,4,1,1,100,1,1
1539,331.491712707182,4,1,1,100,1,1
1541,331.491712707182,4,1,1,100,1,1
1542,331.491712707182,4,1,1,100,1,1
1542,-12.5,4,1,1,100,0,1
1544,331.491712707182,4,1,1,100,1,1
1546,331.491712707182,4,1,1,100,1,1
1548,331.491712707182,4,1,1,100,1,1
1550,331.491712707182,4,1,1,100,1,1
1707,-12.5,4,1,1,100,0,0
1873,331.491712707182,4,1,1,100,1,1
1873,-50,4,1,1,100,0,1
1955,-45.4545454545455,4,1,1,100,0,1
2038,-41.6666666666667,4,1,1,100,0,0
2121,-38.4615384615385,4,1,1,100,0,0
2204,-35.7142857142857,4,1,1,100,0,1
2287,-33.3333333333333,4,1,1,100,0,1
2370,-31.25,4,1,1,100,0,0
2453,-29.4117647058824,4,1,1,100,0,0
2536,-1,4,1,0,100,0,0
2857,331.491712707182,4,1,1,100,1,1
2859,331.491712707182,4,1,1,100,1,1
2861,331.491712707182,4,1,1,100,1,1
2863,331.491712707182,4,1,1,100,1,1
2865,331.491712707182,4,1,1,100,1,1
2867,331.491712707182,4,1,1,100,1,1
2868,331.491712707182,4,1,1,100,1,1
2868,-10,4,1,1,100,0,1
2870,331.491712707182,4,1,1,100,1,1
2872,331.491712707182,4,1,1,100,1,1
2874,331.491712707182,4,1,1,100,1,1
2876,331.491712707182,4,1,1,100,1,1
3199,331.491712707182,4,1,0,100,1,0
3199,-50,4,1,0,100,0,0
4028,-66.6666666666667,4,1,0,100,0,0
5187,-71.4285714285714,4,1,0,100,0,0
5353,-66.6666666666667,4,1,0,100,0,0
5520,-62.5,4,1,0,100,0,0
5603,-58.8235294117647,4,1,0,100,0,0
5686,-55.5555555555556,4,1,0,100,0,0
5768,-52.6315789473684,4,1,0,100,0,0
5851,-50,4,1,0,100,0,0
6679,-66.6666666666667,4,1,0,100,0,0
7176,-66.6666666666667,4,1,0,100,0,1
7342,-100,4,1,0,100,0,0
7425,-100,4,1,1,100,0,0
7509,-50,4,1,1,100,0,1
7675,-100,4,1,0,100,0,0
7839,-83.3333333333333,4,1,0,100,0,1
7895,-83.3333333333333,4,1,0,100,0,0
7950,-83.3333333333333,4,1,0,100,0,1
8006,-83.3333333333333,4,1,0,100,0,0
8060,-83.3333333333333,4,1,0,100,0,1
8116,-83.3333333333333,4,1,1,100,0,0
8171,-76.9230769230769,4,1,1,100,0,1
8226,-76.9230769230769,4,1,0,100,0,0
8254,-71.4285714285714,4,1,0,100,0,0
8337,-66.6666666666667,4,1,0,100,0,0
8419,-62.5,4,1,0,100,0,0
8461,-62.5,4,1,1,100,0,0
8502,-50,4,1,1,100,0,1
8668,-83.3333333333333,4,1,0,100,0,0
8751,-83.3333333333333,4,1,1,100,0,0
8835,-50,4,1,1,100,0,1
9000,-83.3333333333333,4,1,0,100,0,0
9165,-50,4,1,0,100,0,1
9331,-83.3333333333333,4,1,0,100,0,0
9455,-83.3333333333333,4,1,1,100,0,0
9498,-50,4,1,1,100,0,1
9663,-83.3333333333333,4,1,0,100,0,0
9829,-50,4,1,0,100,0,1
9994,-83.3333333333333,4,1,0,100,0,0
10118,-83.3333333333333,4,1,1,100,0,0
10161,-50,4,1,1,100,0,1
10326,-83.3333333333333,4,1,0,100,0,0
10492,-50,4,1,0,100,0,1
10657,-83.3333333333333,4,1,0,100,0,0
10781,-83.3333333333333,4,1,1,100,0,0
10824,-50,4,1,1,100,0,1
10989,-83.3333333333333,4,1,0,100,0,0
11113,-83.3333333333333,4,1,1,100,0,0
11155,-50,4,1,1,100,0,1
11320,-83.3333333333333,4,1,0,100,0,0
11403,-83.3333333333333,4,1,1,100,0,0
11487,-50,4,1,1,100,0,1
11652,-83.3333333333333,4,1,0,100,0,0
11818,-50,4,1,0,100,0,1
12107,-50,4,1,1,100,0,1
12150,-50,4,1,1,100,0,1
12190,-50,4,1,0,100,0,0
12232,-83.3333333333333,4,1,0,100,0,1
12273,-83.3333333333333,4,1,0,100,0,0
12315,-83.3333333333333,4,1,0,100,0,1
12356,-83.3333333333333,4,1,0,100,0,0
12397,-83.3333333333333,4,1,0,100,0,1
12438,-83.3333333333333,4,1,0,100,0,0
12480,-83.3333333333333,4,1,0,100,0,1
12521,-83.3333333333333,4,1,0,100,0,0
13806,-50,4,1,0,100,0,0
14469,-125,4,1,0,100,0,0
14552,-100,4,1,0,100,0,0
14635,-83.3333333333333,4,1,0,100,0,0
14718,-71.4285714285714,4,1,0,100,0,0
14759,-71.4285714285714,4,1,1,100,0,0
14801,-0.0001,4,1,1,100,0,1
15091,-0.0001,4,1,1,100,0,1
15132,-33.3333333333333,4,1,1,100,0,1
15134,1325.96685082873,4,1,1,100,1,1
15153,-50,4,1,0,5,0,1
16458,1325.96685082873,4,1,0,5,1,1
16458,-50,4,1,0,5,0,1
17784,1325.96685082873,4,1,0,5,1,1
17784,-50,4,1,0,5,0,1
20436,-50,4,1,0,5,0,1
23088,-50,4,1,0,5,0,1
24414,331.491712707182,4,1,0,20,1,0
24414,-100,4,1,0,20,0,0
24496,331.491712707182,4,1,0,20,1,0
24496,-83.3333333333333,4,1,0,20,0,0
24579,331.491712707182,4,1,0,20,1,0
24579,-71.4285714285714,4,1,0,20,0,0
24662,331.491712707182,4,1,0,20,1,0
24662,-62.5,4,1,0,20,0,0
24745,331.491712707182,4,1,0,20,1,0
24745,-55.5555555555556,4,1,0,20,0,0
24828,331.491712707182,4,1,0,20,1,0
24828,-50,4,1,0,20,0,0
24911,331.491712707182,4,1,0,20,1,0
24911,-45.4545454545455,4,1,0,20,0,0
24994,331.491712707182,4,1,0,20,1,0
24994,-41.6666666666667,4,1,0,20,0,0
25076,331.491712707182,4,1,0,20,1,0
25076,-38.4615384615385,4,1,0,20,0,0
25159,331.491712707182,4,1,0,20,1,0
25159,-35.7142857142857,4,1,0,20,0,0
25242,331.491712707182,4,1,0,20,1,0
25242,-33.3333333333333,4,1,0,20,0,0
25326,331.491712707182,4,1,1,100,1,0
25326,-31.25,4,1,1,100,0,0
25327,-1,4,1,1,100,0,0
25397,331.491712707182,4,1,1,100,1,1
25399,331.491712707182,4,1,1,100,1,1
25401,331.491712707182,4,1,1,100,1,1
25403,331.491712707182,4,1,1,100,1,1
25405,331.491712707182,4,1,1,100,1,1
25407,331.491712707182,4,1,1,100,1,1
25408,331.491712707182,4,1,1,100,1,1
25408,-1,4,1,1,100,0,1
25410,331.491712707182,4,1,1,100,1,1
25412,331.491712707182,4,1,1,100,1,1
25414,331.491712707182,4,1,1,100,1,1
25416,331.491712707182,4,1,1,100,1,1
25740,331.491712707182,4,1,1,100,1,0
25740,-66.6666666666667,4,1,0,100,0,0
25822,-83.3333333333333,4,1,0,100,0,0
28391,-83.3333333333333,4,1,0,5,0,0
28412,33.1491712707182,4,1,0,5,1,0
28412,-0.0001,4,1,0,5,0,0
28723,331.491712707182,4,1,0,100,1,0
28723,-83.3333333333333,4,1,0,100,0,0
29717,331.491712707182,4,1,0,100,1,0
29717,-83.3333333333333,4,1,0,100,0,0
30048,-55.5555555555556,4,1,0,100,0,1
30089,-55.5555555555556,4,1,0,100,0,0
30131,-58.8235294117647,4,1,0,100,0,1
30172,-58.8235294117647,4,1,0,100,0,0
30214,-62.5,4,1,0,100,0,1
30255,-62.5,4,1,0,100,0,0
30379,-83.3333333333333,4,1,0,100,0,0
30960,-83.3333333333333,4,1,1,100,0,0
31031,331.491712707182,4,1,1,100,1,1
31033,331.491712707182,4,1,1,100,1,1
31035,331.491712707182,4,1,1,100,1,1
31037,331.491712707182,4,1,1,100,1,1
31039,331.491712707182,4,1,1,100,1,1
31041,331.491712707182,4,1,1,100,1,1
31042,331.491712707182,4,1,1,100,1,1
31042,-10,4,1,1,100,0,1
31044,331.491712707182,4,1,1,100,1,1
31046,331.491712707182,4,1,1,100,1,1
31048,331.491712707182,4,1,1,100,1,1
31050,331.491712707182,4,1,1,100,1,1
31208,331.491712707182,4,1,0,100,1,0
31208,-71.4285714285714,4,1,0,100,0,0
31954,-71.4285714285714,4,1,1,100,0,0
32032,331.491712707182,4,1,1,100,1,1
32034,331.491712707182,4,1,1,100,1,1
32036,331.491712707182,4,1,1,100,1,1
32038,331.491712707182,4,1,1,100,1,1
32040,331.491712707182,4,1,1,100,1,1
32042,331.491712707182,4,1,1,100,1,1
32043,331.491712707182,4,1,1,100,1,1
32043,-10,4,1,1,100,0,1
32045,331.491712707182,4,1,1,100,1,1
32047,331.491712707182,4,1,1,100,1,1
32049,331.491712707182,4,1,1,100,1,1
32051,331.491712707182,4,1,1,100,1,1
32203,331.491712707182,4,1,0,100,1,0
32203,-71.4285714285714,4,1,0,100,0,0
32286,-71.4285714285714,4,1,1,100,0,0
32357,331.491712707182,4,1,1,100,1,1
32359,331.491712707182,4,1,1,100,1,1
32361,331.491712707182,4,1,1,100,1,1
32363,331.491712707182,4,1,1,100,1,1
32365,331.491712707182,4,1,1,100,1,1
32367,331.491712707182,4,1,1,100,1,1
32368,331.491712707182,4,1,1,100,1,1
32368,-10,4,1,1,100,0,1
32370,331.491712707182,4,1,1,100,1,1
32372,331.491712707182,4,1,1,100,1,1
32374,331.491712707182,4,1,1,100,1,1
32376,331.491712707182,4,1,1,100,1,1
32534,331.491712707182,4,1,0,100,1,0
32534,-71.4285714285714,4,1,0,100,0,0
33280,-71.4285714285714,4,1,1,100,0,0
33351,331.491712707182,4,1,1,100,1,1
33353,331.491712707182,4,1,1,100,1,1
33355,331.491712707182,4,1,1,100,1,1
33357,331.491712707182,4,1,1,100,1,1
33359,331.491712707182,4,1,1,100,1,1
33361,331.491712707182,4,1,1,100,1,1
33362,331.491712707182,4,1,1,100,1,1
33362,-10,4,1,1,100,0,1
33364,331.491712707182,4,1,1,100,1,1
33366,331.491712707182,4,1,1,100,1,1
33368,331.491712707182,4,1,1,100,1,1
33370,331.491712707182,4,1,1,100,1,1
33529,331.491712707182,4,1,0,100,1,0
33529,-71.4285714285714,4,1,0,100,0,0
33612,-71.4285714285714,4,1,1,100,0,0
33674,-83.3333333333333,4,1,1,100,0,0
33683,331.491712707182,4,1,1,100,1,1
33685,331.491712707182,4,1,1,100,1,1
33687,331.491712707182,4,1,1,100,1,1
33689,331.491712707182,4,1,1,100,1,1
33691,331.491712707182,4,1,1,100,1,1
33693,331.491712707182,4,1,1,100,1,1
33694,331.491712707182,4,1,1,100,1,1
33694,-10,4,1,1,100,0,1
33696,331.491712707182,4,1,1,100,1,1
33698,331.491712707182,4,1,1,100,1,1
33700,331.491712707182,4,1,1,100,1,1
33702,331.491712707182,4,1,1,100,1,1
33777,-66.6666666666667,4,1,0,100,0,0
34192,331.491712707182,4,1,0,100,1,0
34192,-83.3333333333333,4,1,0,100,0,0
34316,-83.3333333333333,4,1,1,100,0,0
34337,-83.3333333333333,4,1,1,100,0,0
34346,331.491712707182,4,1,1,100,1,1
34348,331.491712707182,4,1,1,100,1,1
34350,331.491712707182,4,1,1,100,1,1
34352,331.491712707182,4,1,1,100,1,1
34354,331.491712707182,4,1,1,100,1,1
34356,331.491712707182,4,1,1,100,1,1
34357,331.491712707182,4,1,1,100,1,1
34357,-10,4,1,1,100,0,1
34359,331.491712707182,4,1,1,100,1,1
34361,331.491712707182,4,1,1,100,1,1
34363,331.491712707182,4,1,1,100,1,1
34365,331.491712707182,4,1,1,100,1,1
34440,-66.6666666666667,4,1,0,100,0,0
34855,-62.5,4,1,0,100,0,0
34910,-58.8235294117647,4,1,0,100,0,0
34965,-55.5555555555556,4,1,0,100,0,0
35020,331.491712707182,4,1,0,100,1,1
35020,-33.3333333333333,4,1,0,100,0,1
35600,-33.3333333333333,4,1,1,100,0,1
35683,-25,4,1,1,100,0,1
36346,-50,4,1,0,100,0,0
36678,-33.3333333333333,4,1,0,100,0,0
37009,331.491712707182,4,1,0,100,1,0
37009,-0.0001,4,1,0,100,0,0
37258,-0.0001,4,1,1,100,0,0
37331,331.491712707182,4,1,1,100,1,1
37333,331.491712707182,4,1,1,100,1,1
37335,331.491712707182,4,1,1,100,1,1
37337,331.491712707182,4,1,1,100,1,1
37339,331.491712707182,4,1,1,100,1,1
37340,331.491712707182,4,1,1,100,1,1
37341,331.491712707182,4,1,1,100,1,1
37341,-1,4,1,1,100,0,1
37343,331.491712707182,4,1,1,100,1,1
37345,331.491712707182,4,1,1,100,1,1
37347,331.491712707182,4,1,1,100,1,1
37349,331.491712707182,4,1,1,100,1,1
37424,-12.5,4,1,0,100,0,0
37675,165.745856353591,4,1,0,100,1,1
37675,-166.666666666667,4,1,2,100,0,1
39660,-166.666666666667,4,1,0,100,0,0
39829,-66.6666666666667,4,1,0,100,0,1
39830,-0.0001,4,1,0,100,0,1
39995,-166.666666666667,4,1,0,100,0,0
40161,-66.6666666666667,4,1,0,100,0,1
40162,-0.0001,4,1,0,100,0,1
40326,-166.666666666667,4,1,2,100,0,1
42335,331.491712707182,4,1,0,100,1,1
42356,331.491712707182,4,1,0,100,1,1
42377,331.491712707182,4,1,0,100,1,1
42398,331.491712707182,4,1,0,100,1,1
42418,331.491712707182,4,1,0,100,1,1
42439,331.491712707182,4,1,0,100,1,1
42460,331.491712707182,4,1,0,100,1,1
42481,331.491712707182,4,1,0,100,1,1
42481,-100,4,1,0,100,0,1
42501,0.06323864049,4,1,0,100,1,0
42503,331.491712707182,4,1,0,100,1,0
42523,331.491712707182,4,1,0,100,1,0
42543,331.491712707182,4,1,0,100,1,0
42564,331.491712707182,4,1,0,100,1,1
42564,-100,4,1,0,100,0,1
42584,0.06323864049,4,1,0,100,1,0
42586,331.491712707182,4,1,0,100,1,0
42605,331.491712707182,4,1,0,100,1,0
42626,331.491712707182,4,1,0,100,1,0
42647,331.491712707182,4,1,0,100,1,1
42647,-100,4,1,0,100,0,1
42667,0.06323864049,4,1,0,100,1,0
42669,331.491712707182,4,1,0,100,1,0
42688,331.491712707182,4,1,0,100,1,0
42709,331.491712707182,4,1,0,100,1,0
42730,331.491712707182,4,1,0,100,1,1
42730,-100,4,1,0,100,0,1
42750,0.06323864049,4,1,0,100,1,0
42752,331.491712707182,4,1,0,100,1,0
42771,331.491712707182,4,1,0,100,1,0
42792,331.491712707182,4,1,0,100,1,0
42813,331.491712707182,4,1,0,100,1,1
42813,-100,4,1,0,100,0,1
42833,0.06323864049,4,1,0,100,1,0
42835,331.491712707182,4,1,0,100,1,0
42853,331.491712707182,4,1,0,100,1,0
42874,331.491712707182,4,1,0,100,1,0
42895,331.491712707182,4,1,0,100,1,1
42915,331.491712707182,4,1,0,100,1,1
42935,331.491712707182,4,1,0,100,1,1
42955,331.491712707182,4,1,0,100,1,1
42978,165.745856353591,4,1,0,100,1,1
42978,-166.666666666667,4,1,2,100,0,1
44904,331.491712707182,4,1,0,100,1,1
44925,331.491712707182,4,1,0,100,1,1
44946,331.491712707182,4,1,0,100,1,1
44967,331.491712707182,4,1,0,100,1,1
44987,0.06323864049,4,1,0,100,1,0
44989,331.491712707182,4,1,0,100,1,0
45008,331.491712707182,4,1,0,100,1,0
45029,331.491712707182,4,1,0,100,1,0
45050,331.491712707182,4,1,0,100,1,1
45070,0.06323864049,4,1,0,100,1,0
45072,331.491712707182,4,1,0,100,1,0
45091,331.491712707182,4,1,0,100,1,0
45112,331.491712707182,4,1,0,100,1,0
45133,331.491712707182,4,1,0,100,1,1
45153,0.06323864049,4,1,0,100,1,0
45155,331.491712707182,4,1,0,100,1,0
45175,331.491712707182,4,1,0,100,1,0
45196,331.491712707182,4,1,0,100,1,0
45236,331.491712707182,4,1,0,100,1,0
45257,331.491712707182,4,1,0,100,1,0
45278,331.491712707182,4,1,0,100,1,0
45299,331.491712707182,4,1,0,100,1,1
45319,0.06323864049,4,1,0,100,1,0
45321,331.491712707182,4,1,0,100,1,0
45340,331.491712707182,4,1,0,100,1,0
45361,331.491712707182,4,1,0,100,1,0
45382,331.491712707182,4,1,0,100,1,1
45402,0.06323864049,4,1,0,100,1,0
45404,331.491712707182,4,1,0,100,1,0
45423,331.491712707182,4,1,0,100,1,0
45444,331.491712707182,4,1,0,100,1,0
45465,331.491712707182,4,1,0,100,1,1
45485,0.06323864049,4,1,0,100,1,0
45487,331.491712707182,4,1,0,100,1,0
45507,331.491712707182,4,1,0,100,1,0
45527,331.491712707182,4,1,0,100,1,0
45547,-83.3333333333333,4,1,1,100,0,1
45619,331.491712707182,4,1,1,100,1,1
45621,331.491712707182,4,1,1,100,1,1
45623,331.491712707182,4,1,1,100,1,1
45625,331.491712707182,4,1,1,100,1,1
45627,331.491712707182,4,1,1,100,1,1
45629,331.491712707182,4,1,1,100,1,1
45630,331.491712707182,4,1,1,100,1,1
45630,-12.5,4,1,1,100,0,1
45632,331.491712707182,4,1,1,100,1,1
45634,331.491712707182,4,1,1,100,1,1
45636,331.491712707182,4,1,1,100,1,1
45638,331.491712707182,4,1,1,100,1,1
45878,165.745856353591,4,1,0,100,1,1
45878,-166.666666666667,4,1,2,100,0,1
46210,-83.3333333333333,4,1,1,100,0,1
46282,331.491712707182,4,1,1,100,1,1
46284,331.491712707182,4,1,1,100,1,1
46286,331.491712707182,4,1,1,100,1,1
46288,331.491712707182,4,1,1,100,1,1
46290,331.491712707182,4,1,1,100,1,1
46292,331.491712707182,4,1,1,100,1,1
46293,331.491712707182,4,1,1,100,1,1
46293,-12.5,4,1,1,100,0,1
46295,331.491712707182,4,1,1,100,1,1
46297,331.491712707182,4,1,1,100,1,1
46299,331.491712707182,4,1,1,100,1,1
46301,331.491712707182,4,1,1,100,1,1
46541,165.745856353591,4,1,0,100,1,1
46541,-166.666666666667,4,1,2,100,0,1
46873,-83.3333333333333,4,1,1,100,0,1
46945,331.491712707182,4,1,1,100,1,1
46947,331.491712707182,4,1,1,100,1,1
46949,331.491712707182,4,1,1,100,1,1
46951,331.491712707182,4,1,1,100,1,1
46953,331.491712707182,4,1,1,100,1,1
46955,331.491712707182,4,1,1,100,1,1
46956,331.491712707182,4,1,1,100,1,1
46956,-12.5,4,1,1,100,0,1
46958,331.491712707182,4,1,1,100,1,1
46960,331.491712707182,4,1,1,100,1,1
46962,331.491712707182,4,1,1,100,1,1
46964,331.491712707182,4,1,1,100,1,1
47121,165.745856353591,4,1,2,100,1,1
47121,-166.666666666667,4,1,2,100,0,1
47205,-83.3333333333333,4,1,1,100,0,1
47278,331.491712707182,4,1,1,100,1,1
47280,331.491712707182,4,1,1,100,1,1
47282,331.491712707182,4,1,1,100,1,1
47284,331.491712707182,4,1,1,100,1,1
47286,331.491712707182,4,1,1,100,1,1
47287,331.491712707182,4,1,1,100,1,1
47288,331.491712707182,4,1,1,100,1,1
47288,-12.5,4,1,1,100,0,1
47290,331.491712707182,4,1,1,100,1,1
47292,331.491712707182,4,1,1,100,1,1
47294,331.491712707182,4,1,1,100,1,1
47296,331.491712707182,4,1,1,100,1,1
47453,165.745856353591,4,1,2,100,1,1
47453,-166.666666666667,4,1,2,100,0,1
47619,-166.666666666667,4,1,2,100,0,0
47868,-0.0001,4,1,1,100,0,0
47940,331.491712707182,4,1,1,100,1,0
47942,331.491712707182,4,1,1,100,1,0
47944,331.491712707182,4,1,1,100,1,0
47946,331.491712707182,4,1,1,100,1,0
47948,331.491712707182,4,1,1,100,1,0
47950,331.491712707182,4,1,1,100,1,0
47951,331.491712707182,4,1,1,100,1,1
47951,-0.0001,4,1,1,100,0,1
47953,331.491712707182,4,1,1,100,1,1
47955,331.491712707182,4,1,1,100,1,1
47957,331.491712707182,4,1,1,100,1,1
47959,331.491712707182,4,1,1,100,1,1
48282,331.491712707182,4,1,2,100,1,1
48282,-66.6666666666667,4,1,2,100,0,1
48282,-71.4285714285714,4,1,2,100,0,1
48361,-76.9230769230769,4,1,2,100,0,1
48447,-83.3333333333333,4,1,2,100,0,1
48530,-90.9090909090909,4,1,2,100,0,1
48613,-100,4,1,2,100,0,1
48696,-111.111111111111,4,1,2,100,0,1
48779,-125,4,1,2,100,0,1
48862,-111.111111111111,4,1,2,100,0,1
48944,-100,4,1,2,100,0,1
49027,-90.9090909090909,4,1,2,100,0,1
49110,-83.3333333333333,4,1,2,100,0,1
49193,-76.9230769230769,4,1,2,100,0,1
49276,-71.4285714285714,4,1,2,100,0,1
49359,-66.6666666666667,4,1,2,100,0,1
49442,-71.4285714285714,4,1,2,100,0,1
49525,-76.9230769230769,4,1,2,100,0,1
49606,-83.3333333333333,4,1,2,100,0,1
49607,-83.3333333333333,4,1,2,100,0,1
50260,331.491712707182,4,1,1,100,1,1
50262,331.491712707182,4,1,1,100,1,1
50264,331.491712707182,4,1,1,100,1,1
50266,331.491712707182,4,1,1,100,1,1
50268,331.491712707182,4,1,1,100,1,1
50270,331.491712707182,4,1,1,100,1,1
50271,331.491712707182,4,1,1,100,1,1
50271,-10,4,1,1,100,0,1
50273,331.491712707182,4,1,1,100,1,1
50275,331.491712707182,4,1,1,100,1,1
50277,331.491712707182,4,1,1,100,1,1
50279,331.491712707182,4,1,1,100,1,1
50436,331.491712707182,4,1,2,100,1,1
50436,-83.3333333333333,4,1,2,100,0,1
50591,331.491712707182,4,1,1,100,1,1
50593,331.491712707182,4,1,1,100,1,1
50595,331.491712707182,4,1,1,100,1,1
50597,331.491712707182,4,1,1,100,1,1
50599,331.491712707182,4,1,1,100,1,1
50601,331.491712707182,4,1,1,100,1,1
50602,331.491712707182,4,1,1,100,1,1
50602,-10,4,1,1,100,0,1
50604,331.491712707182,4,1,1,100,1,1
50606,331.491712707182,4,1,1,100,1,1
50608,331.491712707182,4,1,1,100,1,1
50610,331.491712707182,4,1,1,100,1,1
50768,331.491712707182,4,1,2,100,1,1
50768,-83.3333333333333,4,1,2,100,0,1
50933,331.491712707182,4,1,2,100,1,1
50933,-66.6666666666667,4,1,2,100,0,1
51015,-71.4285714285714,4,1,2,100,0,1
51098,-76.9230769230769,4,1,2,100,0,1
51181,-83.3333333333333,4,1,2,100,0,1
51264,-90.9090909090909,4,1,2,100,0,1
51347,-100,4,1,2,100,0,1
51430,-111.111111111111,4,1,2,100,0,1
51513,-125,4,1,2,100,0,1
51595,-142.857142857143,4,1,2,100,0,1
51678,-125,4,1,2,100,0,1
51761,-111.111111111111,4,1,2,100,0,1
51844,-100,4,1,2,100,0,1
51927,-90.9090909090909,4,1,2,100,0,1
52010,-83.3333333333333,4,1,2,100,0,1
52093,-76.9230769230769,4,1,2,100,0,1
52176,-71.4285714285714,4,1,2,100,0,1
52258,-66.6666666666667,4,1,2,100,0,1
52259,-66.6666666666667,4,1,2,100,0,1
52424,-83.3333333333333,4,1,2,100,0,1
52911,331.491712707182,4,1,1,100,1,1
52913,331.491712707182,4,1,1,100,1,1
52915,331.491712707182,4,1,1,100,1,1
52917,331.491712707182,4,1,1,100,1,1
52919,331.491712707182,4,1,1,100,1,1
52921,331.491712707182,4,1,1,100,1,1
52922,331.491712707182,4,1,1,100,1,1
52922,-12.5,4,1,1,100,0,1
52924,331.491712707182,4,1,1,100,1,1
52926,331.491712707182,4,1,1,100,1,1
52928,331.491712707182,4,1,1,100,1,1
52930,331.491712707182,4,1,1,100,1,1
53087,331.491712707182,4,1,1,100,1,1
53087,-83.3333333333333,4,1,1,100,0,1
53243,331.491712707182,4,1,1,100,1,1
53245,331.491712707182,4,1,1,100,1,1
53247,331.491712707182,4,1,1,100,1,1
53249,331.491712707182,4,1,1,100,1,1
53251,331.491712707182,4,1,1,100,1,1
53253,331.491712707182,4,1,1,100,1,1
53254,331.491712707182,4,1,1,100,1,1
53254,-10,4,1,1,100,0,1
53256,331.491712707182,4,1,1,100,1,1
53258,331.491712707182,4,1,1,100,1,1
53260,331.491712707182,4,1,1,100,1,1
53262,331.491712707182,4,1,1,100,1,1
53409,331.491712707182,4,1,1,100,1,1
53411,331.491712707182,4,1,1,100,1,1
53413,331.491712707182,4,1,1,100,1,1
53415,331.491712707182,4,1,1,100,1,1
53417,331.491712707182,4,1,1,100,1,1
53419,331.491712707182,4,1,1,100,1,1
53420,331.491712707182,4,1,1,100,1,1
53420,-1,4,1,1,100,0,1
53422,331.491712707182,4,1,1,100,1,1
53424,331.491712707182,4,1,1,100,1,1
53426,331.491712707182,4,1,1,100,1,1
53428,331.491712707182,4,1,1,100,1,1
53586,331.491712707182,4,1,2,100,1,1
53586,-83.3333333333333,4,1,2,100,0,1
53917,-100,4,1,2,100,0,1
54000,-90.9090909090909,4,1,2,100,0,1
54083,-83.3333333333333,4,1,2,100,0,1
54165,-76.9230769230769,4,1,2,100,0,1
54248,-71.4285714285714,4,1,2,100,0,1
54359,-66.6666666666667,4,1,2,100,0,1
54469,-62.5,4,1,2,100,0,1
54580,-58.8235294117647,4,1,2,100,0,1
54746,-55.5555555555556,4,1,2,100,0,1
54849,331.491712707182,4,1,0,100,1,1
54866,331.491712707182,4,1,0,100,1,0
54887,331.491712707182,4,1,0,100,1,1
54908,331.491712707182,4,1,0,100,1,1
54908,-100,4,1,0,100,0,1
54928,0.06323864049,4,1,0,100,1,0
54930,331.491712707182,4,1,0,100,1,1
54948,331.491712707182,4,1,0,100,1,0
54969,331.491712707182,4,1,0,100,1,1
54990,331.491712707182,4,1,0,100,1,1
55010,0.06323864049,4,1,0,100,1,0
55012,331.491712707182,4,1,0,100,1,1
55030,331.491712707182,4,1,0,100,1,0
55052,331.491712707182,4,1,0,100,1,1
55073,331.491712707182,4,1,0,100,1,1
55093,0.06323864049,4,1,0,100,1,0
55095,331.491712707182,4,1,0,100,1,1
55115,331.491712707182,4,1,0,100,1,0
55135,331.491712707182,4,1,0,100,1,1
55156,331.491712707182,4,1,0,100,1,1
55176,0.06323864049,4,1,0,100,1,0
55178,331.491712707182,4,1,0,100,1,1
55196,331.491712707182,4,1,0,100,1,0
55218,331.491712707182,4,1,0,100,1,1
55239,331.491712707182,4,1,0,100,1,1
55259,0.06323864049,4,1,0,100,1,0
55261,331.491712707182,4,1,0,100,1,1
55281,331.491712707182,4,1,0,100,1,0
55301,331.491712707182,4,1,0,100,1,1
55322,331.491712707182,4,1,0,100,1,1
55342,0.06323864049,4,1,0,100,1,0
55344,331.491712707182,4,1,0,100,1,1
55363,331.491712707182,4,1,0,100,1,0
55384,331.491712707182,4,1,0,100,1,1
55405,331.491712707182,4,1,0,100,1,1
55425,0.06323864049,4,1,0,100,1,0
55427,331.491712707182,4,1,0,100,1,1
55445,331.491712707182,4,1,0,100,1,0
55467,331.491712707182,4,1,0,100,1,1
55488,331.491712707182,4,1,0,100,1,1
55508,0.06323864049,4,1,0,100,1,0
55510,331.491712707182,4,1,0,100,1,1
55528,331.491712707182,4,1,0,100,1,0
55551,331.491712707182,4,1,0,100,1,1
55559,331.491712707182,4,1,1,100,1,1
55561,331.491712707182,4,1,1,100,1,1
55563,331.491712707182,4,1,1,100,1,1
55565,331.491712707182,4,1,1,100,1,1
55567,331.491712707182,4,1,1,100,1,1
55569,331.491712707182,4,1,1,100,1,1
55570,331.491712707182,4,1,1,100,1,1
55570,-0.0001,4,1,1,100,0,1
55572,331.491712707182,4,1,1,100,1,1
55574,331.491712707182,4,1,1,100,1,1
55576,331.491712707182,4,1,1,100,1,1
55578,331.491712707182,4,1,1,100,1,1
55591,0.06323864049,4,1,0,100,1,0
55593,331.491712707182,4,1,0,100,1,1
55593,-0.0001,4,1,0,100,0,1
55653,331.491712707182,4,1,1,100,1,1
55736,331.491712707182,4,1,1,100,1,1
55818,331.491712707182,4,1,1,100,1,1
55891,331.491712707182,4,1,1,100,1,1
55893,331.491712707182,4,1,1,100,1,1
55895,331.491712707182,4,1,1,100,1,1
55897,331.491712707182,4,1,1,100,1,1
55899,331.491712707182,4,1,1,100,1,1
55901,331.491712707182,4,1,1,100,1,1
55902,331.491712707182,4,1,1,100,1,1
55902,-0.0001,4,1,1,100,0,1
55904,331.491712707182,4,1,1,100,1,1
55906,331.491712707182,4,1,1,100,1,1
55908,331.491712707182,4,1,1,100,1,1
55910,331.491712707182,4,1,1,100,1,1
55984,331.491712707182,4,1,1,100,1,1
56068,331.491712707182,4,1,1,100,1,1
56150,331.491712707182,4,1,1,100,1,1
56238,662.983425414365,4,1,0,100,1,1
56238,662.983425414365,4,1,0,100,1,1
56238,-55.5555555555556,4,1,0,100,0,1
56320,662.983425414365,4,1,0,100,1,1
56320,-55.5555555555556,4,1,0,100,0,1
56403,662.983425414365,4,1,0,100,1,1
56403,-55.5555555555556,4,1,0,100,0,1
56486,662.983425414365,4,1,0,100,1,1
56486,-55.5555555555556,4,1,0,100,0,1
56568,662.983425414365,4,1,0,100,1,1
56568,-55.5555555555556,4,1,0,100,0,1
56651,662.983425414365,4,1,0,100,1,1
56651,-55.5555555555556,4,1,0,100,0,1
56735,662.983425414365,4,1,0,100,1,1
56735,-55.5555555555556,4,1,0,100,0,1
56817,662.983425414365,4,1,0,100,1,1
56817,-55.5555555555556,4,1,0,100,0,1
56900,662.983425414365,4,1,0,100,1,1
56900,-55.5555555555556,4,1,0,100,0,1
56982,662.983425414365,4,1,0,100,1,1
56982,-55.5555555555556,4,1,0,100,0,1
57065,662.983425414365,4,1,0,100,1,1
57065,-55.5555555555556,4,1,0,100,0,1
57149,662.983425414365,4,1,0,100,1,1
57149,-55.5555555555556,4,1,0,100,0,1
57231,662.983425414365,4,1,0,100,1,1
57231,-55.5555555555556,4,1,0,100,0,1
57314,662.983425414365,4,1,0,100,1,1
57314,-55.5555555555556,4,1,0,100,0,1
57398,662.983425414365,4,1,0,100,1,1
57398,-55.5555555555556,4,1,0,100,0,1
57480,662.983425414365,4,1,0,100,1,1
57480,-55.5555555555556,4,1,0,100,0,1
57563,662.983425414365,4,1,0,100,1,1
57563,-55.5555555555556,4,1,0,100,0,1
57645,662.983425414365,4,1,0,100,1,1
57645,-55.5555555555556,4,1,0,100,0,1
57727,662.983425414365,4,1,0,100,1,1
57727,-55.5555555555556,4,1,0,100,0,1
57812,662.983425414365,4,1,0,100,1,1
57812,-55.5555555555556,4,1,0,100,0,1
57894,662.983425414365,4,1,0,100,1,1
57894,-55.5555555555556,4,1,0,100,0,1
57976,662.983425414365,4,1,0,100,1,1
57976,-55.5555555555556,4,1,0,100,0,1
58061,662.983425414365,4,1,0,100,1,1
58061,-55.5555555555556,4,1,0,100,0,1
58102,-0.0001,4,1,0,100,0,1
58547,331.491712707182,4,1,1,100,1,1
58549,331.491712707182,4,1,1,100,1,1
58551,331.491712707182,4,1,1,100,1,1
58553,331.491712707182,4,1,1,100,1,1
58555,331.491712707182,4,1,1,100,1,1
58557,331.491712707182,4,1,1,100,1,1
58558,331.491712707182,4,1,1,100,1,1
58558,-0.0001,4,1,1,100,0,1
58560,331.491712707182,4,1,1,100,1,1
58562,331.491712707182,4,1,1,100,1,1
58564,331.491712707182,4,1,1,100,1,1
58566,331.491712707182,4,1,1,100,1,1
58879,331.491712707182,4,1,1,100,1,1
58881,331.491712707182,4,1,1,100,1,1
58883,331.491712707182,4,1,1,100,1,1
58885,331.491712707182,4,1,1,100,1,1
58887,331.491712707182,4,1,1,100,1,1
58889,331.491712707182,4,1,1,100,1,1
58890,331.491712707182,4,1,1,100,1,1
58890,-25,4,1,1,100,0,0
58892,331.491712707182,4,1,1,100,1,1
58894,331.491712707182,4,1,1,100,1,1
58896,331.491712707182,4,1,1,100,1,1
58898,331.491712707182,4,1,1,100,1,1
58931,-125,4,1,0,50,0,0
59221,331.491712707182,4,1,0,50,1,0
60215,331.491712707182,4,1,0,50,1,0
61209,-100,4,1,0,60,0,1
61210,-96.1538461538461,4,1,0,60,0,1
61211,-104.166666666667,4,1,0,60,0,1
61212,-92.5925925925926,4,1,0,60,0,1
61213,-108.695652173913,4,1,0,60,0,1
61214,-89.2857142857143,4,1,0,60,0,1
61215,-113.636363636364,4,1,0,60,0,1
61216,-86.2068965517241,4,1,0,60,0,1
61217,-119.047619047619,4,1,0,60,0,1
61218,-83.3333333333333,4,1,0,60,0,1
61219,-125,4,1,0,60,0,1
61220,-80,4,1,0,60,0,1
61221,-133.333333333333,4,1,0,60,0,1
61222,-76.9230769230769,4,1,0,60,0,1
61223,-142.857142857143,4,1,0,60,0,1
61375,-142.857142857143,4,1,0,60,0,0
61540,331.491712707182,4,1,0,70,1,1
61540,-100,4,1,0,70,0,1
61541,-96.1538461538461,4,1,0,70,0,1
61542,-104.166666666667,4,1,0,70,0,1
61543,-92.5925925925926,4,1,0,70,0,1
61544,-108.695652173913,4,1,0,70,0,1
61545,-89.2857142857143,4,1,0,70,0,1
61546,-113.636363636364,4,1,0,70,0,1
61547,-86.2068965517241,4,1,0,70,0,1
61548,-119.047619047619,4,1,0,70,0,1
61549,-83.3333333333333,4,1,0,70,0,1
61550,-125,4,1,0,70,0,1
61551,-80,4,1,0,70,0,1
61552,-133.333333333333,4,1,0,70,0,1
61553,-76.9230769230769,4,1,0,70,0,1
61554,-142.857142857143,4,1,0,70,0,1
61873,-125,4,1,0,50,0,0
62534,-100,4,1,0,60,0,1
62535,-96.1538461538461,4,1,0,60,0,1
62536,-104.166666666667,4,1,0,60,0,1
62537,-92.5925925925926,4,1,0,60,0,1
62538,-108.695652173913,4,1,0,60,0,1
62539,-89.2857142857143,4,1,0,60,0,1
62540,-113.636363636364,4,1,0,60,0,1
62541,-86.2068965517241,4,1,0,60,0,1
62542,-119.047619047619,4,1,0,60,0,1
62543,-83.3333333333333,4,1,0,60,0,1
62544,-125,4,1,0,60,0,1
62545,-80,4,1,0,60,0,1
62546,-133.333333333333,4,1,0,60,0,1
62547,-76.9230769230769,4,1,0,60,0,1
62548,-142.857142857143,4,1,0,60,0,1
62700,-142.857142857143,4,1,0,60,0,0
62865,-100,4,1,0,70,0,1
62866,-96.1538461538461,4,1,0,70,0,1
62867,-104.166666666667,4,1,0,70,0,1
62868,-92.5925925925926,4,1,0,70,0,1
62869,-108.695652173913,4,1,0,70,0,1
62870,-89.2857142857143,4,1,0,70,0,1
62871,-113.636363636364,4,1,0,70,0,1
62872,-86.2068965517241,4,1,0,70,0,1
62873,-119.047619047619,4,1,0,70,0,1
62874,-83.3333333333333,4,1,0,70,0,1
62875,-125,4,1,0,70,0,1
62876,-80,4,1,0,70,0,1
62877,-133.333333333333,4,1,0,70,0,1
62878,-76.9230769230769,4,1,0,70,0,1
62879,-142.857142857143,4,1,0,70,0,1
63199,-111.111111111111,4,1,0,50,0,0
63860,-100,4,1,0,60,0,1
63861,-96.1538461538461,4,1,0,60,0,1
63862,-104.166666666667,4,1,0,60,0,1
63863,-92.5925925925926,4,1,0,60,0,1
63864,-108.695652173913,4,1,0,60,0,1
63865,-89.2857142857143,4,1,0,60,0,1
63866,-113.636363636364,4,1,0,60,0,1
63867,-86.2068965517241,4,1,0,60,0,1
63868,-119.047619047619,4,1,0,60,0,1
63869,-83.3333333333333,4,1,0,60,0,1
63870,-125,4,1,0,60,0,1
63871,-80,4,1,0,60,0,1
63872,-133.333333333333,4,1,0,60,0,1
63873,-76.9230769230769,4,1,0,60,0,1
63874,-142.857142857143,4,1,0,60,0,1
64026,-142.857142857143,4,1,0,60,0,0
64193,331.491712707182,4,1,0,100,1,1
64193,-66.6666666666667,4,1,0,100,0,1
64234,331.491712707182,4,1,0,100,1,0
64276,331.491712707182,4,1,0,100,1,1
64276,-66.6666666666667,4,1,0,100,0,1
64317,331.491712707182,4,1,0,100,1,0
64359,331.491712707182,4,1,0,100,1,1
64359,-66.6666666666667,4,1,0,100,0,1
64400,331.491712707182,4,1,0,100,1,0
64442,331.491712707182,4,1,0,100,1,1
64442,-66.6666666666667,4,1,0,100,0,1
64483,331.491712707182,4,1,0,100,1,0
64525,331.491712707182,4,1,0,100,1,1
64525,-66.6666666666667,4,1,0,100,0,1
64566,331.491712707182,4,1,0,100,1,0
64608,331.491712707182,4,1,0,100,1,1
64608,-66.6666666666667,4,1,0,100,0,1
64649,331.491712707182,4,1,0,100,1,0
64691,331.491712707182,4,1,0,100,1,1
64691,-66.6666666666667,4,1,0,100,0,1
64732,331.491712707182,4,1,0,100,1,0
64773,331.491712707182,4,1,0,100,1,1
64773,-66.6666666666667,4,1,0,100,0,1
64814,331.491712707182,4,1,0,100,1,0
64856,331.491712707182,4,1,0,100,1,1
64856,-66.6666666666667,4,1,0,100,0,1
64897,331.491712707182,4,1,0,100,1,0
64939,331.491712707182,4,1,0,100,1,1
64939,-66.6666666666667,4,1,0,100,0,1
64980,331.491712707182,4,1,0,100,1,0
65022,331.491712707182,4,1,0,100,1,1
65022,-66.6666666666667,4,1,0,100,0,1
65063,331.491712707182,4,1,0,100,1,0
65105,331.491712707182,4,1,0,100,1,1
65105,-66.6666666666667,4,1,0,100,0,1
65146,331.491712707182,4,1,0,100,1,0
65179,331.491712707182,4,1,1,100,1,1
65179,-66.6666666666667,4,1,1,100,0,1
65181,331.491712707182,4,1,1,100,1,1
65181,-66.6666666666667,4,1,1,100,0,1
65183,331.491712707182,4,1,1,100,1,1
65183,-66.6666666666667,4,1,1,100,0,1
65185,331.491712707182,4,1,1,100,1,1
65185,-66.6666666666667,4,1,1,100,0,1
65187,331.491712707182,4,1,1,100,1,1
65187,-66.6666666666667,4,1,1,100,0,1
65188,331.491712707182,4,1,1,100,1,1
65188,-1,4,1,1,100,0,1
65519,331.491712707182,4,1,0,100,1,1
65519,-58.8235294117647,4,1,0,100,0,1
65560,331.491712707182,4,1,0,100,1,0
65602,331.491712707182,4,1,0,100,1,1
65602,-58.8235294117647,4,1,0,100,0,1
65643,331.491712707182,4,1,0,100,1,0
65685,331.491712707182,4,1,0,100,1,1
65685,-58.8235294117647,4,1,0,100,0,1
65726,331.491712707182,4,1,0,100,1,0
65768,331.491712707182,4,1,0,100,1,1
65768,-58.8235294117647,4,1,0,100,0,1
65809,331.491712707182,4,1,0,100,1,0
65851,331.491712707182,4,1,0,100,1,1
65851,-58.8235294117647,4,1,0,100,0,1
65892,331.491712707182,4,1,0,100,1,0
65934,331.491712707182,4,1,0,100,1,1
65934,-58.8235294117647,4,1,0,100,0,1
65975,331.491712707182,4,1,0,100,1,0
66017,331.491712707182,4,1,0,100,1,1
66017,-58.8235294117647,4,1,0,100,0,1
66058,331.491712707182,4,1,0,100,1,0
66099,331.491712707182,4,1,0,100,1,1
66099,-58.8235294117647,4,1,0,100,0,1
66140,331.491712707182,4,1,0,100,1,0
66182,331.491712707182,4,1,0,100,1,1
66182,-58.8235294117647,4,1,0,100,0,1
66223,331.491712707182,4,1,0,100,1,0
66265,331.491712707182,4,1,0,100,1,1
66265,-58.8235294117647,4,1,0,100,0,1
66306,331.491712707182,4,1,0,100,1,0
66348,331.491712707182,4,1,0,100,1,1
66348,-58.8235294117647,4,1,0,100,0,1
66389,331.491712707182,4,1,0,100,1,0
66431,331.491712707182,4,1,0,100,1,1
66431,-58.8235294117647,4,1,0,100,0,1
66472,331.491712707182,4,1,0,100,1,0
66492,-58.8235294117647,4,1,1,100,0,1
66504,331.491712707182,4,1,1,100,1,1
66504,-58.8235294117647,4,1,1,100,0,1
66506,331.491712707182,4,1,1,100,1,1
66506,-58.8235294117647,4,1,1,100,0,1
66508,331.491712707182,4,1,1,100,1,1
66508,-58.8235294117647,4,1,1,100,0,1
66510,331.491712707182,4,1,1,100,1,1
66510,-58.8235294117647,4,1,1,100,0,1
66512,331.491712707182,4,1,1,100,1,1
66512,-58.8235294117647,4,1,1,100,0,1
66513,331.491712707182,4,1,1,100,1,1
66513,-58.8235294117647,4,1,1,100,0,1
66514,331.491712707182,4,1,1,100,1,1
66514,-1,4,1,1,100,0,1
66845,331.491712707182,4,1,0,100,1,1
66845,-50,4,1,0,100,0,1
66886,331.491712707182,4,1,0,100,1,0
66928,331.491712707182,4,1,0,100,1,1
66928,-50,4,1,0,100,0,1
66969,331.491712707182,4,1,0,100,1,0
67011,331.491712707182,4,1,0,100,1,1
67011,-50,4,1,0,100,0,1
67052,331.491712707182,4,1,0,100,1,0
67094,331.491712707182,4,1,0,100,1,1
67094,-50,4,1,0,100,0,1
67135,331.491712707182,4,1,0,100,1,0
67177,331.491712707182,4,1,0,100,1,1
67177,-50,4,1,0,100,0,1
67218,331.491712707182,4,1,0,100,1,0
67260,331.491712707182,4,1,0,100,1,1
67260,-50,4,1,0,100,0,1
67301,331.491712707182,4,1,0,100,1,0
67343,331.491712707182,4,1,0,100,1,1
67343,-50,4,1,0,100,0,1
67384,331.491712707182,4,1,0,100,1,0
67426,331.491712707182,4,1,0,100,1,1
67426,-50,4,1,0,100,0,1
67467,331.491712707182,4,1,0,100,1,0
67508,331.491712707182,4,1,0,100,1,1
67508,-50,4,1,0,100,0,1
67549,331.491712707182,4,1,0,100,1,0
67591,331.491712707182,4,1,0,100,1,1
67591,-50,4,1,0,100,0,1
67632,331.491712707182,4,1,0,100,1,0
67674,331.491712707182,4,1,0,100,1,1
67674,-50,4,1,0,100,0,1
67715,331.491712707182,4,1,0,100,1,0
67757,331.491712707182,4,1,0,100,1,1
67757,-50,4,1,0,100,0,1
67798,331.491712707182,4,1,0,100,1,0
67840,331.491712707182,4,1,0,100,1,1
67840,-50,4,1,0,100,0,1
67881,331.491712707182,4,1,0,100,1,0
67923,331.491712707182,4,1,0,100,1,1
67923,-50,4,1,0,100,0,1
67964,331.491712707182,4,1,0,100,1,0
68006,331.491712707182,4,1,0,100,1,1
68006,-50,4,1,0,100,0,1
68047,331.491712707182,4,1,0,100,1,0
68089,331.491712707182,4,1,0,100,1,1
68089,-50,4,1,0,100,0,1
68130,331.491712707182,4,1,0,100,1,0
68130,-50,4,1,3,100,0,0
68171,331.491712707182,4,1,3,100,1,1
68171,-25,4,1,3,100,0,1
68191,331.491712707182,4,1,3,100,1,0
68191,-25,4,1,3,100,0,1
68211,331.491712707182,4,1,3,100,1,1
68231,331.491712707182,4,1,3,100,1,0
68231,-25,4,1,3,100,0,1
68251,331.491712707182,4,1,3,100,1,1
68271,331.491712707182,4,1,3,100,1,0
68271,-25,4,1,3,100,0,1
68291,331.491712707182,4,1,3,100,1,1
68311,331.491712707182,4,1,3,100,1,0
68311,-25,4,1,3,100,0,1
68331,331.491712707182,4,1,3,100,1,1
68351,331.491712707182,4,1,3,100,1,0
68351,-25,4,1,3,100,0,1
68371,331.491712707182,4,1,3,100,1,1
68391,331.491712707182,4,1,3,100,1,0
68391,-25,4,1,3,100,0,1
68411,331.491712707182,4,1,3,100,1,1
68431,331.491712707182,4,1,3,100,1,0
68431,-25,4,1,3,100,0,1
68451,331.491712707182,4,1,3,100,1,1
68471,331.491712707182,4,1,3,100,1,0
68471,-25,4,1,3,100,0,1
68491,331.491712707182,4,1,3,100,1,1
68503,331.491712707182,4,1,3,100,1,1
68503,-25,4,1,3,100,0,1
68523,331.491712707182,4,1,3,100,1,0
68523,-25,4,1,3,100,0,1
68543,331.491712707182,4,1,3,100,1,1
68544,331.491712707182,4,1,3,100,1,0
68544,-25,4,1,3,100,0,1
68564,331.491712707182,4,1,3,100,1,1
68585,331.491712707182,4,1,3,100,1,0
68585,-25,4,1,3,100,0,1
68605,331.491712707182,4,1,3,100,1,1
68627,331.491712707182,4,1,3,100,1,0
68627,-25,4,1,3,100,0,1
68647,331.491712707182,4,1,3,100,1,1
68668,331.491712707182,4,1,3,100,1,0
68668,-25,4,1,3,100,0,1
68688,331.491712707182,4,1,3,100,1,1
68710,331.491712707182,4,1,3,100,1,0
68710,-25,4,1,3,100,0,1
68730,331.491712707182,4,1,3,100,1,1
68751,331.491712707182,4,1,3,100,1,0
68751,-25,4,1,3,100,0,1
68771,331.491712707182,4,1,3,100,1,1
68793,331.491712707182,4,1,3,100,1,0
68793,-25,4,1,3,100,0,1
68813,331.491712707182,4,1,3,100,1,1
68834,331.491712707182,4,1,3,100,1,1
68834,-25,4,1,3,100,0,1
68854,331.491712707182,4,1,3,100,1,0
68854,-25,4,1,3,100,0,1
68874,331.491712707182,4,1,3,100,1,1
68894,331.491712707182,4,1,3,100,1,0
68894,-25,4,1,3,100,0,1
68914,331.491712707182,4,1,3,100,1,1
68934,331.491712707182,4,1,3,100,1,0
68934,-25,4,1,3,100,0,1
68954,331.491712707182,4,1,3,100,1,1
68974,331.491712707182,4,1,3,100,1,0
68974,-25,4,1,3,100,0,1
68994,331.491712707182,4,1,3,100,1,1
69014,331.491712707182,4,1,3,100,1,0
69014,-25,4,1,3,100,0,1
69034,331.491712707182,4,1,3,100,1,1
69054,331.491712707182,4,1,3,100,1,0
69054,-25,4,1,3,100,0,1
69074,331.491712707182,4,1,3,100,1,1
69094,331.491712707182,4,1,3,100,1,0
69094,-25,4,1,3,100,0,1
69114,331.491712707182,4,1,3,100,1,1
69134,331.491712707182,4,1,3,100,1,0
69134,-25,4,1,3,100,0,1
69154,331.491712707182,4,1,3,100,1,1
69166,331.491712707182,4,1,3,100,1,1
69166,-25,4,1,3,100,0,1
69186,331.491712707182,4,1,3,100,1,0
69186,-25,4,1,3,100,0,1
69206,331.491712707182,4,1,3,100,1,1
69226,331.491712707182,4,1,3,100,1,0
69226,-25,4,1,3,100,0,1
69246,331.491712707182,4,1,3,100,1,1
69266,331.491712707182,4,1,3,100,1,0
69266,-25,4,1,3,100,0,1
69286,331.491712707182,4,1,3,100,1,1
69306,331.491712707182,4,1,3,100,1,0
69306,-25,4,1,3,100,0,1
69326,331.491712707182,4,1,3,100,1,1
69346,331.491712707182,4,1,3,100,1,0
69346,-25,4,1,3,100,0,1
69366,331.491712707182,4,1,3,100,1,1
69386,331.491712707182,4,1,3,100,1,0
69386,-25,4,1,3,100,0,1
69406,331.491712707182,4,1,3,100,1,1
69426,331.491712707182,4,1,3,100,1,0
69426,-25,4,1,3,100,0,1
69446,331.491712707182,4,1,3,100,1,1
69466,331.491712707182,4,1,3,100,1,0
69466,-25,4,1,3,100,0,1
69486,331.491712707182,4,1,3,100,1,1
69497,331.491712707182,4,1,3,100,1,0
69497,331.491712707182,4,1,3,100,1,0
69497,-1,4,1,3,100,0,0
69746,331.491712707182,4,1,2,50,1,0
69746,-100,4,1,2,50,0,0
70823,-20,4,1,0,10,0,1
71238,-200,4,1,0,10,0,0
71652,331.491712707182,4,1,0,70,1,1
71652,-125,4,1,0,70,0,1
71735,331.491712707182,4,1,0,10,1,1
71735,-200,4,1,0,10,0,1
71818,331.491712707182,4,1,0,70,1,1
71818,-111.111111111111,4,1,0,70,0,1
71901,331.491712707182,4,1,0,10,1,1
71901,-200,4,1,0,10,0,1
71983,331.491712707182,4,1,0,70,1,1
71983,-100,4,1,0,70,0,1
72066,331.491712707182,4,1,0,10,1,1
72066,-500,4,1,3,10,0,1
72149,331.491712707182,4,1,3,100,1,1
72149,-50,4,1,3,100,0,1
72314,-83.3333333333333,4,1,2,100,0,1
72791,-100,4,1,3,100,0,0
72800,331.491712707182,4,1,3,100,1,1
72802,331.491712707182,4,1,3,100,1,1
72804,331.491712707182,4,1,3,100,1,1
72806,331.491712707182,4,1,3,100,1,1
72808,331.491712707182,4,1,3,100,1,1
72810,331.491712707182,4,1,3,100,1,1
72811,331.491712707182,4,1,3,100,1,1
72811,-1,4,1,3,100,0,1
72813,331.491712707182,4,1,3,100,1,1
72815,331.491712707182,4,1,3,100,1,1
72817,331.491712707182,4,1,3,100,1,1
72819,331.491712707182,4,1,3,100,1,1
72970,331.491712707182,4,1,3,100,1,1
72972,331.491712707182,4,1,3,100,1,1
72974,331.491712707182,4,1,3,100,1,1
72976,331.491712707182,4,1,3,100,1,1
72977,331.491712707182,4,1,3,100,1,1
72977,-1,4,1,3,100,0,1
73132,331.491712707182,4,1,3,100,1,1
73134,331.491712707182,4,1,3,100,1,1
73136,331.491712707182,4,1,3,100,1,1
73138,331.491712707182,4,1,3,100,1,1
73140,331.491712707182,4,1,3,100,1,1
73142,331.491712707182,4,1,3,100,1,1
73143,331.491712707182,4,1,3,100,1,1
73143,-1,4,1,3,100,0,1
73145,331.491712707182,4,1,3,100,1,1
73147,331.491712707182,4,1,3,100,1,1
73149,331.491712707182,4,1,3,100,1,1
73151,331.491712707182,4,1,3,100,1,1
73302,331.491712707182,4,1,3,100,1,1
73304,331.491712707182,4,1,3,100,1,1
73306,331.491712707182,4,1,3,100,1,1
73308,331.491712707182,4,1,3,100,1,1
73309,331.491712707182,4,1,3,100,1,1
73309,-1,4,1,3,100,0,1
73474,331.491712707182,4,1,2,100,1,1
73474,-83.3333333333333,4,1,2,100,0,1
74096,-40,4,1,3,100,0,1
74303,331.491712707182,4,1,2,100,1,1
74303,-83.3333333333333,4,1,2,100,0,1
74759,-66.6666666666667,4,1,3,100,0,1
74800,331.491712707182,4,1,3,100,1,1
74800,-50,4,1,3,100,0,1
74966,331.491712707182,4,1,2,100,1,1
74966,-83.3333333333333,4,1,2,100,0,1
75451,331.491712707182,4,1,3,100,1,1
75453,331.491712707182,4,1,3,100,1,1
75455,331.491712707182,4,1,3,100,1,1
75457,331.491712707182,4,1,3,100,1,1
75459,331.491712707182,4,1,3,100,1,1
75461,331.491712707182,4,1,3,100,1,1
75462,331.491712707182,4,1,3,100,1,1
75462,-1,4,1,3,100,0,1
75464,331.491712707182,4,1,3,100,1,1
75466,331.491712707182,4,1,3,100,1,1
75468,331.491712707182,4,1,3,100,1,1
75470,331.491712707182,4,1,3,100,1,1
75619,331.491712707182,4,1,3,100,1,1
75621,331.491712707182,4,1,3,100,1,1
75623,331.491712707182,4,1,3,100,1,1
75625,331.491712707182,4,1,3,100,1,1
75627,331.491712707182,4,1,3,100,1,1
75628,331.491712707182,4,1,3,100,1,1
75628,-1,4,1,3,100,0,1
75630,331.491712707182,4,1,3,100,1,1
75632,331.491712707182,4,1,3,100,1,1
75634,331.491712707182,4,1,3,100,1,1
75636,331.491712707182,4,1,3,100,1,1
75787,331.491712707182,4,1,3,100,1,1
75789,331.491712707182,4,1,3,100,1,1
75791,331.491712707182,4,1,3,100,1,1
75793,331.491712707182,4,1,3,100,1,1
75794,331.491712707182,4,1,3,100,1,1
75794,-1,4,1,3,100,0,1
75949,331.491712707182,4,1,3,100,1,1
75951,331.491712707182,4,1,3,100,1,1
75953,331.491712707182,4,1,3,100,1,1
75955,331.491712707182,4,1,3,100,1,1
75957,331.491712707182,4,1,3,100,1,1
75959,331.491712707182,4,1,3,100,1,1
75960,331.491712707182,4,1,3,100,1,1
75960,-1,4,1,3,100,0,1
75962,331.491712707182,4,1,3,100,1,1
75964,331.491712707182,4,1,3,100,1,1
75966,331.491712707182,4,1,3,100,1,1
75968,331.491712707182,4,1,3,100,1,1
76126,331.491712707182,4,1,2,100,1,1
76126,-83.3333333333333,4,1,2,100,0,1
76726,-83.3333333333333,4,1,3,100,0,1
76788,331.491712707182,4,1,3,100,1,1
76788,-50,4,1,3,100,0,1
76844,331.491712707182,4,1,3,100,1,1
76844,-52.6315789473684,4,1,3,100,0,1
76899,331.491712707182,4,1,3,100,1,1
76899,-55.5555555555556,4,1,3,100,0,1
76954,331.491712707182,4,1,3,100,1,1
76954,-58.8235294117647,4,1,3,100,0,1
77009,331.491712707182,4,1,3,100,1,1
77009,-62.5,4,1,3,100,0,1
77065,331.491712707182,4,1,3,100,1,1
77065,-66.6666666666667,4,1,3,100,0,1
77121,331.491712707182,4,1,0,100,1,1
77121,-71.4285714285714,4,1,0,100,0,1
77286,-76.9230769230769,4,1,2,100,0,1
77369,-66.6666666666667,4,1,3,100,0,1
77452,331.491712707182,4,1,3,100,1,1
77452,-66.6666666666667,4,1,3,100,0,1
77618,331.491712707182,4,1,2,100,1,1
77618,-83.3333333333333,4,1,2,100,0,1
78103,331.491712707182,4,1,3,100,1,1
78105,331.491712707182,4,1,3,100,1,1
78107,331.491712707182,4,1,3,100,1,1
78109,331.491712707182,4,1,3,100,1,1
78111,331.491712707182,4,1,3,100,1,1
78113,331.491712707182,4,1,3,100,1,1
78114,331.491712707182,4,1,3,100,1,1
78114,-1,4,1,3,100,0,1
78116,331.491712707182,4,1,3,100,1,1
78118,331.491712707182,4,1,3,100,1,1
78120,331.491712707182,4,1,3,100,1,1
78122,331.491712707182,4,1,3,100,1,1
78273,331.491712707182,4,1,3,100,1,1
78275,331.491712707182,4,1,3,100,1,1
78277,331.491712707182,4,1,3,100,1,1
78279,331.491712707182,4,1,3,100,1,1
78280,331.491712707182,4,1,3,100,1,1
78280,-1,4,1,3,100,0,1
78435,331.491712707182,4,1,3,100,1,1
78437,331.491712707182,4,1,3,100,1,1
78439,331.491712707182,4,1,3,100,1,1
78441,331.491712707182,4,1,3,100,1,1
78443,331.491712707182,4,1,3,100,1,1
78445,331.491712707182,4,1,3,100,1,1
78446,331.491712707182,4,1,3,100,1,1
78446,-1,4,1,3,100,0,1
78448,331.491712707182,4,1,3,100,1,1
78450,331.491712707182,4,1,3,100,1,1
78452,331.491712707182,4,1,3,100,1,1
78454,331.491712707182,4,1,3,100,1,1
78605,331.491712707182,4,1,3,100,1,1
78607,331.491712707182,4,1,3,100,1,1
78609,331.491712707182,4,1,3,100,1,1
78611,331.491712707182,4,1,3,100,1,1
78612,331.491712707182,4,1,3,100,1,1
78612,-1,4,1,3,100,0,1
78736,-83.3333333333333,4,1,3,100,0,1
78778,331.491712707182,4,1,3,100,1,1
78778,-66.6666666666667,4,1,3,100,0,1
78944,331.491712707182,4,1,2,100,1,1
78944,-83.3333333333333,4,1,2,100,0,1
79399,-50,4,1,3,100,0,1
79607,-83.3333333333333,4,1,2,100,0,1
79731,-83.3333333333333,4,1,3,5,0,1
79772,331.491712707182,4,1,3,5,1,0
79772,-83.3333333333333,4,1,3,5,0,0
79792,331.491712707182,4,1,3,5,1,0
79792,-0.0001,4,1,3,5,0,0
80104,331.491712707182,4,1,3,100,1,1
80104,-66.6666666666667,4,1,3,100,0,1
80228,-83.3333333333333,4,1,2,100,0,1
80755,331.491712707182,4,1,3,100,1,1
80757,331.491712707182,4,1,3,100,1,1
80759,331.491712707182,4,1,3,100,1,1
80761,331.491712707182,4,1,3,100,1,1
80763,331.491712707182,4,1,3,100,1,1
80765,331.491712707182,4,1,3,100,1,1
80766,331.491712707182,4,1,3,100,1,1
80766,-1,4,1,3,100,0,1
80768,331.491712707182,4,1,3,100,1,1
80770,331.491712707182,4,1,3,100,1,1
80772,331.491712707182,4,1,3,100,1,1
80774,331.491712707182,4,1,3,100,1,1
80933,331.491712707182,4,1,2,100,1,1
80933,-83.3333333333333,4,1,2,100,0,1
81087,331.491712707182,4,1,3,100,1,1
81089,331.491712707182,4,1,3,100,1,1
81091,331.491712707182,4,1,3,100,1,1
81093,331.491712707182,4,1,3,100,1,1
81095,331.491712707182,4,1,3,100,1,1
81097,331.491712707182,4,1,3,100,1,1
81098,331.491712707182,4,1,3,100,1,1
81098,-1,4,1,3,100,0,1
81100,331.491712707182,4,1,3,100,1,1
81102,331.491712707182,4,1,3,100,1,1
81104,331.491712707182,4,1,3,100,1,1
81106,331.491712707182,4,1,3,100,1,1
81265,331.491712707182,4,1,2,100,1,1
81265,-76.9230769230769,4,1,2,100,0,1
81410,-100,4,1,3,100,0,0
81423,331.491712707182,4,1,3,100,1,1
81425,331.491712707182,4,1,3,100,1,1
81427,331.491712707182,4,1,3,100,1,1
81428,331.491712707182,4,1,3,100,1,1
81429,331.491712707182,4,1,3,100,1,1
81429,-1,4,1,3,100,0,1
81596,331.491712707182,4,1,2,100,1,1
81596,-71.4285714285714,4,1,2,100,0,1
81750,331.491712707182,4,1,3,100,1,1
81752,331.491712707182,4,1,3,100,1,1
81754,331.491712707182,4,1,3,100,1,1
81756,331.491712707182,4,1,3,100,1,1
81758,331.491712707182,4,1,3,100,1,1
81760,331.491712707182,4,1,3,100,1,1
81761,331.491712707182,4,1,3,100,1,1
81761,-1,4,1,3,100,0,1
81763,331.491712707182,4,1,3,100,1,1
81765,331.491712707182,4,1,3,100,1,1
81767,331.491712707182,4,1,3,100,1,1
81769,331.491712707182,4,1,3,100,1,1
81928,331.491712707182,4,1,2,100,1,1
81928,-83.3333333333333,4,1,2,100,0,1
82093,331.491712707182,4,1,2,100,1,1
82093,331.491712707182,4,1,2,100,1,1
82093,-83.3333333333333,4,1,2,100,0,1
82094,0.06323864049,4,1,2,100,1,1
82094,-0.0001,4,1,2,100,0,1
82096,331.491712707182,4,1,2,100,1,1
82113,331.491712707182,4,1,3,100,1,1
82113,-25,4,1,3,100,0,1
82133,331.491712707182,4,1,3,100,1,1
82153,331.491712707182,4,1,3,100,1,0
82153,-25,4,1,3,100,0,1
82173,331.491712707182,4,1,3,100,1,1
82193,331.491712707182,4,1,3,100,1,0
82193,-25,4,1,3,100,0,1
82213,331.491712707182,4,1,3,100,1,1
82233,331.491712707182,4,1,3,100,1,0
82233,-25,4,1,3,100,0,1
82253,331.491712707182,4,1,3,100,1,1
82273,331.491712707182,4,1,3,100,1,0
82273,-25,4,1,3,100,0,1
82293,331.491712707182,4,1,3,100,1,1
82313,331.491712707182,4,1,3,100,1,0
82313,-25,4,1,3,100,0,1
82333,331.491712707182,4,1,3,100,1,1
82353,331.491712707182,4,1,3,100,1,0
82353,-25,4,1,3,100,0,1
82373,331.491712707182,4,1,3,100,1,1
82393,331.491712707182,4,1,3,100,1,0
82393,-25,4,1,3,100,0,1
82413,331.491712707182,4,1,3,100,1,1
82415,331.491712707182,4,1,1,100,1,1
82417,331.491712707182,4,1,1,100,1,1
82419,331.491712707182,4,1,1,100,1,1
82421,331.491712707182,4,1,1,100,1,1
82423,331.491712707182,4,1,1,100,1,1
82424,331.491712707182,4,1,1,100,1,1
82425,0.06323864049,4,1,1,100,1,1
82425,-0.0001,4,1,1,100,0,1
82427,331.491712707182,4,1,1,100,1,1
82429,331.491712707182,4,1,1,100,1,1
82431,331.491712707182,4,1,1,100,1,1
82433,331.491712707182,4,1,1,100,1,1
82757,2651.93370165746,4,1,3,100,1,1
82757,-0.66666666666,4,1,3,100,0,1
82777,331.491712707182,4,1,3,100,1,1
82777,-0.0001,4,1,3,100,0,1
82818,2651.93370165746,4,1,3,100,1,1
82818,-0.0001,4,1,3,100,0,1
82819,-0.66666666666,4,1,3,100,0,1
83419,2651.93370165746,4,1,3,100,1,1
83419,-0.66666666666,4,1,3,100,0,1
83440,331.491712707182,4,1,3,100,1,1
83440,-0.0001,4,1,3,100,0,1
83481,2651.93370165746,4,1,3,100,1,1
83481,-0.0001,4,1,3,100,0,1
83482,-0.66666666666,4,1,3,100,0,1
84082,2651.93370165746,4,1,3,100,1,1
84082,-0.66666666666,4,1,3,100,0,1
84103,331.491712707182,4,1,3,100,1,1
84103,-0.0001,4,1,3,100,0,1
84144,2651.93370165746,4,1,3,100,1,1
84144,-0.0001,4,1,3,100,0,1
84145,-0.66666666666,4,1,3,100,0,1
84745,2651.93370165746,4,1,3,100,1,1
84745,-0.66666666666,4,1,3,100,0,1
84766,331.491712707182,4,1,3,100,1,1
84766,-0.0001,4,1,3,100,0,1
84807,2651.93370165746,4,1,3,100,1,1
84807,-0.0001,4,1,3,100,0,1
84808,-0.66666666666,4,1,3,100,0,1
85408,2651.93370165746,4,1,3,100,1,1
85408,-0.66666666666,4,1,3,100,0,1
85429,331.491712707182,4,1,3,100,1,1
85429,-0.0001,4,1,3,100,0,1
85470,2651.93370165746,4,1,3,100,1,1
85470,-0.0001,4,1,3,100,0,1
85471,-0.66666666666,4,1,3,100,0,1
86071,2651.93370165746,4,1,3,100,1,1
86071,-0.66666666666,4,1,3,100,0,1
86092,331.491712707182,4,1,3,100,1,1
86092,-0.0001,4,1,3,100,0,1
86133,2651.93370165746,4,1,3,100,1,1
86133,-0.0001,4,1,3,100,0,1
86134,-0.66666666666,4,1,3,100,0,1
86734,2651.93370165746,4,1,3,100,1,1
86734,-0.66666666666,4,1,3,100,0,1
86755,331.491712707182,4,1,3,100,1,1
86755,-0.0001,4,1,3,100,0,1
86796,2651.93370165746,4,1,3,100,1,1
86796,-0.0001,4,1,3,100,0,1
86797,-0.66666666666,4,1,3,100,0,1
87397,2651.93370165746,4,1,3,100,1,1
87397,-0.66666666666,4,1,3,100,0,1
87418,331.491712707182,4,1,3,100,1,1
87418,-0.0001,4,1,3,100,0,1
87459,2651.93370165746,4,1,3,100,1,1
87459,-0.0001,4,1,3,100,0,1
87460,-0.66666666666,4,1,3,100,0,1
88061,2651.93370165746,4,1,3,100,1,1
88061,-0.66666666666,4,1,3,100,0,1
88081,331.491712707182,4,1,3,100,1,1
88081,-0.0001,4,1,3,100,0,1
88122,2651.93370165746,4,1,3,100,1,1
88122,-0.0001,4,1,3,100,0,1
88123,-0.66666666666,4,1,3,100,0,1
88723,2651.93370165746,4,1,3,100,1,1
88723,-0.66666666666,4,1,3,100,0,1
88744,331.491712707182,4,1,3,100,1,1
88744,-0.0001,4,1,3,100,0,1
88785,2651.93370165746,4,1,3,100,1,1
88785,-0.0001,4,1,3,100,0,1
88786,-0.66666666666,4,1,3,100,0,1
89386,2651.93370165746,4,1,3,100,1,1
89386,-0.66666666666,4,1,3,100,0,1
89407,331.491712707182,4,1,3,100,1,1
89407,-0.0001,4,1,3,100,0,1
89448,2651.93370165746,4,1,3,100,1,1
89448,-0.0001,4,1,3,100,0,1
89449,-0.66666666666,4,1,3,100,0,1
90049,2651.93370165746,4,1,3,100,1,1
90049,-0.66666666666,4,1,3,100,0,1
90070,331.491712707182,4,1,3,100,1,1
90070,-0.0001,4,1,3,100,0,1
90111,2651.93370165746,4,1,3,100,1,1
90111,-0.0001,4,1,3,100,0,1
90112,-0.66666666666,4,1,3,100,0,1
90712,2651.93370165746,4,1,3,100,1,1
90712,-0.66666666666,4,1,3,100,0,1
90733,331.491712707182,4,1,3,100,1,1
90733,-0.0001,4,1,3,100,0,1
90774,2651.93370165746,4,1,3,100,1,1
90774,-0.0001,4,1,3,100,0,1
90775,-0.66666666666,4,1,3,100,0,1
91375,2651.93370165746,4,1,3,100,1,1
91375,-0.66666666666,4,1,3,100,0,1
91396,331.491712707182,4,1,3,100,1,1
91396,-0.0001,4,1,3,100,0,1
91437,2651.93370165746,4,1,3,100,1,1
91437,-0.0001,4,1,3,100,0,1
91438,-0.66666666666,4,1,3,100,0,1
92038,2651.93370165746,4,1,3,100,1,1
92038,-0.66666666666,4,1,3,100,0,1
92059,331.491712707182,4,1,3,100,1,1
92059,-0.0001,4,1,3,100,0,1
92100,2651.93370165746,4,1,3,100,1,1
92100,-0.0001,4,1,3,100,0,1
92101,-0.66666666666,4,1,3,100,0,1
92701,2651.93370165746,4,1,3,100,1,1
92701,-0.66666666666,4,1,3,100,0,1
92722,331.491712707182,4,1,3,100,1,1
92722,-0.0001,4,1,3,100,0,1
92742,331.491712707182,4,1,3,100,1,0
92742,-25,4,1,3,100,0,1
92762,331.491712707182,4,1,3,100,1,1
92782,331.491712707182,4,1,3,100,1,0
92782,-25,4,1,3,100,0,1
92802,331.491712707182,4,1,3,100,1,1
92822,331.491712707182,4,1,3,100,1,0
92822,-25,4,1,3,100,0,1
92842,331.491712707182,4,1,3,100,1,1
92862,331.491712707182,4,1,3,100,1,0
92862,-25,4,1,3,100,0,1
92882,331.491712707182,4,1,3,100,1,1
92902,331.491712707182,4,1,3,100,1,0
92902,-25,4,1,3,100,0,1
92922,331.491712707182,4,1,3,100,1,1
92942,331.491712707182,4,1,3,100,1,0
92942,-25,4,1,3,100,0,1
92962,331.491712707182,4,1,3,100,1,1
92982,331.491712707182,4,1,3,100,1,0
92982,-25,4,1,3,100,0,1
93002,331.491712707182,4,1,3,100,1,1
93022,331.491712707182,4,1,3,100,1,0
93022,331.491712707182,4,1,3,100,1,1
93022,-25,4,1,3,100,0,1
93024,331.491712707182,4,1,3,100,1,1
93026,331.491712707182,4,1,3,100,1,1
93028,331.491712707182,4,1,3,100,1,1
93030,331.491712707182,4,1,3,100,1,1
93032,331.491712707182,4,1,3,100,1,1
93033,331.491712707182,4,1,3,100,1,1
93033,-0.1,4,1,3,100,0,1
93035,331.491712707182,4,1,3,100,1,1
93037,331.491712707182,4,1,3,100,1,1
93039,331.491712707182,4,1,3,100,1,1
93041,331.491712707182,4,1,3,100,1,1
93042,331.491712707182,4,1,3,100,1,1
93062,331.491712707182,4,1,3,100,1,0
93062,-25,4,1,3,100,0,1
93082,331.491712707182,4,1,3,100,1,1
93102,331.491712707182,4,1,3,100,1,0
93102,-25,4,1,3,100,0,1
93122,331.491712707182,4,1,3,100,1,1
93142,331.491712707182,4,1,3,100,1,0
93142,-25,4,1,3,100,0,1
93162,331.491712707182,4,1,3,100,1,1
93182,331.491712707182,4,1,3,100,1,0
93182,-25,4,1,3,100,0,1
93202,331.491712707182,4,1,3,100,1,1
93222,331.491712707182,4,1,3,100,1,0
93222,-25,4,1,3,100,0,1
93242,331.491712707182,4,1,3,100,1,1
93262,331.491712707182,4,1,3,100,1,0
93262,-25,4,1,3,100,0,1
93282,331.491712707182,4,1,3,100,1,1
93302,331.491712707182,4,1,3,100,1,0
93302,-25,4,1,3,100,0,1
93322,331.491712707182,4,1,3,100,1,1
93342,331.491712707182,4,1,3,100,1,0
93342,-25,4,1,3,100,0,1
93358,331.491712707182,4,1,3,100,1,1
93360,331.491712707182,4,1,3,100,1,1
93362,331.491712707182,4,1,3,100,1,1
93362,331.491712707182,4,1,3,100,1,1
93364,331.491712707182,4,1,3,100,1,1
93365,331.491712707182,4,1,3,100,1,1
93365,-0.0001,4,1,3,100,0,1

[HitObjects]
256,192,548,5,4,0:0:0:0:
256,192,715,1,4,0:0:0:0:
256,192,879,5,12,0:0:0:0:
96,96,880,2,12,L|544:96,1,-1
96,96,880,2,12,L|544:96,1,-1
96,96,880,2,12,L|544:96,1,-1
256,192,1210,1,4,0:0:0:0:
256,192,1293,1,4,0:0:0:0:
256,192,1376,1,4,0:0:0:0:
256,192,1542,5,12,0:0:0:0:
96,96,1543,2,12,L|544:96,1,-1
96,96,1543,2,12,L|544:96,1,-1
96,96,1543,2,12,L|544:96,1,-1
256,192,1873,5,12,0:0:0:0:
96,96,1874,2,12,L|544:96,1,-1
256,192,1956,1,4,0:0:0:0:
256,192,2039,1,4,0:0:0:0:
256,192,2122,1,4,0:0:0:0:
256,192,2204,5,12,0:0:0:0:
96,96,2205,2,12,L|544:96,1,-1
256,192,2288,1,4,0:0:0:0:
256,192,2371,1,4,0:0:0:0:
256,192,2454,1,4,0:0:0:0:
256,192,2536,12,0,2868,0:0:0:0:
256,192,2868,5,12,0:0:0:0:
96,96,2869,2,12,L|544:96,1,-1
96,96,2869,2,12,L|544:96,1,-1
96,96,2869,2,12,L|544:96,1,-1
256,192,3199,1,4,0:0:0:0:
256,192,4028,1,4,0:0:0:0:
256,192,4525,1,4,0:0:0:0:
256,192,5188,1,4,0:0:0:0:
256,192,5354,1,4,0:0:0:0:
256,192,5520,1,4,0:0:0:0:
256,192,5603,1,4,0:0:0:0:
256,192,5686,1,4,0:0:0:0:
256,192,5768,1,4,0:0:0:0:
256,192,5851,1,4,0:0:0:0:
256,192,6679,1,4,0:0:0:0:
256,192,7177,1,4,0:0:0:0:
256,192,7343,1,8,0:0:0:0:
256,192,7509,1,12,0:0:0:0:
256,192,7675,1,0,0:0:0:0:
256,192,7840,1,8,0:0:0:0:
256,192,7951,1,8,0:0:0:0:
256,192,8061,1,8,0:0:0:0:
256,192,8172,1,12,0:0:0:0:
256,192,8255,1,8,0:0:0:0:
256,192,8338,1,0,0:0:0:0:
256,192,8420,1,0,0:0:0:0:
256,192,8503,1,12,0:0:0:0:
256,192,8669,1,8,0:0:0:0:
256,192,8835,1,12,0:0:0:0:
256,192,9001,1,0,0:0:0:0:
256,192,9166,1,4,0:0:0:0:
256,192,9331,1,0,0:0:0:0:
256,192,9415,1,0,0:0:0:0:
256,192,9498,1,12,0:0:0:0:
256,192,9664,1,8,0:0:0:0:
256,192,9746,1,8,0:0:0:0:
256,192,9829,1,4,0:0:0:0:
256,192,9994,1,0,0:0:0:0:
256,192,10078,1,0,0:0:0:0:
256,192,10161,1,12,0:0:0:0:
256,192,10327,1,8,0:0:0:0:
256,192,10409,1,8,0:0:0:0:
256,192,10492,1,4,0:0:0:0:
256,192,10657,1,8,0:0:0:0:
256,192,10741,1,0,0:0:0:0:
256,192,10824,1,12,0:0:0:0:
256,192,10989,1,0,0:0:0:0:
256,192,11072,1,8,0:0:0:0:
256,192,11155,1,4,0:0:0:0:
256,192,11321,1,0,0:0:0:0:
256,192,11487,1,12,0:0:0:0:
256,192,11652,1,8,0:0:0:0:
256,192,11818,1,4,0:0:0:0:
256,192,11984,1,4,0:0:0:0:
256,192,12150,1,12,0:0:0:0:
256,192,12233,1,0,0:0:0:0:
256,192,12315,1,0,0:0:0:0:
256,192,12398,1,0,0:0:0:0:
256,192,12481,1,0,0:0:0:0:
256,192,12564,1,0,0:0:0:0:
256,192,12730,1,0,0:0:0:0:
256,192,12896,1,0,0:0:0:0:
256,192,12978,1,8,0:0:0:0:
256,192,13144,1,8,0:0:0:0:
256,192,13227,1,0,0:0:0:0:
256,192,13393,1,8,0:0:0:0:
256,192,13559,1,8,0:0:0:0:
256,192,13641,1,8,0:0:0:0:
256,192,13807,1,4,0:0:0:0:
256,192,14139,1,4,0:0:0:0:
256,192,14470,1,8,0:0:0:0:
256,192,14553,1,8,0:0:0:0:
256,192,14636,1,0,0:0:0:0:
256,192,14719,1,0,0:0:0:0:
256,192,14801,5,12,0:0:0:0:
96,96,14802,2,12,L|544:96,1,-1
96,96,14802,2,12,L|544:96,1,-1
96,96,14802,2,12,L|544:96,1,-1
96,96,14802,2,12,L|544:96,1,-500
256,192,15132,5,12,0:0:0:0:
96,96,15133,2,12,L|544:96,1,-1
96,96,15133,2,12,L|544:96,1,-1
96,96,15133,2,12,L|544:96,1,-1
256,192,16458,5,0,0:0:0:0:
6,96,16459,2,0,L|544:96,1,-1
6,96,16459,2,0,L|544:96,1,-1
256,192,17287,5,0,0:0:0:0:
6,96,17288,2,0,L|544:96,1,-1
6,96,17288,2,0,L|544:96,1,-1
256,192,17453,5,8,0:0:0:0:
6,96,17454,2,8,L|544:96,1,-1
6,96,17454,2,8,L|544:96,1,-1
256,192,17618,5,8,0:0:0:0:
6,96,17619,2,8,L|544:96,1,-1
6,96,17619,2,8,L|544:96,1,-1
256,192,17784,5,0,0:0:0:0:
6,96,17785,2,0,L|544:96,1,-1
6,96,17785,2,0,L|544:96,1,-1
256,192,19110,5,0,0:0:0:0:
6,96,19111,2,0,L|544:96,1,-1
6,96,19111,2,0,L|544:96,1,-1
256,192,20105,5,8,0:0:0:0:
6,96,20106,2,8,L|544:96,1,-1
6,96,20106,2,8,L|544:96,1,-1
256,192,20436,5,8,0:0:0:0:
6,96,20437,2,8,L|544:96,1,-1
6,96,20437,2,8,L|544:96,1,-1
256,192,22757,5,8,0:0:0:0:
6,96,22758,2,8,L|544:96,1,-1
6,96,22758,2,8,L|544:96,1,-1
256,192,23088,5,8,0:0:0:0:
6,96,23089,2,8,L|544:96,1,-1
6,96,23089,2,8,L|544:96,1,-1
256,192,24414,12,0,25408,0:0:0:0:
256,192,25408,5,12,0:0:0:0:
96,96,25409,2,12,L|544:96,1,-1
96,96,25409,2,12,L|544:96,1,-1
96,96,25409,2,12,L|544:96,1,-1
96,96,25409,2,12,L|544:96,1,-400
256,192,25740,1,4,0:0:0:0:
256,192,25905,1,0,0:0:0:0:
256,192,26071,1,8,0:0:0:0:
256,192,26237,1,0,0:0:0:0:
256,192,26320,1,0,0:0:0:0:
256,192,26402,1,0,0:0:0:0:
256,192,26485,1,8,0:0:0:0:
256,192,26568,1,0,0:0:0:0:
256,192,26651,1,0,0:0:0:0:
256,192,26734,1,8,0:0:0:0:
256,192,26900,1,0,0:0:0:0:
256,192,26983,1,8,0:0:0:0:
256,192,27065,1,0,0:0:0:0:
256,192,27231,1,0,0:0:0:0:
256,192,27397,1,8,0:0:0:0:
256,192,27563,1,0,0:0:0:0:
256,192,27728,1,0,0:0:0:0:
256,192,27811,1,8,0:0:0:0:
256,192,27894,1,0,0:0:0:0:
256,192,27977,1,0,0:0:0:0:
256,192,28060,1,8,0:0:0:0:
256,192,28226,1,8,0:0:0:0:
256,192,28391,1,4,0:0:0:0:
96,96,28412,2,8,L|544:96,1,-200
96,96,28412,2,8,L|544:96,1,-300
96,96,28412,2,8,L|544:96,1,-400
96,96,28412,2,8,L|544:96,1,-500
96,96,28412,2,8,L|544:96,1,-600
96,96,28412,2,8,L|544:96,1,-700
96,96,28412,2,8,L|544:96,1,-800
96,96,28412,2,8,L|544:96,1,-900
96,96,28412,2,8,L|544:96,1,-1000
256,192,28723,1,8,0:0:0:0:
256,192,28888,1,8,0:0:0:0:
256,192,28971,1,8,0:0:0:0:
256,192,29054,1,0,0:0:0:0:
256,192,29137,1,8,0:0:0:0:
256,192,29220,1,0,0:0:0:0:
256,192,29385,1,8,0:0:0:0:
256,192,29551,1,0,0:0:0:0:
256,192,29634,1,0,0:0:0:0:
256,192,29717,1,0,0:0:0:0:
256,192,29882,1,0,0:0:0:0:
256,192,30048,5,8,0:0:0:0:
6,96,30049,2,8,L|544:96,1,-1
6,96,30049,2,8,L|544:96,1,-1
256,192,30131,5,8,0:0:0:0:
6,96,30132,2,8,L|544:96,1,-1
6,96,30132,2,8,L|544:96,1,-1
256,192,30214,5,0,0:0:0:0:
6,96,30215,2,0,L|544:96,1,-1
6,96,30215,2,0,L|544:96,1,-1
256,192,30379,1,8,0:0:0:0:
256,192,30462,1,0,0:0:0:0:
256,192,30545,1,0,0:0:0:0:
256,192,30628,1,0,0:0:0:0:
256,192,30711,1,8,0:0:0:0:
256,192,30877,1,0,0:0:0:0:
256,192,31042,5,12,0:0:0:0:
96,96,31043,2,12,L|544:96,1,-1
96,96,31043,2,12,L|544:96,1,-1
96,96,31043,2,12,L|544:96,1,-1
256,192,31208,1,0,0:0:0:0:
256,192,31374,1,8,0:0:0:0:
256,192,31540,1,0,0:0:0:0:
256,192,31622,1,0,0:0:0:0:
256,192,31705,1,8,0:0:0:0:
256,192,31788,1,0,0:0:0:0:
256,192,31871,1,0,0:0:0:0:
256,192,32043,5,12,0:0:0:0:
96,96,32044,2,12,L|544:96,1,-1
96,96,32044,2,12,L|544:96,1,-1
96,96,32044,2,12,L|544:96,1,-1
256,192,32203,1,0,0:0:0:0:
256,192,32368,5,12,0:0:0:0:
96,96,32369,2,12,L|544:96,1,-1
96,96,32369,2,12,L|544:96,1,-1
96,96,32369,2,12,L|544:96,1,-1
256,192,32534,1,0,0:0:0:0:
256,192,32700,1,8,0:0:0:0:
256,192,32866,1,0,0:0:0:0:
256,192,32948,1,0,0:0:0:0:
256,192,33031,1,8,0:0:0:0:
256,192,33114,1,0,0:0:0:0:
256,192,33197,1,0,0:0:0:0:
256,192,33362,5,12,0:0:0:0:
96,96,33363,2,12,L|544:96,1,-1
96,96,33363,2,12,L|544:96,1,-1
96,96,33363,2,12,L|544:96,1,-1
256,192,33529,1,0,0:0:0:0:
256,192,33694,5,12,0:0:0:0:
96,96,33695,2,12,L|544:96,1,-1
96,96,33695,2,12,L|544:96,1,-1
96,96,33695,2,12,L|544:96,1,-1
256,192,33777,1,4,0:0:0:0:
256,192,33860,1,4,0:0:0:0:
256,192,33943,1,4,0:0:0:0:
256,192,34026,1,4,0:0:0:0:
256,192,34109,1,4,0:0:0:0:
256,192,34192,1,8,0:0:0:0:
256,192,34275,1,8,0:0:0:0:
256,192,34357,5,12,0:0:0:0:
96,96,34358,2,12,L|544:96,1,-1
96,96,34358,2,12,L|544:96,1,-1
96,96,34358,2,12,L|544:96,1,-1
256,192,34440,1,4,0:0:0:0:
256,192,34523,1,4,0:0:0:0:
256,192,34606,1,4,0:0:0:0:
256,192,34689,1,4,0:0:0:0:
256,192,34772,1,4,0:0:0:0:
256,192,34855,1,12,0:0:0:0:
256,192,34910,1,12,0:0:0:0:
256,192,34965,1,12,0:0:0:0:
256,192,35020,5,4,0:0:0:0:
96,96,35021,2,4,L|544:96,1,-1
96,96,35021,2,4,L|544:96,1,-1
96,96,35021,2,4,L|544:96,1,-1
256,192,35352,5,4,0:0:0:0:
96,96,35353,2,12,L|544:96,1,-1
96,96,35353,2,12,L|544:96,1,-1
96,96,35353,2,12,L|544:96,1,-1
256,192,35683,5,12,0:0:0:0:
96,96,35684,2,12,L|544:96,1,-1
96,96,35684,2,12,L|544:96,1,-1
96,96,35684,2,12,L|544:96,1,-1
256,192,36015,5,12,0:0:0:0:
96,96,36016,2,12,L|544:96,1,-1
96,96,36016,2,12,L|544:96,1,-1
96,96,36016,2,12,L|544:96,1,-1
256,192,36346,1,4,0:0:0:0:
256,192,36512,1,4,0:0:0:0:
96,96,36679,2,12,L|544:96,1,-1
96,96,36679,2,12,L|544:96,1,-1
96,96,36679,2,12,L|544:96,1,-1
256,192,37009,12,0,37341,0:0:0:0:
256,192,37092,12,0,37009,0:0:0:0:
256,192,37175,12,0,37009,0:0:0:0:
256,192,37258,12,0,37009,0:0:0:0:
256,192,37341,5,12,0:0:0:0:
96,96,37342,2,12,L|544:96,1,-1
96,96,37342,2,12,L|544:96,1,-1
96,96,37342,2,12,L|544:96,1,-1
256,192,37675,5,4,0:0:0:0:
256,192,37840,1,0,0:0:0:0:
256,192,37923,1,0,0:0:0:0:
256,192,38006,5,8,0:0:0:0:
6,96,38007,2,8,L|544:96,1,-1
6,96,38007,2,8,L|544:96,1,-1
256,192,38089,1,0,0:0:0:0:
256,192,38172,1,0,0:0:0:0:
256,192,38255,1,0,0:0:0:0:
256,192,38337,5,8,0:0:0:0:
6,96,38338,2,8,L|544:96,1,-1
6,96,38338,2,8,L|544:96,1,-1
256,192,38420,1,0,0:0:0:0:
256,192,38503,1,0,0:0:0:0:
256,192,38586,5,8,0:0:0:0:
6,96,38587,2,8,L|544:96,1,-1
6,96,38587,2,8,L|544:96,1,-1
256,192,38669,1,0,0:0:0:0:
256,192,38752,1,0,0:0:0:0:
256,192,38835,5,8,0:0:0:0:
6,96,38836,2,8,L|544:96,1,-1
6,96,38836,2,8,L|544:96,1,-1
256,192,38918,1,0,0:0:0:0:
256,192,39000,5,8,0:0:0:0:
6,96,39001,2,8,L|544:96,1,-1
6,96,39001,2,8,L|544:96,1,-1
256,192,39083,5,8,0:0:0:0:
6,96,39084,2,8,L|544:96,1,-1
6,96,39084,2,8,L|544:96,1,-1
256,192,39166,1,0,0:0:0:0:
256,192,39249,1,0,0:0:0:0:
256,192,39332,5,8,0:0:0:0:
6,96,39333,2,8,L|544:96,1,-1
6,96,39333,2,8,L|544:96,1,-1
256,192,39498,1,0,0:0:0:0:
256,192,39663,1,0,0:0:0:0:
256,192,39829,5,8,0:0:0:0:
96,96,39830,2,8,L|544:96,1,-1
96,96,39830,2,8,L|544:96,1,-1
6,96,39830,2,8,L|544:96,1,-1
6,96,39830,2,8,L|544:96,1,-400
256,192,39995,1,0,0:0:0:0:
256,192,40161,5,8,0:0:0:0:
96,96,40162,2,8,L|544:96,1,-1
96,96,40162,2,8,L|544:96,1,-500
6,96,40162,2,8,L|544:96,1,-1
6,96,40162,2,8,L|544:96,1,-1
256,192,40326,5,0,0:0:0:0:
6,96,40327,2,0,L|544:96,1,-1
6,96,40327,2,0,L|544:96,1,-1
256,192,40409,5,0,0:0:0:0:
6,96,40410,2,0,L|544:96,1,-1
6,96,40410,2,0,L|544:96,1,-1
256,192,40575,5,0,0:0:0:0:
6,96,40576,2,0,L|544:96,1,-1
6,96,40576,2,0,L|544:96,1,-1
256,192,40658,1,8,0:0:0:0:
256,192,40824,5,0,0:0:0:0:
6,96,40825,2,0,L|544:96,1,-1
6,96,40825,2,0,L|544:96,1,-1
256,192,40907,5,0,0:0:0:0:
6,96,40908,2,0,L|544:96,1,-1
6,96,40908,2,0,L|544:96,1,-1
256,192,40989,1,8,0:0:0:0:
256,192,41072,5,0,0:0:0:0:
6,96,41073,2,0,L|544:96,1,-1
6,96,41073,2,0,L|544:96,1,-1
256,192,41155,5,0,0:0:0:0:
6,96,41156,2,0,L|544:96,1,-1
6,96,41156,2,0,L|544:96,1,-1
256,192,41238,1,8,0:0:0:0:
256,192,41321,5,0,0:0:0:0:
6,96,41322,2,0,L|544:96,1,-1
6,96,41322,2,0,L|544:96,1,-1
256,192,41404,5,0,0:0:0:0:
6,96,41405,2,0,L|544:96,1,-1
6,96,41405,2,0,L|544:96,1,-1
256,192,41487,1,8,0:0:0:0:
256,192,41570,1,8,0:0:0:0:
256,192,41652,5,0,0:0:0:0:
6,96,41653,2,0,L|544:96,1,-1
6,96,41653,2,0,L|544:96,1,-1
256,192,41735,5,0,0:0:0:0:
6,96,41736,2,0,L|544:96,1,-1
6,96,41736,2,0,L|544:96,1,-1
256,192,41818,1,8,0:0:0:0:
256,192,41901,5,0,0:0:0:0:
6,96,41902,2,0,L|544:96,1,-1
6,96,41902,2,0,L|544:96,1,-1
256,192,41984,1,8,0:0:0:0:
256,192,42067,1,8,0:0:0:0:
256,192,42150,5,0,0:0:0:0:
6,96,42151,2,0,L|544:96,1,-1
6,96,42151,2,0,L|544:96,1,-1
256,192,42315,5,0,0:0:0:0:
6,96,42316,2,0,L|544:96,1,-1
6,96,42316,2,0,L|544:96,1,-1
256,192,42481,1,8,0:0:0:0:
64,128,42501,2,0,L|160:128,1,-650
64,128,42501,2,0,L|160:128,1,-100
64,128,42501,2,0,L|160:128,1,-650
64,128,42501,2,0,L|160:128,1,-100
256,192,42564,1,8,0:0:0:0:
64,128,42584,2,0,L|160:128,1,-610
64,128,42584,2,0,L|160:128,1,-120
64,128,42584,2,0,L|160:128,1,-610
64,128,42584,2,0,L|160:128,1,-120
256,192,42647,1,0,0:0:0:0:
64,128,42667,2,0,L|160:128,1,-570
64,128,42667,2,0,L|160:128,1,-140
64,128,42667,2,0,L|160:128,1,-570
64,128,42667,2,0,L|160:128,1,-140
256,192,42730,1,0,0:0:0:0:
64,128,42750,2,0,L|160:128,1,-530
64,128,42750,2,0,L|160:128,1,-160
64,128,42750,2,0,L|160:128,1,-530
64,128,42750,2,0,L|160:128,1,-160
256,192,42813,1,8,0:0:0:0:
64,128,42833,2,0,L|160:128,1,-490
64,128,42833,2,0,L|160:128,1,-180
64,128,42833,2,0,L|160:128,1,-490
64,128,42833,2,0,L|160:128,1,-180
256,192,42978,5,4,0:0:0:0:
6,96,42979,2,4,L|544:96,1,-1
6,96,42979,2,4,L|544:96,1,-1
256,192,43143,5,0,0:0:0:0:
6,96,43144,2,0,L|544:96,1,-1
6,96,43144,2,0,L|544:96,1,-1
256,192,43226,5,0,0:0:0:0:
6,96,43227,2,0,L|544:96,1,-1
6,96,43227,2,0,L|544:96,1,-1
256,192,43309,5,8,0:0:0:0:
6,96,43310,2,8,L|544:96,1,-1
6,96,43310,2,8,L|544:96,1,-1
256,192,43475,5,0,0:0:0:0:
6,96,43476,2,0,L|544:96,1,-1
6,96,43476,2,0,L|544:96,1,-1
256,192,43640,5,0,0:0:0:0:
6,96,43641,2,0,L|544:96,1,-1
6,96,43641,2,0,L|544:96,1,-1
256,192,43723,5,8,0:0:0:0:
6,96,43724,2,8,L|544:96,1,-1
6,96,43724,2,8,L|544:96,1,-1
256,192,43806,5,0,0:0:0:0:
6,96,43807,2,0,L|544:96,1,-1
6,96,43807,2,0,L|544:96,1,-1
256,192,43889,5,0,0:0:0:0:
6,96,43890,2,0,L|544:96,1,-1
6,96,43890,2,0,L|544:96,1,-1
256,192,43972,5,8,0:0:0:0:
6,96,43973,2,8,L|544:96,1,-1
6,96,43973,2,8,L|544:96,1,-1
256,192,44138,5,8,0:0:0:0:
6,96,44139,2,8,L|544:96,1,-1
6,96,44139,2,8,L|544:96,1,-1
256,192,44303,5,0,0:0:0:0:
6,96,44304,2,0,L|544:96,1,-1
6,96,44304,2,0,L|544:96,1,-1
256,192,44386,5,8,0:0:0:0:
6,96,44387,2,8,L|544:96,1,-1
6,96,44387,2,8,L|544:96,1,-1
256,192,44469,5,0,0:0:0:0:
6,96,44470,2,0,L|544:96,1,-1
6,96,44470,2,0,L|544:96,1,-1
256,192,44552,5,0,0:0:0:0:
6,96,44553,2,0,L|544:96,1,-1
6,96,44553,2,0,L|544:96,1,-1
256,192,44635,5,8,0:0:0:0:
6,96,44636,2,8,L|544:96,1,-1
6,96,44636,2,8,L|544:96,1,-1
256,192,44718,5,8,0:0:0:0:
6,96,44719,2,8,L|544:96,1,-1
6,96,44719,2,8,L|544:96,1,-1
256,192,44801,5,0,0:0:0:0:
6,96,44802,2,0,L|544:96,1,-1
6,96,44802,2,0,L|544:96,1,-1
256,192,44967,1,0,0:0:0:0:
64,128,44987,2,0,L|160:128,1,-100
64,128,44987,2,0,L|160:128,1,-100
256,192,45050,1,0,0:0:0:0:
64,128,45070,2,0,L|160:128,1,-120
64,128,45070,2,0,L|160:128,1,-120
256,192,45133,1,8,0:0:0:0:
64,128,45153,2,0,L|160:128,1,-140
64,128,45153,2,0,L|160:128,1,-140
256,192,45299,1,0,0:0:0:0:
64,128,45319,2,0,L|160:128,1,-450
64,128,45319,2,0,L|160:128,1,-450
256,192,45382,1,8,0:0:0:0:
64,128,45402,2,0,L|160:128,1,-470
64,128,45402,2,0,L|160:128,1,-470
256,192,45465,1,8,0:0:0:0:
64,128,45485,2,0,L|160:128,1,-490
64,128,45485,2,0,L|160:128,1,-490
256,192,45630,5,12,0:0:0:0:
6,96,45631,2,12,L|544:96,1,-1
6,96,45631,2,12,L|544:96,1,-1
6,96,45631,2,12,L|544:96,1,-1
256,192,45878,5,0,0:0:0:0:
6,96,45879,2,0,L|544:96,1,-1
6,96,45879,2,0,L|544:96,1,-1
256,192,45961,5,8,0:0:0:0:
6,96,45962,2,8,L|544:96,1,-1
6,96,45962,2,8,L|544:96,1,-1
256,192,46127,5,0,0:0:0:0:
6,96,46128,2,0,L|544:96,1,-1
6,96,46128,2,0,L|544:96,1,-1
256,192,46293,5,12,0:0:0:0:
6,96,46294,2,12,L|544:96,1,-1
6,96,46294,2,12,L|544:96,1,-1
6,96,46294,2,12,L|544:96,1,-1
256,192,46541,5,8,0:0:0:0:
6,96,46542,2,8,L|544:96,1,-1
6,96,46542,2,8,L|544:96,1,-1
256,192,46624,5,0,0:0:0:0:
6,96,46625,2,0,L|544:96,1,-1
6,96,46625,2,0,L|544:96,1,-1
256,192,46790,5,8,0:0:0:0:
6,96,46791,2,8,L|544:96,1,-1
6,96,46791,2,8,L|544:96,1,-1
256,192,46956,5,12,0:0:0:0:
6,96,46957,2,12,L|544:96,1,-1
6,96,46957,2,12,L|544:96,1,-1
6,96,46957,2,12,L|544:96,1,-1
256,192,47121,5,0,0:0:0:0:
6,96,47122,2,0,L|544:96,1,-1
6,96,47122,2,0,L|544:96,1,-1
256,192,47288,5,12,0:0:0:0:
6,96,47289,2,12,L|544:96,1,-1
6,96,47289,2,12,L|544:96,1,-1
6,96,47289,2,12,L|544:96,1,-1
256,192,47453,5,0,0:0:0:0:
6,96,47454,2,0,L|544:96,1,-1
6,96,47454,2,0,L|544:96,1,-1
256,192,47618,5,8,0:0:0:0:
6,96,47619,2,8,L|544:96,1,-1
6,96,47619,2,8,L|544:96,1,-1
256,192,47784,5,8,0:0:0:0:
6,96,47785,2,8,L|544:96,1,-1
6,96,47785,2,8,L|544:96,1,-1
256,192,47951,5,12,0:0:0:0:
96,96,47952,2,12,L|544:96,1,-0.5
96,96,47952,2,12,L|544:96,1,-1
96,96,47952,2,12,L|544:96,1,-1.5
96,96,47952,2,12,L|544:96,1,-2
96,96,47952,2,12,L|544:96,1,-2.5
96,96,47952,2,12,L|544:96,1,-3
96,96,47952,2,12,L|544:96,1,-3.5
256,192,48282,5,8,0:0:0:0:
6,96,48283,2,8,L|544:96,1,-1
6,96,48283,2,8,L|544:96,1,-1
256,192,48364,1,0,0:0:0:0:
256,192,48447,1,0,0:0:0:0:
256,192,48530,5,8,0:0:0:0:
6,96,48531,2,8,L|544:96,1,-1
6,96,48531,2,8,L|544:96,1,-1
256,192,48613,1,0,0:0:0:0:
256,192,48696,1,0,0:0:0:0:
256,192,48779,5,8,0:0:0:0:
6,96,48780,2,8,L|544:96,1,-1
6,96,48780,2,8,L|544:96,1,-1
256,192,48862,1,0,0:0:0:0:
256,192,48944,5,8,0:0:0:0:
6,96,48945,2,8,L|544:96,1,-1
6,96,48945,2,8,L|544:96,1,-1
256,192,49027,1,0,0:0:0:0:
256,192,49110,1,0,0:0:0:0:
256,192,49193,5,8,0:0:0:0:
6,96,49194,2,8,L|544:96,1,-1
6,96,49194,2,8,L|544:96,1,-1
256,192,49276,5,8,0:0:0:0:
6,96,49277,2,8,L|544:96,1,-1
6,96,49277,2,8,L|544:96,1,-1
256,192,49359,1,0,0:0:0:0:
256,192,49442,5,8,0:0:0:0:
6,96,49443,2,8,L|544:96,1,-1
6,96,49443,2,8,L|544:96,1,-1
256,192,49525,5,8,0:0:0:0:
6,96,49526,2,8,L|544:96,1,-1
6,96,49526,2,8,L|544:96,1,-1
256,192,49607,1,4,0:0:0:0:
256,192,49773,1,8,0:0:0:0:
256,192,49856,1,0,0:0:0:0:
256,192,49939,1,8,0:0:0:0:
256,192,50105,1,0,0:0:0:0:
256,192,50271,5,12,0:0:0:0:
96,96,50272,2,12,L|544:96,1,-1
96,96,50272,2,12,L|544:96,1,-1
96,96,50272,2,12,L|544:96,1,-1
256,192,50436,1,0,0:0:0:0:
256,192,50602,5,12,0:0:0:0:
96,96,50603,2,12,L|544:96,1,-1
96,96,50603,2,12,L|544:96,1,-1
96,96,50603,2,12,L|544:96,1,-1
256,192,50768,1,8,0:0:0:0:
256,192,50933,5,8,0:0:0:0:
6,96,50934,2,8,L|544:96,1,-1
6,96,50934,2,8,L|544:96,1,-1
256,192,51015,1,0,0:0:0:0:
256,192,51098,1,0,0:0:0:0:
256,192,51181,5,8,0:0:0:0:
6,96,51182,2,8,L|544:96,1,-1
6,96,51182,2,8,L|544:96,1,-1
256,192,51264,1,0,0:0:0:0:
256,192,51347,1,0,0:0:0:0:
256,192,51430,5,8,0:0:0:0:
6,96,51431,2,8,L|544:96,1,-1
6,96,51431,2,8,L|544:96,1,-1
256,192,51513,1,0,0:0:0:0:
256,192,51595,5,8,0:0:0:0:
6,96,51596,2,8,L|544:96,1,-1
6,96,51596,2,8,L|544:96,1,-1
256,192,51678,1,0,0:0:0:0:
256,192,51761,1,0,0:0:0:0:
256,192,51844,5,8,0:0:0:0:
6,96,51845,2,8,L|544:96,1,-1
6,96,51845,2,8,L|544:96,1,-1
256,192,51927,5,8,0:0:0:0:
6,96,51928,2,8,L|544:96,1,-1
6,96,51928,2,8,L|544:96,1,-1
256,192,52010,1,0,0:0:0:0:
256,192,52093,5,8,0:0:0:0:
6,96,52094,2,8,L|544:96,1,-1
6,96,52094,2,8,L|544:96,1,-1
256,192,52176,5,8,0:0:0:0:
6,96,52177,2,8,L|544:96,1,-1
6,96,52177,2,8,L|544:96,1,-1
256,192,52259,1,4,0:0:0:0:
256,192,52424,1,0,0:0:0:0:
256,192,52507,1,8,0:0:0:0:
256,192,52590,1,8,0:0:0:0:
256,192,52756,1,0,0:0:0:0:
256,192,52922,5,12,0:0:0:0:
96,96,52923,2,12,L|544:96,1,-1
96,96,52923,2,12,L|544:96,1,-1
96,96,52923,2,12,L|544:96,1,-1
256,192,53087,1,0,0:0:0:0:
256,192,53254,5,12,0:0:0:0:
96,96,53255,2,12,L|544:96,1,-1
96,96,53255,2,12,L|544:96,1,-1
96,96,53255,2,12,L|544:96,1,-1
256,192,53420,5,12,0:0:0:0:
96,96,53421,2,12,L|544:96,1,-1
96,96,53421,2,12,L|544:96,1,-1
96,96,53421,2,12,L|544:96,1,-1
256,192,53586,1,4,0:0:0:0:
256,192,53751,1,4,0:0:0:0:
256,192,53917,5,0,0:0:0:0:
6,96,53918,2,0,L|544:96,1,-1
6,96,53918,2,0,L|544:96,1,-1
256,192,54000,5,0,0:0:0:0:
6,96,54001,2,0,L|544:96,1,-1
6,96,54001,2,0,L|544:96,1,-1
256,192,54083,5,8,0:0:0:0:
6,96,54084,2,8,L|544:96,1,-1
6,96,54084,2,8,L|544:96,1,-1
256,192,54165,5,8,0:0:0:0:
6,96,54166,2,8,L|544:96,1,-1
6,96,54166,2,8,L|544:96,1,-1
256,192,54248,5,8,0:0:0:0:
6,96,54249,2,8,L|544:96,1,-1
6,96,54249,2,8,L|544:96,1,-1
256,192,54359,5,8,0:0:0:0:
6,96,54360,2,8,L|544:96,1,-1
6,96,54360,2,8,L|544:96,1,-1
256,192,54469,5,8,0:0:0:0:
6,96,54470,2,8,L|544:96,1,-1
6,96,54470,2,8,L|544:96,1,-1
256,192,54580,5,8,0:0:0:0:
6,96,54581,2,8,L|544:96,1,-1
6,96,54581,2,8,L|544:96,1,-1
256,192,54746,5,8,0:0:0:0:
6,96,54747,2,8,L|544:96,1,-1
6,96,54747,2,8,L|544:96,1,-1
256,192,54908,5,8,0:0:0:0:
6,96,54909,2,8,L|544:96,1,-1
6,96,54909,2,8,L|544:96,1,-1
64,128,54928,6,0,L|160:128,1,-100
64,128,54928,2,0,L|160:128,1,-460
256,192,54990,5,0,0:0:0:0:
6,96,54991,2,0,L|544:96,1,-1
6,96,54991,2,0,L|544:96,1,-1
64,128,55011,2,0,L|160:128,1,-500
64,128,55011,2,0,L|160:128,1,-120
256,192,55073,5,0,0:0:0:0:
6,96,55074,2,0,L|544:96,1,-1
6,96,55074,2,0,L|544:96,1,-1
64,128,55094,2,0,L|160:128,1,-140
64,128,55094,2,0,L|160:128,1,-540
256,192,55156,5,8,0:0:0:0:
6,96,55157,2,8,L|544:96,1,-1
6,96,55157,2,8,L|544:96,1,-1
64,128,55177,2,0,L|160:128,1,-580
64,128,55177,2,0,L|160:128,1,-160
256,192,55239,5,0,0:0:0:0:
6,96,55240,2,0,L|544:96,1,-1
6,96,55240,2,0,L|544:96,1,-1
64,128,55260,2,0,L|160:128,1,-180
64,128,55260,2,0,L|160:128,1,-620
256,192,55322,5,0,0:0:0:0:
6,96,55323,2,0,L|544:96,1,-1
6,96,55323,2,0,L|544:96,1,-1
64,128,55342,2,0,L|160:128,1,-660
64,128,55342,2,0,L|160:128,1,-200
256,192,55405,5,8,0:0:0:0:
6,96,55406,2,8,L|544:96,1,-1
6,96,55406,2,8,L|544:96,1,-1
64,128,55425,2,0,L|160:128,1,-220
64,128,55425,2,0,L|160:128,1,-700
256,192,55488,5,0,0:0:0:0:
6,96,55489,2,0,L|544:96,1,-1
6,96,55489,2,0,L|544:96,1,-1
64,128,55508,2,0,L|160:128,1,-740
64,128,55508,2,0,L|160:128,1,-240
256,192,55570,5,12,0:0:0:0:
96,96,55571,2,12,L|544:96,1,-1
96,96,55571,2,12,L|544:96,1,-1
96,96,55571,2,12,L|544:96,1,-1
64,128,55591,2,0,L|160:128,1,-260
64,128,55591,2,0,L|160:128,1,-780
256,192,55736,5,0,0:0:0:0:
6,96,55737,2,0,L|544:96,1,-1
6,96,55737,2,0,L|544:96,1,-1
256,192,55902,5,12,0:0:0:0:
96,96,55903,2,12,L|544:96,1,-1
96,96,55903,2,12,L|544:96,1,-1
96,96,55903,2,12,L|544:96,1,-1
256,192,56068,5,0,0:0:0:0:
6,96,56069,2,0,L|544:96,1,-1
6,96,56069,2,0,L|544:96,1,-1
256,192,56238,5,12,0:0:0:0:
96,96,56239,2,12,L|544:96,1,-1
96,96,56239,2,12,L|544:96,1,-1
96,96,56239,2,12,L|544:96,1,-1
256,192,56486,5,12,0:0:0:0:
96,96,56487,2,12,L|544:96,1,-1
96,96,56487,2,12,L|544:96,1,-1
96,96,56487,2,12,L|544:96,1,-1
96,96,56528,2,12,L|544:96,1,-500
256,192,56735,5,4,0:0:0:0:
96,96,56736,2,4,L|544:96,1,-1
96,96,56736,2,0,L|544:96,1,-1
256,192,56900,5,12,0:0:0:0:
96,96,56901,2,12,L|544:96,1,-1
96,96,56901,2,12,L|544:96,1,-1
96,96,56901,2,12,L|544:96,1,-1
96,96,56942,2,12,L|544:96,1,-500
256,192,57149,5,12,0:0:0:0:
96,96,57150,2,12,L|544:96,1,-1
96,96,57150,2,12,L|544:96,1,-1
96,96,57150,2,12,L|544:96,1,-1
96,96,57355,2,12,L|544:96,1,-500
256,192,57398,5,12,0:0:0:0:
96,96,57399,2,12,L|544:96,1,-1
96,96,57399,2,12,L|544:96,1,-1
96,96,57399,2,12,L|544:96,1,-1
256,192,57563,5,12,0:0:0:0:
96,96,57564,2,12,L|544:96,1,-1
96,96,57564,2,12,L|544:96,1,-1
96,96,57564,2,12,L|544:96,1,-1
96,96,57768,2,12,L|544:96,1,-500
256,192,57812,5,12,0:0:0:0:
96,96,57813,2,12,L|544:96,1,-1
96,96,57813,2,12,L|544:96,1,-1
96,96,57813,2,12,L|544:96,1,-1
256,192,58061,5,4,0:0:0:0:
96,96,58062,2,0,L|544:96,1,-1
96,96,58062,2,4,L|544:96,1,-1
96,96,58102,2,12,L|544:96,1,-500
96,96,58123,2,12,L|544:96,1,-500
96,96,58144,2,12,L|544:96,1,-500
96,96,58164,2,12,L|544:96,1,-500
96,96,58185,2,12,L|544:96,1,-500
96,96,58206,2,12,L|544:96,1,-500
96,96,58227,2,12,L|544:96,1,-500
96,96,58247,2,12,L|544:96,1,-500
96,96,58268,2,12,L|544:96,1,-500
96,96,58289,2,12,L|544:96,1,-500
96,96,58310,2,12,L|544:96,1,-500
96,96,58330,2,12,L|544:96,1,-500
96,96,58351,2,12,L|544:96,1,-500
96,96,58372,2,12,L|544:96,1,-500
96,96,58393,2,12,L|544:96,1,-500
96,96,58413,2,12,L|544:96,1,-500
256,192,58558,5,12,0:0:0:0:
96,96,58559,2,12,L|544:96,1,-1
96,96,58559,2,12,L|544:96,1,-1
96,96,58559,2,12,L|544:96,1,-1
96,96,58559,2,12,L|544:96,1,-500
96,96,58578,2,12,L|544:96,1,-500
96,96,58599,2,12,L|544:96,1,-500
96,96,58620,2,12,L|544:96,1,-500
96,96,58640,2,12,L|544:96,1,-500
96,96,58661,2,12,L|544:96,1,-500
96,96,58682,2,12,L|544:96,1,-500
96,96,58703,2,12,L|544:96,1,-500
96,96,58723,2,12,L|544:96,1,-500
256,192,58890,5,12,0:0:0:0:
96,96,58891,2,12,L|544:96,1,-1
96,96,58891,2,12,L|544:96,1,-1
96,96,58891,2,12,L|544:96,1,-1
256,192,59221,1,8,0:0:0:0:
256,192,59884,1,8,0:0:0:0:
256,192,60215,1,0,0:0:0:0:
256,192,60547,1,8,0:0:0:0:
256,192,61044,1,8,0:0:0:0:
332,204,61209,5,4,0:0:0:0:
188,204,61210,2,4,L|236:208,1,1E-10
188,204,61211,2,4,L|236:208,1,1E-10
188,204,61212,2,4,L|236:208,1,1E-10
188,204,61213,2,4,L|236:208,1,1E-10
188,204,61214,2,4,L|236:208,1,1E-10
188,204,61215,2,4,L|236:208,1,1E-10
188,204,61216,2,4,L|236:208,1,1E-10
188,204,61217,2,4,L|236:208,1,1E-10
188,204,61218,2,4,L|236:208,1,1E-10
188,204,61219,2,4,L|236:208,1,1E-10
188,204,61220,2,4,L|236:208,1,1E-10
188,204,61221,2,4,L|236:208,1,1E-10
188,204,61222,2,4,L|236:208,1,1E-10
188,204,61223,2,4,L|236:208,1,1E-10
332,204,61540,5,12,0:0:0:0:
188,204,61541,2,12,L|236:208,1,1E-10
188,204,61542,2,12,L|236:208,1,1E-10
188,204,61543,2,12,L|236:208,1,1E-10
188,204,61544,2,12,L|236:208,1,1E-10
188,204,61545,2,12,L|236:208,1,1E-10
188,204,61546,2,12,L|236:208,1,1E-10
188,204,61547,2,12,L|236:208,1,1E-10
188,204,61548,2,12,L|236:208,1,1E-10
188,204,61549,2,12,L|236:208,1,1E-10
188,204,61550,2,12,L|236:208,1,1E-10
188,204,61551,2,12,L|236:208,1,1E-10
188,204,61552,2,12,L|236:208,1,1E-10
188,204,61553,2,12,L|236:208,1,1E-10
188,204,61554,2,12,L|236:208,1,1E-10
256,192,61873,1,8,0:0:0:0:
332,204,62534,5,4,0:0:0:0:
188,204,62535,2,4,L|236:208,1,1E-10
188,204,62536,2,4,L|236:208,1,1E-10
188,204,62537,2,4,L|236:208,1,1E-10
188,204,62538,2,4,L|236:208,1,1E-10
188,204,62539,2,4,L|236:208,1,1E-10
188,204,62540,2,4,L|236:208,1,1E-10
188,204,62541,2,4,L|236:208,1,1E-10
188,204,62542,2,4,L|236:208,1,1E-10
188,204,62543,2,4,L|236:208,1,1E-10
188,204,62544,2,4,L|236:208,1,1E-10
188,204,62545,2,4,L|236:208,1,1E-10
188,204,62546,2,4,L|236:208,1,1E-10
188,204,62547,2,4,L|236:208,1,1E-10
188,204,62548,2,4,L|236:208,1,1E-10
332,204,62865,5,12,0:0:0:0:
188,204,62866,2,12,L|236:208,1,1E-10
188,204,62867,2,12,L|236:208,1,1E-10
188,204,62868,2,12,L|236:208,1,1E-10
188,204,62869,2,12,L|236:208,1,1E-10
188,204,62870,2,12,L|236:208,1,1E-10
188,204,62871,2,12,L|236:208,1,1E-10
188,204,62872,2,12,L|236:208,1,1E-10
188,204,62873,2,12,L|236:208,1,1E-10
188,204,62874,2,12,L|236:208,1,1E-10
188,204,62875,2,12,L|236:208,1,1E-10
188,204,62876,2,12,L|236:208,1,1E-10
188,204,62877,2,12,L|236:208,1,1E-10
188,204,62878,2,12,L|236:208,1,1E-10
188,204,62879,2,12,L|236:208,1,1E-10
256,192,63199,1,8,0:0:0:0:
332,204,63860,5,4,0:0:0:0:
188,204,63861,2,4,L|236:208,1,1E-10
188,204,63862,2,4,L|236:208,1,1E-10
188,204,63863,2,4,L|236:208,1,1E-10
188,204,63864,2,4,L|236:208,1,1E-10
188,204,63865,2,4,L|236:208,1,1E-10
188,204,63866,2,4,L|236:208,1,1E-10
188,204,63867,2,4,L|236:208,1,1E-10
188,204,63868,2,4,L|236:208,1,1E-10
188,204,63869,2,4,L|236:208,1,1E-10
188,204,63870,2,4,L|236:208,1,1E-10
188,204,63871,2,4,L|236:208,1,1E-10
188,204,63872,2,4,L|236:208,1,1E-10
188,204,63873,2,4,L|236:208,1,1E-10
188,204,63874,2,4,L|236:208,1,1E-10
256,192,64193,5,12,0:0:0:0:
96,96,64194,2,12,L|544:96,1,-1
96,96,64194,2,8,L|544:96,1,-1
256,192,64276,5,4,0:0:0:0:
96,96,64277,2,0,L|544:96,1,-1
256,192,64359,5,4,0:0:0:0:
96,96,64360,2,0,L|544:96,1,-1
256,192,64442,5,4,0:0:0:0:
96,96,64443,2,0,L|544:96,1,-1
256,192,64525,5,12,0:0:0:0:
96,96,64526,2,8,L|544:96,1,-1
96,96,64526,2,12,L|544:96,1,-1
256,192,64608,5,12,0:0:0:0:
96,96,64609,2,12,L|544:96,1,-1
96,96,64609,2,8,L|544:96,1,-1
256,192,64691,5,4,0:0:0:0:
96,96,64692,2,0,L|544:96,1,-1
256,192,64773,5,4,0:0:0:0:
96,96,64774,2,0,L|544:96,1,-1
256,192,64856,5,12,0:0:0:0:
96,96,64857,2,8,L|544:96,1,-1
96,96,64857,2,12,L|544:96,1,-1
256,192,64939,5,4,0:0:0:0:
96,96,64940,2,0,L|544:96,1,-1
256,192,65022,5,4,0:0:0:0:
96,96,65023,2,0,L|544:96,1,-1
256,192,65105,5,4,0:0:0:0:
96,96,65106,2,0,L|544:96,1,-1
256,192,65188,5,12,0:0:0:0:
96,96,65189,2,12,L|544:96,1,-1
96,96,65189,2,12,L|544:96,1,-1
96,96,65189,2,12,L|544:96,1,-1
256,192,65519,5,12,0:0:0:0:
96,96,65520,2,8,L|544:96,1,-1
256,192,65602,5,4,0:0:0:0:
96,96,65603,2,0,L|544:96,1,-1
96,96,65603,2,4,L|544:96,1,-1
256,192,65685,5,4,0:0:0:0:
96,96,65686,2,4,L|544:96,1,-1
96,96,65686,2,0,L|544:96,1,-1
256,192,65768,5,4,0:0:0:0:
96,96,65769,2,0,L|544:96,1,-1
96,96,65769,2,4,L|544:96,1,-1
256,192,65851,5,12,0:0:0:0:
96,96,65852,2,8,L|544:96,1,-1
256,192,65934,5,4,0:0:0:0:
96,96,65935,2,4,L|544:96,1,-1
96,96,65935,2,0,L|544:96,1,-1
256,192,66017,5,12,0:0:0:0:
96,96,66018,2,8,L|544:96,1,-1
256,192,66099,5,12,0:0:0:0:
96,96,66100,2,8,L|544:96,1,-1
256,192,66182,5,4,0:0:0:0:
96,96,66183,2,0,L|544:96,1,-1
96,96,66183,2,4,L|544:96,1,-1
256,192,66265,5,4,0:0:0:0:
96,96,66266,2,4,L|544:96,1,-1
96,96,66266,2,0,L|544:96,1,-1
256,192,66348,5,4,0:0:0:0:
96,96,66349,2,0,L|544:96,1,-1
96,96,66349,2,4,L|544:96,1,-1
256,192,66431,5,4,0:0:0:0:
96,96,66432,2,4,L|544:96,1,-1
96,96,66432,2,0,L|544:96,1,-1
256,192,66514,5,12,0:0:0:0:
96,96,66515,2,12,L|544:96,1,-1
96,96,66515,2,12,L|544:96,1,-1
96,96,66515,2,12,L|544:96,1,-1
256,192,66845,5,12,0:0:0:0:
96,96,66846,2,8,L|544:96,1,-1
96,96,66846,2,12,L|544:96,1,-1
256,192,66928,5,4,0:0:0:0:
96,96,66929,2,4,L|544:96,1,-1
96,96,66929,2,0,L|544:96,1,-1
256,192,67011,5,4,0:0:0:0:
96,96,67012,2,0,L|544:96,1,-1
96,96,67012,2,4,L|544:96,1,-1
256,192,67094,5,4,0:0:0:0:
96,96,67095,2,4,L|544:96,1,-1
96,96,67095,2,0,L|544:96,1,-1
256,192,67177,5,12,0:0:0:0:
96,96,67178,2,8,L|544:96,1,-1
96,96,67178,2,12,L|544:96,1,-1
256,192,67260,5,12,0:0:0:0:
96,96,67261,2,12,L|544:96,1,-1
96,96,67261,2,8,L|544:96,1,-1
256,192,67343,5,4,0:0:0:0:
96,96,67344,2,0,L|544:96,1,-1
96,96,67344,2,4,L|544:96,1,-1
256,192,67426,5,4,0:0:0:0:
96,96,67427,2,4,L|544:96,1,-1
96,96,67427,2,0,L|544:96,1,-1
256,192,67508,5,12,0:0:0:0:
96,96,67509,2,8,L|544:96,1,-1
96,96,67509,2,12,L|544:96,1,-1
256,192,67591,5,4,0:0:0:0:
96,96,67592,2,0,L|544:96,1,-1
96,96,67592,2,4,L|544:96,1,-1
256,192,67674,5,4,0:0:0:0:
96,96,67675,2,4,L|544:96,1,-1
96,96,67675,2,0,L|544:96,1,-1
256,192,67757,5,4,0:0:0:0:
96,96,67758,2,0,L|544:96,1,-1
96,96,67758,2,4,L|544:96,1,-1
256,192,67840,5,12,0:0:0:0:
96,96,67841,2,12,L|544:96,1,-1
96,96,67841,2,8,L|544:96,1,-1
256,192,67923,5,4,0:0:0:0:
96,96,67924,2,4,L|544:96,1,-1
96,96,67924,2,0,L|544:96,1,-1
256,192,68006,5,12,0:0:0:0:
96,96,68007,2,8,L|544:96,1,-1
96,96,68007,2,12,L|544:96,1,-1
256,192,68089,5,12,0:0:0:0:
96,96,68090,2,12,L|544:96,1,-1
96,96,68090,2,8,L|544:96,1,-1
256,192,68171,5,4,0:0:0:0:
96,96,68172,2,4,L|544:96,1,-1
96,96,68172,2,4,L|544:96,1,-1.5
96,96,68172,2,4,L|544:96,1,-2.5
96,96,68172,2,4,L|544:96,1,-0.5
96,96,68172,2,4,L|544:96,1,-3
96,96,68172,2,4,L|544:96,1,-3.5
96,96,68172,2,4,L|544:96,1,-2
256,192,68503,5,12,0:0:0:0:
96,96,68504,2,12,L|544:96,1,-3
96,96,68504,2,12,L|544:96,1,-3.5
96,96,68504,2,12,L|544:96,1,-2
96,96,68504,2,12,L|544:96,1,-0.5
96,96,68504,2,12,L|544:96,1,-1
96,96,68504,2,12,L|544:96,1,-1.5
96,96,68504,2,12,L|544:96,1,-2.5
256,192,68834,5,4,0:0:0:0:
96,96,68835,2,4,L|544:96,1,-1
96,96,68835,2,4,L|544:96,1,-1.5
96,96,68835,2,4,L|544:96,1,-2.5
96,96,68835,2,4,L|544:96,1,-0.5
96,96,68835,2,4,L|544:96,1,-3
96,96,68835,2,4,L|544:96,1,-3.5
96,96,68835,2,4,L|544:96,1,-2
256,192,69166,5,12,0:0:0:0:
96,96,69167,2,12,L|544:96,1,-3
96,96,69167,2,12,L|544:96,1,-3.5
96,96,69167,2,12,L|544:96,1,-2
96,96,69167,2,12,L|544:96,1,-0.5
96,96,69167,2,12,L|544:96,1,-1
96,96,69167,2,12,L|544:96,1,-1.5
96,96,69167,2,12,L|544:96,1,-2.5
256,192,69497,5,12,0:0:0:0:
96,96,69498,2,12,L|544:96,1,-3
96,96,69498,2,12,L|544:96,1,-3.5
96,96,69498,2,12,L|544:96,1,-2
96,96,69498,2,12,L|544:96,1,-0.5
96,96,69498,2,12,L|544:96,1,-1
96,96,69498,2,12,L|544:96,1,-1.5
96,96,69498,2,12,L|544:96,1,-2.5
256,192,69746,1,0,0:0:0:0:
256,192,69829,1,8,0:0:0:0:
256,192,69912,1,0,0:0:0:0:
256,192,70077,1,0,0:0:0:0:
256,192,70160,1,8,0:0:0:0:
256,192,70243,1,0,0:0:0:0:
256,192,70326,1,0,0:0:0:0:
256,192,70409,1,0,0:0:0:0:
256,192,70492,1,8,0:0:0:0:
256,192,70657,1,0,0:0:0:0:
96,96,70824,2,4,L|544:96,1,-3
96,96,70824,2,4,L|544:96,1,-3.5
96,96,70824,2,4,L|544:96,1,-2
96,96,70824,2,4,L|544:96,1,-0.5
96,96,70824,2,4,L|544:96,1,-1
96,96,70824,2,4,L|544:96,1,-1.5
96,96,70824,2,4,L|544:96,1,-2.5
96,96,70989,2,4,L|544:96,1,-1
96,96,70989,2,4,L|544:96,1,-1.5
96,96,70989,2,4,L|544:96,1,-2.5
96,96,70989,2,4,L|544:96,1,-0.5
96,96,70989,2,4,L|544:96,1,-3
96,96,70989,2,4,L|544:96,1,-3.5
96,96,70989,2,4,L|544:96,1,-2
96,96,71155,2,4,L|544:96,1,-3
96,96,71155,2,4,L|544:96,1,-3.5
96,96,71155,2,4,L|544:96,1,-2
96,96,71155,2,4,L|544:96,1,-0.5
96,96,71155,2,4,L|544:96,1,-1
96,96,71155,2,4,L|544:96,1,-1.5
96,96,71155,2,4,L|544:96,1,-2.5
256,192,71652,1,0,0:0:0:0:
256,192,71818,1,8,0:0:0:0:
256,192,71983,1,0,0:0:0:0:
64,128,72107,2,4,L|160:128,1,-100
64,128,72107,2,4,L|160:128,1,-650
256,192,72149,5,4,0:0:0:0:
96,96,72150,2,4,L|544:96,1,-1
256,192,72314,1,0,0:0:0:0:
256,192,72397,1,0,0:0:0:0:
256,192,72480,1,8,0:0:0:0:
256,192,72646,1,0,0:0:0:0:
256,192,72811,5,12,0:0:0:0:
96,96,72812,2,12,L|544:96,1,-1
96,96,72812,2,12,L|544:96,1,-1.5
96,96,72812,2,12,L|544:96,1,-2.5
96,96,72812,2,12,L|544:96,1,-0.5
96,96,72812,2,12,L|544:96,1,-3
96,96,72812,2,12,L|544:96,1,-3.5
96,96,72812,2,12,L|544:96,1,-2
256,192,72977,5,4,0:0:0:0:
96,96,72978,2,4,L|544:96,1,-3
96,96,72978,2,4,L|544:96,1,-3.5
96,96,72978,2,4,L|544:96,1,-2
96,96,72978,2,4,L|544:96,1,-0.5
96,96,72978,2,4,L|544:96,1,-1
96,96,72978,2,4,L|544:96,1,-1.5
96,96,72978,2,4,L|544:96,1,-2.5
256,192,73143,5,12,0:0:0:0:
96,96,73144,2,12,L|544:96,1,-3
96,96,73144,2,12,L|544:96,1,-3.5
96,96,73144,2,12,L|544:96,1,-2
96,96,73144,2,12,L|544:96,1,-0.5
96,96,73144,2,12,L|544:96,1,-1
96,96,73144,2,12,L|544:96,1,-1.5
96,96,73144,2,12,L|544:96,1,-2.5
256,192,73309,5,4,0:0:0:0:
96,96,73310,2,4,L|544:96,1,-1
96,96,73310,2,4,L|544:96,1,-1.5
96,96,73310,2,4,L|544:96,1,-2.5
96,96,73310,2,4,L|544:96,1,-0.5
96,96,73310,2,4,L|544:96,1,-3
96,96,73310,2,4,L|544:96,1,-3.5
96,96,73310,2,4,L|544:96,1,-2
256,192,73474,1,0,0:0:0:0:
256,192,73640,1,0,0:0:0:0:
256,192,73723,1,0,0:0:0:0:
256,192,73806,1,8,0:0:0:0:
256,192,73889,1,8,0:0:0:0:
256,192,73972,1,0,0:0:0:0:
256,192,74055,1,0,0:0:0:0:
256,192,74137,5,12,0:0:0:0:
96,96,74138,2,12,L|544:96,1,-1
96,96,74138,2,12,L|544:96,1,-1
96,96,74138,2,12,L|544:96,1,-1
256,192,74303,1,0,0:0:0:0:
256,192,74469,1,8,0:0:0:0:
256,192,74579,1,8,0:0:0:0:
256,192,74690,1,8,0:0:0:0:
256,192,74800,5,4,0:0:0:0:
96,96,74801,2,4,L|544:96,1,-1
96,96,74801,2,4,L|544:96,1,-1
96,96,74801,2,4,L|544:96,1,-1
256,192,74966,1,0,0:0:0:0:
256,192,75049,1,0,0:0:0:0:
256,192,75132,1,8,0:0:0:0:
256,192,75298,1,0,0:0:0:0:
256,192,75462,5,12,0:0:0:0:
96,96,75463,2,12,L|544:96,1,-1
96,96,75463,2,12,L|544:96,1,-1.5
96,96,75463,2,12,L|544:96,1,-2.5
96,96,75463,2,12,L|544:96,1,-0.5
96,96,75463,2,12,L|544:96,1,-3
96,96,75463,2,12,L|544:96,1,-3.5
96,96,75463,2,12,L|544:96,1,-2
256,192,75628,5,12,0:0:0:0:
96,96,75629,2,12,L|544:96,1,-3
96,96,75629,2,12,L|544:96,1,-3.5
96,96,75629,2,12,L|544:96,1,-2
96,96,75629,2,12,L|544:96,1,-0.5
96,96,75629,2,12,L|544:96,1,-1
96,96,75629,2,12,L|544:96,1,-1.5
96,96,75629,2,12,L|544:96,1,-2.5
256,192,75794,5,4,0:0:0:0:
96,96,75795,2,4,L|544:96,1,-3
96,96,75795,2,4,L|544:96,1,-3.5
96,96,75795,2,4,L|544:96,1,-2
96,96,75795,2,4,L|544:96,1,-0.5
96,96,75795,2,4,L|544:96,1,-1
96,96,75795,2,4,L|544:96,1,-1.5
96,96,75795,2,4,L|544:96,1,-2.5
256,192,75960,5,12,0:0:0:0:
96,96,75961,2,12,L|544:96,1,-1
96,96,75961,2,12,L|544:96,1,-1.5
96,96,75961,2,12,L|544:96,1,-2.5
96,96,75961,2,12,L|544:96,1,-0.5
96,96,75961,2,12,L|544:96,1,-3
96,96,75961,2,12,L|544:96,1,-3.5
96,96,75961,2,12,L|544:96,1,-2
256,192,76126,1,0,0:0:0:0:
256,192,76292,1,8,0:0:0:0:
256,192,76375,1,8,0:0:0:0:
256,192,76458,1,0,0:0:0:0:
256,192,76568,1,0,0:0:0:0:
256,192,76679,1,8,0:0:0:0:
256,192,76788,5,8,0:0:0:0:
96,96,76789,2,8,L|544:96,1,-1
96,96,76789,2,8,L|544:96,1,-1
256,192,76844,5,8,0:0:0:0:
96,96,76845,2,8,L|544:96,1,-1
96,96,76845,2,8,L|544:96,1,-1
256,192,76899,5,8,0:0:0:0:
96,96,76900,2,8,L|544:96,1,-1
96,96,76900,2,8,L|544:96,1,-1
256,192,76954,5,8,0:0:0:0:
96,96,76955,2,8,L|544:96,1,-1
96,96,76955,2,8,L|544:96,1,-1
256,192,77009,5,8,0:0:0:0:
96,96,77010,2,8,L|544:96,1,-1
96,96,77010,2,8,L|544:96,1,-1
256,192,77065,5,8,0:0:0:0:
96,96,77066,2,8,L|544:96,1,-1
96,96,77066,2,8,L|544:96,1,-1
256,192,77121,5,0,0:0:0:0:
96,96,77122,2,0,L|544:96,1,-1
96,96,77122,2,0,L|544:96,1,-1
256,192,77286,1,0,0:0:0:0:
256,192,77452,5,4,0:0:0:0:
96,96,77453,2,4,L|544:96,1,-1
96,96,77453,2,4,L|544:96,1,-1
96,96,77453,2,4,L|544:96,1,-1
256,192,77618,1,0,0:0:0:0:
256,192,77701,1,0,0:0:0:0:
256,192,77784,1,8,0:0:0:0:
256,192,77950,1,0,0:0:0:0:
256,192,78114,5,12,0:0:0:0:
96,96,78115,2,12,L|544:96,1,-1
96,96,78115,2,12,L|544:96,1,-1.5
96,96,78115,2,12,L|544:96,1,-2.5
96,96,78115,2,12,L|544:96,1,-0.5
96,96,78115,2,12,L|544:96,1,-3
96,96,78115,2,12,L|544:96,1,-3.5
96,96,78115,2,12,L|544:96,1,-2
256,192,78280,5,4,0:0:0:0:
96,96,78281,2,4,L|544:96,1,-1
96,96,78281,2,4,L|544:96,1,-1.5
96,96,78281,2,4,L|544:96,1,-2.5
96,96,78281,2,4,L|544:96,1,-0.5
96,96,78281,2,4,L|544:96,1,-3
96,96,78281,2,4,L|544:96,1,-3.5
96,96,78281,2,4,L|544:96,1,-2
256,192,78446,5,12,0:0:0:0:
96,96,78447,2,12,L|544:96,1,-3
96,96,78447,2,12,L|544:96,1,-3.5
96,96,78447,2,12,L|544:96,1,-2
96,96,78447,2,12,L|544:96,1,-0.5
96,96,78447,2,12,L|544:96,1,-1
96,96,78447,2,12,L|544:96,1,-1.5
96,96,78447,2,12,L|544:96,1,-2.5
256,192,78612,5,4,0:0:0:0:
96,96,78613,2,4,L|544:96,1,-3
96,96,78613,2,4,L|544:96,1,-3.5
96,96,78613,2,4,L|544:96,1,-2
96,96,78613,2,4,L|544:96,1,-0.5
96,96,78613,2,4,L|544:96,1,-1
96,96,78613,2,4,L|544:96,1,-1.5
96,96,78613,2,4,L|544:96,1,-2.5
256,192,78778,5,12,0:0:0:0:
96,96,78779,2,12,L|544:96,1,-1
96,96,78779,2,12,L|544:96,1,-1
96,96,78779,2,12,L|544:96,1,-1
256,192,78944,1,0,0:0:0:0:
256,192,79110,1,0,0:0:0:0:
256,192,79193,1,0,0:0:0:0:
256,192,79276,1,0,0:0:0:0:
256,192,79358,1,0,0:0:0:0:
256,192,79440,5,12,0:0:0:0:
96,96,79441,2,12,L|544:96,1,-1
96,96,79441,2,12,L|544:96,1,-1
96,96,79441,2,12,L|544:96,1,-1
256,192,79607,1,0,0:0:0:0:
256,192,79772,5,4,0:0:0:0:
96,96,79773,2,4,L|544:96,1,-1
96,96,79773,2,4,L|544:96,1,-1
96,96,79773,2,4,L|544:96,1,-1
96,96,79792,2,8,L|544:96,1,-800
96,96,79792,2,8,L|544:96,1,-700
96,96,79792,2,8,L|544:96,1,-1000
96,96,79792,2,8,L|544:96,1,-900
96,96,79792,2,8,L|544:96,1,-600
96,96,79792,2,8,L|544:96,1,-300
96,96,79792,2,8,L|544:96,1,-200
96,96,79792,2,8,L|544:96,1,-500
96,96,79792,2,8,L|544:96,1,-400
256,192,80104,5,4,0:0:0:0:
96,96,80105,2,4,L|544:96,1,-1
96,96,80105,2,4,L|544:96,1,-1
96,96,80105,2,4,L|544:96,1,-1
256,192,80270,1,0,0:0:0:0:
256,192,80353,1,0,0:0:0:0:
256,192,80436,1,8,0:0:0:0:
256,192,80602,1,0,0:0:0:0:
256,192,80766,5,12,0:0:0:0:
96,96,80767,2,12,L|544:96,1,-1
96,96,80767,2,12,L|544:96,1,-1.5
96,96,80767,2,12,L|544:96,1,-2.5
96,96,80767,2,12,L|544:96,1,-0.5
96,96,80767,2,12,L|544:96,1,-3
96,96,80767,2,12,L|544:96,1,-3.5
96,96,80767,2,12,L|544:96,1,-2
256,192,80933,1,0,0:0:0:0:
256,192,81098,5,12,0:0:0:0:
96,96,81099,2,12,L|544:96,1,-3
96,96,81099,2,12,L|544:96,1,-3.5
96,96,81099,2,12,L|544:96,1,-2
96,96,81099,2,12,L|544:96,1,-0.5
96,96,81099,2,12,L|544:96,1,-1
96,96,81099,2,12,L|544:96,1,-1.5
96,96,81099,2,12,L|544:96,1,-2.5
256,192,81265,1,8,0:0:0:0:
256,192,81347,1,8,0:0:0:0:
256,192,81429,5,4,0:0:0:0:
96,96,81430,2,4,L|544:96,1,-1
96,96,81430,2,4,L|544:96,1,-1.5
96,96,81430,2,4,L|544:96,1,-2.5
96,96,81430,2,4,L|544:96,1,-0.5
96,96,81430,2,4,L|544:96,1,-3
96,96,81430,2,4,L|544:96,1,-3.5
96,96,81430,2,4,L|544:96,1,-2
256,192,81596,1,0,0:0:0:0:
256,192,81679,1,0,0:0:0:0:
256,192,81761,5,12,0:0:0:0:
96,96,81762,2,12,L|544:96,1,-3
96,96,81762,2,12,L|544:96,1,-3.5
96,96,81762,2,12,L|544:96,1,-2
96,96,81762,2,12,L|544:96,1,-0.5
96,96,81762,2,12,L|544:96,1,-1
96,96,81762,2,12,L|544:96,1,-1.5
96,96,81762,2,12,L|544:96,1,-2.5
256,192,81928,1,8,0:0:0:0:
256,192,82093,1,0,0:0:0:0:
64,128,82094,2,4,L|160:128,1,-500
64,128,82094,2,4,L|160:128,1,-400
64,128,82094,2,4,L|160:128,1,-300
64,128,82094,2,4,L|160:128,1,-200
64,128,82094,2,4,L|160:128,1,-100
64,128,82094,2,4,L|160:128,1,-50
64,128,82094,2,4,L|160:128,1,-150
64,128,82094,2,4,L|160:128,1,-250
64,128,82094,2,4,L|160:128,1,-350
64,128,82094,2,4,L|160:128,1,-450
64,128,82094,2,4,L|160:128,1,-550
64,128,82094,2,4,L|160:128,1,-600
256,192,82425,5,12,0:0:0:0:
96,96,82426,2,12,L|544:96,1,-3.5
96,96,82426,2,12,L|544:96,1,-3
96,96,82426,2,12,L|544:96,1,-4
96,96,82426,2,12,L|544:96,1,-5
96,96,82426,2,12,L|544:96,1,-4.5
96,96,82426,2,12,L|544:96,1,-1.5
96,96,82426,2,12,L|544:96,1,-1
96,96,82426,2,12,L|544:96,1,-2
96,96,82426,2,12,L|544:96,1,-0.5
96,96,82426,2,12,L|544:96,1,-2.5
256,192,82757,5,4,0:0:0:0:
96,96,82758,2,4,L|544:96,1,-1
96,96,82758,2,4,L|544:96,1,-3
96,96,82758,2,4,L|544:96,1,-3.5
96,96,82758,2,4,L|544:96,1,-2
64,128,82777,6,0,L|160:128,1,-325
64,128,82777,2,0,L|160:128,1,-275
64,128,82777,2,0,L|160:128,1,-425
64,128,82777,2,0,L|160:128,1,-375
64,128,82777,2,0,L|160:128,1,-125
64,128,82777,2,0,L|160:128,1,-75
64,128,82777,2,0,L|160:128,1,-225
64,128,82777,2,0,L|160:128,1,-175
64,128,82777,2,0,L|160:128,1,-475
64,128,82777,2,0,L|160:128,1,-450
64,128,82777,2,0,L|160:128,1,-350
64,128,82777,2,0,L|160:128,1,-600
64,128,82777,2,0,L|160:128,1,-550
64,128,82777,2,0,L|160:128,1,-575
64,128,82777,2,0,L|160:128,1,-525
64,128,82777,2,0,L|160:128,1,-250
64,128,82777,2,0,L|160:128,1,-150
96,96,82777,2,8,L|544:96,1,-1.5
96,96,82777,2,8,L|544:96,1,-4.5
96,96,82777,2,8,L|544:96,1,-2
96,96,82777,2,8,L|544:96,1,-1
96,96,82777,2,8,L|544:96,1,-3
96,96,82777,2,8,L|544:96,1,-3.5
96,96,82777,2,8,L|544:96,1,-5
96,96,82777,2,8,L|544:96,1,-4
96,96,82777,2,8,L|544:96,1,-0.5
64,128,82777,2,0,L|160:128,1,-100
64,128,82777,2,0,L|160:128,1,-200
64,128,82777,2,0,L|160:128,1,-25
64,128,82777,2,0,L|160:128,1,-50
64,128,82777,2,0,L|160:128,1,-500
96,96,82777,2,8,L|544:96,1,-2.5
64,128,82777,2,0,L|160:128,1,-300
64,128,82777,2,0,L|160:128,1,-400
256,192,82922,5,4,0:0:0:0:
96,96,82923,2,4,L|544:96,1,-1
96,96,82923,2,4,L|544:96,1,-1.5
96,96,82923,2,4,L|544:96,1,-3.5
96,96,82923,2,4,L|544:96,1,-2
256,192,83088,5,12,0:0:0:0:
96,96,83089,2,12,L|544:96,1,-1
96,96,83089,2,12,L|544:96,1,-3
96,96,83089,2,12,L|544:96,1,-3.5
96,96,83089,2,12,L|544:96,1,-2
256,192,83254,5,4,0:0:0:0:
96,96,83255,2,4,L|544:96,1,-1
96,96,83255,2,4,L|544:96,1,-1.5
96,96,83255,2,4,L|544:96,1,-2.5
96,96,83255,2,4,L|544:96,1,-2
256,192,83419,5,12,0:0:0:0:
96,96,83420,2,12,L|544:96,1,-1
96,96,83420,2,12,L|544:96,1,-3
96,96,83420,2,12,L|544:96,1,-3.5
96,96,83420,2,12,L|544:96,1,-2
64,128,83440,6,0,L|160:128,1,-325
64,128,83440,2,0,L|160:128,1,-275
64,128,83440,2,0,L|160:128,1,-425
64,128,83440,2,0,L|160:128,1,-375
64,128,83440,2,0,L|160:128,1,-125
64,128,83440,2,0,L|160:128,1,-75
64,128,83440,2,0,L|160:128,1,-225
64,128,83440,2,0,L|160:128,1,-175
64,128,83440,2,0,L|160:128,1,-475
64,128,83440,2,0,L|160:128,1,-450
64,128,83440,2,0,L|160:128,1,-350
64,128,83440,2,0,L|160:128,1,-600
64,128,83440,2,0,L|160:128,1,-550
64,128,83440,2,0,L|160:128,1,-575
64,128,83440,2,0,L|160:128,1,-525
64,128,83440,2,0,L|160:128,1,-250
64,128,83440,2,0,L|160:128,1,-150
96,96,83440,2,8,L|544:96,1,-1.5
96,96,83440,2,8,L|544:96,1,-4.5
96,96,83440,2,8,L|544:96,1,-2
96,96,83440,2,8,L|544:96,1,-1
96,96,83440,2,8,L|544:96,1,-3
96,96,83440,2,8,L|544:96,1,-3.5
96,96,83440,2,8,L|544:96,1,-5
96,96,83440,2,8,L|544:96,1,-4
96,96,83440,2,8,L|544:96,1,-0.5
64,128,83440,2,0,L|160:128,1,-100
64,128,83440,2,0,L|160:128,1,-200
64,128,83440,2,0,L|160:128,1,-25
64,128,83440,2,0,L|160:128,1,-50
64,128,83440,2,0,L|160:128,1,-500
96,96,83440,2,8,L|544:96,1,-2.5
64,128,83440,2,0,L|160:128,1,-300
64,128,83440,2,0,L|160:128,1,-400
256,192,83585,5,12,0:0:0:0:
96,96,83586,2,12,L|544:96,1,-3
96,96,83586,2,12,L|544:96,1,-1
96,96,83586,2,12,L|544:96,1,-1.5
96,96,83586,2,12,L|544:96,1,-2.5
256,192,83751,5,4,0:0:0:0:
96,96,83752,2,4,L|544:96,1,-3
96,96,83752,2,4,L|544:96,1,-0.5
96,96,83752,2,4,L|544:96,1,-1
96,96,83752,2,4,L|544:96,1,-1.5
256,192,83917,5,4,0:0:0:0:
96,96,83918,2,4,L|544:96,1,-1
96,96,83918,2,4,L|544:96,1,-1.5
96,96,83918,2,4,L|544:96,1,-2.5
96,96,83918,2,4,L|544:96,1,-0.5
96,96,84103,6,8,L|544:96,1,-3.5
96,96,84103,2,8,L|544:96,1,-3
96,96,84103,2,8,L|544:96,1,-4
96,96,84103,2,8,L|544:96,1,-5
96,96,84103,2,8,L|544:96,1,-4.5
96,96,84103,2,8,L|544:96,1,-1.5
96,96,84103,2,8,L|544:96,1,-1
96,96,84103,2,8,L|544:96,1,-2
96,96,84103,2,8,L|544:96,1,-0.5
96,96,84103,2,8,L|544:96,1,-2.5
64,128,84103,2,0,L|160:128,1,-500
64,128,84103,2,0,L|160:128,1,-400
64,128,84103,2,0,L|160:128,1,-300
64,128,84103,2,0,L|160:128,1,-200
64,128,84103,2,0,L|160:128,1,-100
64,128,84103,2,0,L|160:128,1,-50
64,128,84103,2,0,L|160:128,1,-25
64,128,84103,2,0,L|160:128,1,-75
64,128,84103,2,0,L|160:128,1,-125
64,128,84103,2,0,L|160:128,1,-175
64,128,84103,2,0,L|160:128,1,-225
64,128,84103,2,0,L|160:128,1,-275
64,128,84103,2,0,L|160:128,1,-325
64,128,84103,2,0,L|160:128,1,-375
64,128,84103,2,0,L|160:128,1,-425
64,128,84103,2,0,L|160:128,1,-475
64,128,84103,2,0,L|160:128,1,-525
64,128,84103,2,0,L|160:128,1,-575
64,128,84103,2,0,L|160:128,1,-150
64,128,84103,2,0,L|160:128,1,-250
64,128,84103,2,0,L|160:128,1,-350
64,128,84103,2,0,L|160:128,1,-450
64,128,84103,2,0,L|160:128,1,-550
64,128,84103,2,0,L|160:128,1,-600
256,192,84248,5,4,0:0:0:0:
96,96,84249,2,4,L|544:96,1,-3
96,96,84249,2,4,L|544:96,1,-3.5
96,96,84249,2,4,L|544:96,1,-2
96,96,84249,2,4,L|544:96,1,-2.5
256,192,84414,5,12,0:0:0:0:
96,96,84415,2,12,L|544:96,1,-1
96,96,84415,2,12,L|544:96,1,-1.5
96,96,84415,2,12,L|544:96,1,-2.5
96,96,84415,2,12,L|544:96,1,-0.5
256,192,84580,5,4,0:0:0:0:
96,96,84581,2,4,L|544:96,1,-3
96,96,84581,2,4,L|544:96,1,-3.5
96,96,84581,2,4,L|544:96,1,-2
96,96,84581,2,4,L|544:96,1,-2.5
256,192,84745,5,12,0:0:0:0:
96,96,84746,2,12,L|544:96,1,-1
96,96,84746,2,12,L|544:96,1,-1.5
96,96,84746,2,12,L|544:96,1,-3.5
96,96,84746,2,12,L|544:96,1,-2
96,96,84766,6,8,L|544:96,1,-3.5
96,96,84766,2,8,L|544:96,1,-3
96,96,84766,2,8,L|544:96,1,-4
96,96,84766,2,8,L|544:96,1,-5
96,96,84766,2,8,L|544:96,1,-4.5
96,96,84766,2,8,L|544:96,1,-1.5
96,96,84766,2,8,L|544:96,1,-1
96,96,84766,2,8,L|544:96,1,-2
96,96,84766,2,8,L|544:96,1,-0.5
96,96,84766,2,8,L|544:96,1,-2.5
64,128,84766,2,0,L|160:128,1,-500
64,128,84766,2,0,L|160:128,1,-400
64,128,84766,2,0,L|160:128,1,-300
64,128,84766,2,0,L|160:128,1,-200
64,128,84766,2,0,L|160:128,1,-100
64,128,84766,2,0,L|160:128,1,-50
64,128,84766,2,0,L|160:128,1,-25
64,128,84766,2,0,L|160:128,1,-75
64,128,84766,2,0,L|160:128,1,-125
64,128,84766,2,0,L|160:128,1,-175
64,128,84766,2,0,L|160:128,1,-225
64,128,84766,2,0,L|160:128,1,-275
64,128,84766,2,0,L|160:128,1,-325
64,128,84766,2,0,L|160:128,1,-375
64,128,84766,2,0,L|160:128,1,-425
64,128,84766,2,0,L|160:128,1,-475
64,128,84766,2,0,L|160:128,1,-525
64,128,84766,2,0,L|160:128,1,-575
64,128,84766,2,0,L|160:128,1,-150
64,128,84766,2,0,L|160:128,1,-250
64,128,84766,2,0,L|160:128,1,-350
64,128,84766,2,0,L|160:128,1,-450
64,128,84766,2,0,L|160:128,1,-550
64,128,84766,2,0,L|160:128,1,-600
256,192,84828,5,12,0:0:0:0:
96,96,84829,2,12,L|544:96,1,-1
96,96,84829,2,12,L|544:96,1,-3
96,96,84829,2,12,L|544:96,1,-3.5
96,96,84829,2,12,L|544:96,1,-2
256,192,84911,5,12,0:0:0:0:
96,96,84912,2,12,L|544:96,1,-3
96,96,84912,2,12,L|544:96,1,-3.5
96,96,84912,2,12,L|544:96,1,-1.5
96,96,84912,2,12,L|544:96,1,-2.5
256,192,84994,5,12,0:0:0:0:
96,96,84995,2,12,L|544:96,1,-1
96,96,84995,2,12,L|544:96,1,-1.5
96,96,84995,2,12,L|544:96,1,-3.5
96,96,84995,2,12,L|544:96,1,-2
256,192,85077,5,4,0:0:0:0:
96,96,85078,2,4,L|544:96,1,-3
96,96,85078,2,4,L|544:96,1,-1
96,96,85078,2,4,L|544:96,1,-1.5
96,96,85078,2,4,L|544:96,1,-2.5
256,192,85408,5,4,0:0:0:0:
96,96,85409,2,4,L|544:96,1,-1
96,96,85409,2,4,L|544:96,1,-1.5
96,96,85409,2,4,L|544:96,1,-2.5
96,96,85409,2,4,L|544:96,1,-2
96,96,85429,6,8,L|544:96,1,-3.5
96,96,85429,2,8,L|544:96,1,-3
96,96,85429,2,8,L|544:96,1,-4
96,96,85429,2,8,L|544:96,1,-5
96,96,85429,2,8,L|544:96,1,-4.5
96,96,85429,2,8,L|544:96,1,-1.5
96,96,85429,2,8,L|544:96,1,-1
96,96,85429,2,8,L|544:96,1,-2
96,96,85429,2,8,L|544:96,1,-0.5
96,96,85429,2,8,L|544:96,1,-2.5
64,128,85429,2,0,L|160:128,1,-500
64,128,85429,2,0,L|160:128,1,-400
64,128,85429,2,0,L|160:128,1,-300
64,128,85429,2,0,L|160:128,1,-200
64,128,85429,2,0,L|160:128,1,-100
64,128,85429,2,0,L|160:128,1,-50
64,128,85429,2,0,L|160:128,1,-25
64,128,85429,2,0,L|160:128,1,-75
64,128,85429,2,0,L|160:128,1,-125
64,128,85429,2,0,L|160:128,1,-175
64,128,85429,2,0,L|160:128,1,-225
64,128,85429,2,0,L|160:128,1,-275
64,128,85429,2,0,L|160:128,1,-325
64,128,85429,2,0,L|160:128,1,-375
64,128,85429,2,0,L|160:128,1,-425
64,128,85429,2,0,L|160:128,1,-475
64,128,85429,2,0,L|160:128,1,-525
64,128,85429,2,0,L|160:128,1,-575
64,128,85429,2,0,L|160:128,1,-150
64,128,85429,2,0,L|160:128,1,-250
64,128,85429,2,0,L|160:128,1,-350
64,128,85429,2,0,L|160:128,1,-450
64,128,85429,2,0,L|160:128,1,-550
64,128,85429,2,0,L|160:128,1,-600
256,192,85574,5,4,0:0:0:0:
96,96,85575,2,4,L|544:96,1,-3
96,96,85575,2,4,L|544:96,1,-3.5
96,96,85575,2,4,L|544:96,1,-2
96,96,85575,2,4,L|544:96,1,-2.5
256,192,85740,5,12,0:0:0:0:
96,96,85741,2,12,L|544:96,1,-1
96,96,85741,2,12,L|544:96,1,-3
96,96,85741,2,12,L|544:96,1,-3.5
96,96,85741,2,12,L|544:96,1,-2
256,192,85906,5,4,0:0:0:0:
96,96,85907,2,4,L|544:96,1,-3
96,96,85907,2,4,L|544:96,1,-1
96,96,85907,2,4,L|544:96,1,-1.5
96,96,85907,2,4,L|544:96,1,-2.5
256,192,86071,5,12,0:0:0:0:
96,96,86072,2,12,L|544:96,1,-1
96,96,86072,2,12,L|544:96,1,-1.5
96,96,86072,2,12,L|544:96,1,-2.5
96,96,86072,2,12,L|544:96,1,-2
96,96,86092,6,8,L|544:96,1,-3.5
96,96,86092,2,8,L|544:96,1,-3
96,96,86092,2,8,L|544:96,1,-4
96,96,86092,2,8,L|544:96,1,-5
96,96,86092,2,8,L|544:96,1,-4.5
96,96,86092,2,8,L|544:96,1,-1.5
96,96,86092,2,8,L|544:96,1,-1
96,96,86092,2,8,L|544:96,1,-2
96,96,86092,2,8,L|544:96,1,-0.5
96,96,86092,2,8,L|544:96,1,-2.5
64,128,86092,2,0,L|160:128,1,-500
64,128,86092,2,0,L|160:128,1,-400
64,128,86092,2,0,L|160:128,1,-300
64,128,86092,2,0,L|160:128,1,-200
64,128,86092,2,0,L|160:128,1,-100
64,128,86092,2,0,L|160:128,1,-50
64,128,86092,2,0,L|160:128,1,-25
64,128,86092,2,0,L|160:128,1,-75
64,128,86092,2,0,L|160:128,1,-125
64,128,86092,2,0,L|160:128,1,-175
64,128,86092,2,0,L|160:128,1,-225
64,128,86092,2,0,L|160:128,1,-275
64,128,86092,2,0,L|160:128,1,-325
64,128,86092,2,0,L|160:128,1,-375
64,128,86092,2,0,L|160:128,1,-425
64,128,86092,2,0,L|160:128,1,-475
64,128,86092,2,0,L|160:128,1,-525
64,128,86092,2,0,L|160:128,1,-575
64,128,86092,2,0,L|160:128,1,-150
64,128,86092,2,0,L|160:128,1,-250
64,128,86092,2,0,L|160:128,1,-350
64,128,86092,2,0,L|160:128,1,-450
64,128,86092,2,0,L|160:128,1,-550
64,128,86092,2,0,L|160:128,1,-600
256,192,86154,5,12,0:0:0:0:
96,96,86155,2,12,L|544:96,1,-3
96,96,86155,2,12,L|544:96,1,-3.5
96,96,86155,2,12,L|544:96,1,-2
96,96,86155,2,12,L|544:96,1,-2.5
256,192,86237,5,4,0:0:0:0:
96,96,86238,2,4,L|544:96,1,-1
96,96,86238,2,4,L|544:96,1,-1.5
96,96,86238,2,4,L|544:96,1,-3.5
96,96,86238,2,4,L|544:96,1,-2
256,192,86320,5,4,0:0:0:0:
96,96,86321,2,4,L|544:96,1,-3
96,96,86321,2,4,L|544:96,1,-3.5
96,96,86321,2,4,L|544:96,1,-1.5
96,96,86321,2,4,L|544:96,1,-2.5
256,192,86403,5,12,0:0:0:0:
96,96,86404,2,12,L|544:96,1,-1
96,96,86404,2,12,L|544:96,1,-1.5
96,96,86404,2,12,L|544:96,1,-3.5
96,96,86404,2,12,L|544:96,1,-2
256,192,86569,5,4,0:0:0:0:
96,96,86570,2,4,L|544:96,1,-3
96,96,86570,2,4,L|544:96,1,-1
96,96,86570,2,4,L|544:96,1,-1.5
96,96,86570,2,4,L|544:96,1,-2.5
96,96,86755,6,8,L|544:96,1,-3.5
96,96,86755,2,8,L|544:96,1,-3
96,96,86755,2,8,L|544:96,1,-4
96,96,86755,2,8,L|544:96,1,-5
96,96,86755,2,8,L|544:96,1,-4.5
96,96,86755,2,8,L|544:96,1,-1.5
96,96,86755,2,8,L|544:96,1,-1
96,96,86755,2,8,L|544:96,1,-2
96,96,86755,2,8,L|544:96,1,-0.5
96,96,86755,2,8,L|544:96,1,-2.5
64,128,86755,2,0,L|160:128,1,-500
64,128,86755,2,0,L|160:128,1,-400
64,128,86755,2,0,L|160:128,1,-300
64,128,86755,2,0,L|160:128,1,-200
64,128,86755,2,0,L|160:128,1,-100
64,128,86755,2,0,L|160:128,1,-50
64,128,86755,2,0,L|160:128,1,-25
64,128,86755,2,0,L|160:128,1,-75
64,128,86755,2,0,L|160:128,1,-125
64,128,86755,2,0,L|160:128,1,-175
64,128,86755,2,0,L|160:128,1,-225
64,128,86755,2,0,L|160:128,1,-275
64,128,86755,2,0,L|160:128,1,-325
64,128,86755,2,0,L|160:128,1,-375
64,128,86755,2,0,L|160:128,1,-425
64,128,86755,2,0,L|160:128,1,-475
64,128,86755,2,0,L|160:128,1,-525
64,128,86755,2,0,L|160:128,1,-575
64,128,86755,2,0,L|160:128,1,-150
64,128,86755,2,0,L|160:128,1,-250
64,128,86755,2,0,L|160:128,1,-350
64,128,86755,2,0,L|160:128,1,-450
64,128,86755,2,0,L|160:128,1,-550
64,128,86755,2,0,L|160:128,1,-600
256,192,86900,5,12,0:0:0:0:
96,96,86901,2,12,L|544:96,1,-1
96,96,86901,2,12,L|544:96,1,-1.5
96,96,86901,2,12,L|544:96,1,-3.5
96,96,86901,2,12,L|544:96,1,-2
256,192,87066,5,4,0:0:0:0:
96,96,87067,2,4,L|544:96,1,-1
96,96,87067,2,4,L|544:96,1,-3
96,96,87067,2,4,L|544:96,1,-3.5
96,96,87067,2,4,L|544:96,1,-2
256,192,87232,5,12,0:0:0:0:
96,96,87233,2,12,L|544:96,1,-3
96,96,87233,2,12,L|544:96,1,-1
96,96,87233,2,12,L|544:96,1,-1.5
96,96,87233,2,12,L|544:96,1,-2.5
256,192,87397,5,12,0:0:0:0:
96,96,87398,2,12,L|544:96,1,-1
96,96,87398,2,12,L|544:96,1,-1.5
96,96,87398,2,12,L|544:96,1,-3.5
96,96,87398,2,12,L|544:96,1,-2
96,96,87418,6,8,L|544:96,1,-3.5
96,96,87418,2,8,L|544:96,1,-3
96,96,87418,2,8,L|544:96,1,-4
96,96,87418,2,8,L|544:96,1,-5
96,96,87418,2,8,L|544:96,1,-4.5
96,96,87418,2,8,L|544:96,1,-1.5
96,96,87418,2,8,L|544:96,1,-1
96,96,87418,2,8,L|544:96,1,-2
96,96,87418,2,8,L|544:96,1,-0.5
96,96,87418,2,8,L|544:96,1,-2.5
64,128,87418,2,0,L|160:128,1,-500
64,128,87418,2,0,L|160:128,1,-400
64,128,87418,2,0,L|160:128,1,-300
64,128,87418,2,0,L|160:128,1,-200
64,128,87418,2,0,L|160:128,1,-100
64,128,87418,2,0,L|160:128,1,-50
64,128,87418,2,0,L|160:128,1,-25
64,128,87418,2,0,L|160:128,1,-75
64,128,87418,2,0,L|160:128,1,-125
64,128,87418,2,0,L|160:128,1,-175
64,128,87418,2,0,L|160:128,1,-225
64,128,87418,2,0,L|160:128,1,-275
64,128,87418,2,0,L|160:128,1,-325
64,128,87418,2,0,L|160:128,1,-375
64,128,87418,2,0,L|160:128,1,-425
64,128,87418,2,0,L|160:128,1,-475
64,128,87418,2,0,L|160:128,1,-525
64,128,87418,2,0,L|160:128,1,-575
64,128,87418,2,0,L|160:128,1,-150
64,128,87418,2,0,L|160:128,1,-250
64,128,87418,2,0,L|160:128,1,-350
64,128,87418,2,0,L|160:128,1,-450
64,128,87418,2,0,L|160:128,1,-550
64,128,87418,2,0,L|160:128,1,-600
256,192,87508,5,12,0:0:0:0:
96,96,87509,2,12,L|544:96,1,-3
96,96,87509,2,12,L|544:96,1,-3.5
96,96,87509,2,12,L|544:96,1,-2
96,96,87509,2,12,L|544:96,1,-0.5
256,192,87618,5,12,0:0:0:0:
96,96,87619,2,12,L|544:96,1,-1
96,96,87619,2,12,L|544:96,1,-1.5
96,96,87619,2,12,L|544:96,1,-2.5
96,96,87619,2,12,L|544:96,1,-0.5
256,192,87729,5,4,0:0:0:0:
96,96,87730,2,4,L|544:96,1,-3
96,96,87730,2,4,L|544:96,1,-3.5
96,96,87730,2,4,L|544:96,1,-1.5
96,96,87730,2,4,L|544:96,1,-2.5
256,192,87895,5,4,0:0:0:0:
96,96,87896,2,4,L|544:96,1,-1
96,96,87896,2,4,L|544:96,1,-1.5
96,96,87896,2,4,L|544:96,1,-2.5
96,96,87896,2,4,L|544:96,1,-2
256,192,88061,5,4,0:0:0:0:
96,96,88062,2,4,L|544:96,1,-3
96,96,88062,2,4,L|544:96,1,-3.5
96,96,88062,2,4,L|544:96,1,-2
96,96,88062,2,4,L|544:96,1,-2.5
96,96,88081,6,8,L|544:96,1,-3.5
96,96,88081,2,8,L|544:96,1,-3
96,96,88081,2,8,L|544:96,1,-4
96,96,88081,2,8,L|544:96,1,-5
96,96,88081,2,8,L|544:96,1,-4.5
96,96,88081,2,8,L|544:96,1,-1.5
96,96,88081,2,8,L|544:96,1,-1
96,96,88081,2,8,L|544:96,1,-2
96,96,88081,2,8,L|544:96,1,-0.5
96,96,88081,2,8,L|544:96,1,-2.5
64,128,88081,2,0,L|160:128,1,-500
64,128,88081,2,0,L|160:128,1,-400
64,128,88081,2,0,L|160:128,1,-300
64,128,88081,2,0,L|160:128,1,-200
64,128,88081,2,0,L|160:128,1,-100
64,128,88081,2,0,L|160:128,1,-50
64,128,88081,2,0,L|160:128,1,-25
64,128,88081,2,0,L|160:128,1,-75
64,128,88081,2,0,L|160:128,1,-125
64,128,88081,2,0,L|160:128,1,-175
64,128,88081,2,0,L|160:128,1,-225
64,128,88081,2,0,L|160:128,1,-275
64,128,88081,2,0,L|160:128,1,-325
64,128,88081,2,0,L|160:128,1,-375
64,128,88081,2,0,L|160:128,1,-425
64,128,88081,2,0,L|160:128,1,-475
64,128,88081,2,0,L|160:128,1,-525
64,128,88081,2,0,L|160:128,1,-575
64,128,88081,2,0,L|160:128,1,-150
64,128,88081,2,0,L|160:128,1,-250
64,128,88081,2,0,L|160:128,1,-350
64,128,88081,2,0,L|160:128,1,-450
64,128,88081,2,0,L|160:128,1,-550
64,128,88081,2,0,L|160:128,1,-600
256,192,88143,5,4,0:0:0:0:
96,96,88144,2,4,L|544:96,1,-1
96,96,88144,2,4,L|544:96,1,-1.5
96,96,88144,2,4,L|544:96,1,-3.5
96,96,88144,2,4,L|544:96,1,-2
256,192,88226,5,4,0:0:0:0:
96,96,88227,2,4,L|544:96,1,-3
96,96,88227,2,4,L|544:96,1,-1
96,96,88227,2,4,L|544:96,1,-1.5
96,96,88227,2,4,L|544:96,1,-2.5
256,192,88309,5,4,0:0:0:0:
96,96,88310,2,4,L|544:96,1,-1
96,96,88310,2,4,L|544:96,1,-1.5
96,96,88310,2,4,L|544:96,1,-2.5
96,96,88310,2,4,L|544:96,1,-2
256,192,88392,5,12,0:0:0:0:
96,96,88393,2,12,L|544:96,1,-3
96,96,88393,2,12,L|544:96,1,-1
96,96,88393,2,12,L|544:96,1,-1.5
96,96,88393,2,12,L|544:96,1,-2.5
256,192,88475,5,12,0:0:0:0:
96,96,88476,2,12,L|544:96,1,-1
96,96,88476,2,12,L|544:96,1,-1.5
96,96,88476,2,12,L|544:96,1,-3.5
96,96,88476,2,12,L|544:96,1,-2
256,192,88558,5,4,0:0:0:0:
96,96,88559,2,4,L|544:96,1,-3
96,96,88559,2,4,L|544:96,1,-1
96,96,88559,2,4,L|544:96,1,-1.5
96,96,88559,2,4,L|544:96,1,-2.5
256,192,88640,5,4,0:0:0:0:
96,96,88641,2,4,L|544:96,1,-1
96,96,88641,2,4,L|544:96,1,-1.5
96,96,88641,2,4,L|544:96,1,-2.5
96,96,88641,2,4,L|544:96,1,-2
256,192,88723,5,12,0:0:0:0:
96,96,88724,2,12,L|544:96,1,-3
96,96,88724,2,12,L|544:96,1,-3.5
96,96,88724,2,12,L|544:96,1,-1.5
96,96,88724,2,12,L|544:96,1,-2.5
96,96,88744,6,8,L|544:96,1,-3.5
96,96,88744,2,8,L|544:96,1,-3
96,96,88744,2,8,L|544:96,1,-4
96,96,88744,2,8,L|544:96,1,-5
96,96,88744,2,8,L|544:96,1,-4.5
96,96,88744,2,8,L|544:96,1,-1.5
96,96,88744,2,8,L|544:96,1,-1
96,96,88744,2,8,L|544:96,1,-2
96,96,88744,2,8,L|544:96,1,-0.5
96,96,88744,2,8,L|544:96,1,-2.5
64,128,88744,2,0,L|160:128,1,-500
64,128,88744,2,0,L|160:128,1,-400
64,128,88744,2,0,L|160:128,1,-300
64,128,88744,2,0,L|160:128,1,-200
64,128,88744,2,0,L|160:128,1,-100
64,128,88744,2,0,L|160:128,1,-50
64,128,88744,2,0,L|160:128,1,-25
64,128,88744,2,0,L|160:128,1,-75
64,128,88744,2,0,L|160:128,1,-125
64,128,88744,2,0,L|160:128,1,-175
64,128,88744,2,0,L|160:128,1,-225
64,128,88744,2,0,L|160:128,1,-275
64,128,88744,2,0,L|160:128,1,-325
64,128,88744,2,0,L|160:128,1,-375
64,128,88744,2,0,L|160:128,1,-425
64,128,88744,2,0,L|160:128,1,-475
64,128,88744,2,0,L|160:128,1,-525
64,128,88744,2,0,L|160:128,1,-575
64,128,88744,2,0,L|160:128,1,-150
64,128,88744,2,0,L|160:128,1,-250
64,128,88744,2,0,L|160:128,1,-350
64,128,88744,2,0,L|160:128,1,-450
64,128,88744,2,0,L|160:128,1,-550
64,128,88744,2,0,L|160:128,1,-600
256,192,88806,5,12,0:0:0:0:
96,96,88807,2,12,L|544:96,1,-1
96,96,88807,2,12,L|544:96,1,-1.5
96,96,88807,2,12,L|544:96,1,-3.5
96,96,88807,2,12,L|544:96,1,-2
256,192,88889,5,12,0:0:0:0:
96,96,88890,2,12,L|544:96,1,-3
96,96,88890,2,12,L|544:96,1,-3.5
96,96,88890,2,12,L|544:96,1,-1.5
96,96,88890,2,12,L|544:96,1,-2.5
256,192,88972,5,12,0:0:0:0:
96,96,88973,2,12,L|544:96,1,-1
96,96,88973,2,12,L|544:96,1,-1.5
96,96,88973,2,12,L|544:96,1,-3.5
96,96,88973,2,12,L|544:96,1,-2
256,192,89055,5,4,0:0:0:0:
96,96,89056,2,4,L|544:96,1,-3
96,96,89056,2,4,L|544:96,1,-1
96,96,89056,2,4,L|544:96,1,-1.5
96,96,89056,2,4,L|544:96,1,-2.5
256,192,89138,5,4,0:0:0:0:
96,96,89139,2,4,L|544:96,1,-1
96,96,89139,2,4,L|544:96,1,-1.5
96,96,89139,2,4,L|544:96,1,-3.5
96,96,89139,2,4,L|544:96,1,-2
256,192,89221,5,4,0:0:0:0:
96,96,89222,2,4,L|544:96,1,-3
96,96,89222,2,4,L|544:96,1,-3.5
96,96,89222,2,4,L|544:96,1,-1.5
96,96,89222,2,4,L|544:96,1,-2.5
256,192,89303,5,4,0:0:0:0:
96,96,89304,2,4,L|544:96,1,-1
96,96,89304,2,4,L|544:96,1,-1.5
96,96,89304,2,4,L|544:96,1,-3.5
96,96,89304,2,4,L|544:96,1,-2
256,192,89386,5,12,0:0:0:0:
96,96,89387,2,12,L|544:96,1,-3
96,96,89387,2,12,L|544:96,1,-3.5
96,96,89387,2,12,L|544:96,1,-1.5
96,96,89387,2,12,L|544:96,1,-2.5
64,128,89407,6,0,L|160:128,1,-325
96,96,89407,2,8,L|544:96,1,-5
96,96,89407,2,8,L|544:96,1,-3.5
96,96,89407,2,8,L|544:96,1,-0.5
96,96,89407,2,8,L|544:96,1,-4
96,96,89407,2,8,L|544:96,1,-2
96,96,89407,2,8,L|544:96,1,-4.5
96,96,89407,2,8,L|544:96,1,-3
96,96,89407,2,8,L|544:96,1,-1
96,96,89407,2,8,L|544:96,1,-2.5
64,128,89407,2,0,L|160:128,1,-500
64,128,89407,2,0,L|160:128,1,-400
64,128,89407,2,0,L|160:128,1,-300
64,128,89407,2,0,L|160:128,1,-200
64,128,89407,2,0,L|160:128,1,-100
64,128,89407,2,0,L|160:128,1,-50
64,128,89407,2,0,L|160:128,1,-25
96,96,89407,2,8,L|544:96,1,-1.5
64,128,89407,2,0,L|160:128,1,-225
64,128,89407,2,0,L|160:128,1,-75
64,128,89407,2,0,L|160:128,1,-475
64,128,89407,2,0,L|160:128,1,-175
64,128,89407,2,0,L|160:128,1,-425
64,128,89407,2,0,L|160:128,1,-275
64,128,89407,2,0,L|160:128,1,-125
64,128,89407,2,0,L|160:128,1,-375
64,128,89407,2,0,L|160:128,1,-525
64,128,89407,2,0,L|160:128,1,-575
64,128,89407,2,0,L|160:128,1,-150
64,128,89407,2,0,L|160:128,1,-250
64,128,89407,2,0,L|160:128,1,-350
64,128,89407,2,0,L|160:128,1,-450
64,128,89407,2,0,L|160:128,1,-550
64,128,89407,2,0,L|160:128,1,-600
256,192,89469,5,4,0:0:0:0:
96,96,89470,2,4,L|544:96,1,-1
96,96,89470,2,4,L|544:96,1,-3
96,96,89470,2,4,L|544:96,1,-3.5
96,96,89470,2,4,L|544:96,1,-2
256,192,89552,5,4,0:0:0:0:
96,96,89553,2,4,L|544:96,1,-3
96,96,89553,2,4,L|544:96,1,-3.5
96,96,89553,2,4,L|544:96,1,-1.5
96,96,89553,2,4,L|544:96,1,-2.5
256,192,89635,5,4,0:0:0:0:
96,96,89636,2,4,L|544:96,1,-1
96,96,89636,2,4,L|544:96,1,-1.5
96,96,89636,2,4,L|544:96,1,-3.5
96,96,89636,2,4,L|544:96,1,-2
256,192,89718,5,12,0:0:0:0:
96,96,89719,2,12,L|544:96,1,-3
96,96,89719,2,12,L|544:96,1,-3.5
96,96,89719,2,12,L|544:96,1,-2
96,96,89719,2,12,L|544:96,1,-2.5
256,192,89801,5,12,0:0:0:0:
96,96,89802,2,12,L|544:96,1,-1
96,96,89802,2,12,L|544:96,1,-3
96,96,89802,2,12,L|544:96,1,-3.5
96,96,89802,2,12,L|544:96,1,-2
256,192,89884,5,4,0:0:0:0:
96,96,89885,2,4,L|544:96,1,-3
96,96,89885,2,4,L|544:96,1,-3.5
96,96,89885,2,4,L|544:96,1,-1.5
96,96,89885,2,4,L|544:96,1,-2.5
256,192,89966,5,4,0:0:0:0:
96,96,89967,2,4,L|544:96,1,-1
96,96,89967,2,4,L|544:96,1,-1.5
96,96,89967,2,4,L|544:96,1,-2.5
96,96,89967,2,4,L|544:96,1,-2
256,192,90049,5,12,0:0:0:0:
96,96,90050,2,12,L|544:96,1,-3
96,96,90050,2,12,L|544:96,1,-3.5
96,96,90050,2,12,L|544:96,1,-2
96,96,90050,2,12,L|544:96,1,-2.5
64,128,90070,6,0,L|160:128,1,-325
64,128,90070,2,0,L|160:128,1,-275
64,128,90070,2,0,L|160:128,1,-425
64,128,90070,2,0,L|160:128,1,-375
64,128,90070,2,0,L|160:128,1,-125
64,128,90070,2,0,L|160:128,1,-75
64,128,90070,2,0,L|160:128,1,-225
64,128,90070,2,0,L|160:128,1,-175
64,128,90070,2,0,L|160:128,1,-475
64,128,90070,2,0,L|160:128,1,-450
64,128,90070,2,0,L|160:128,1,-350
64,128,90070,2,0,L|160:128,1,-600
64,128,90070,2,0,L|160:128,1,-550
64,128,90070,2,0,L|160:128,1,-575
64,128,90070,2,0,L|160:128,1,-525
64,128,90070,2,0,L|160:128,1,-250
64,128,90070,2,0,L|160:128,1,-150
96,96,90070,2,8,L|544:96,1,-1.5
96,96,90070,2,8,L|544:96,1,-4.5
96,96,90070,2,8,L|544:96,1,-2
96,96,90070,2,8,L|544:96,1,-1
96,96,90070,2,8,L|544:96,1,-3
96,96,90070,2,8,L|544:96,1,-3.5
96,96,90070,2,8,L|544:96,1,-5
96,96,90070,2,8,L|544:96,1,-4
96,96,90070,2,8,L|544:96,1,-0.5
64,128,90070,2,0,L|160:128,1,-100
64,128,90070,2,0,L|160:128,1,-200
64,128,90070,2,0,L|160:128,1,-25
64,128,90070,2,0,L|160:128,1,-50
64,128,90070,2,0,L|160:128,1,-500
96,96,90070,2,8,L|544:96,1,-2.5
64,128,90070,2,0,L|160:128,1,-300
64,128,90070,2,0,L|160:128,1,-400
256,192,90132,5,12,0:0:0:0:
96,96,90133,2,12,L|544:96,1,-1
96,96,90133,2,12,L|544:96,1,-1.5
96,96,90133,2,12,L|544:96,1,-2.5
96,96,90133,2,12,L|544:96,1,-2
256,192,90215,5,12,0:0:0:0:
96,96,90216,2,12,L|544:96,1,-3
96,96,90216,2,12,L|544:96,1,-3.5
96,96,90216,2,12,L|544:96,1,-2
96,96,90216,2,12,L|544:96,1,-0.5
256,192,90298,5,12,0:0:0:0:
96,96,90299,2,12,L|544:96,1,-1
96,96,90299,2,12,L|544:96,1,-1.5
96,96,90299,2,12,L|544:96,1,-2.5
96,96,90299,2,12,L|544:96,1,-0.5
256,192,90381,5,4,0:0:0:0:
96,96,90382,2,4,L|544:96,1,-3
96,96,90382,2,4,L|544:96,1,-3.5
96,96,90382,2,4,L|544:96,1,-2
96,96,90382,2,4,L|544:96,1,-0.5
256,192,90464,5,4,0:0:0:0:
96,96,90465,2,4,L|544:96,1,-1
96,96,90465,2,4,L|544:96,1,-1.5
96,96,90465,2,4,L|544:96,1,-2.5
96,96,90465,2,4,L|544:96,1,-0.5
256,192,90547,5,4,0:0:0:0:
96,96,90548,2,4,L|544:96,1,-3
96,96,90548,2,4,L|544:96,1,-3.5
96,96,90548,2,4,L|544:96,1,-2
96,96,90548,2,4,L|544:96,1,-0.5
256,192,90629,5,4,0:0:0:0:
96,96,90630,2,4,L|544:96,1,-1
96,96,90630,2,4,L|544:96,1,-1.5
96,96,90630,2,4,L|544:96,1,-2.5
96,96,90630,2,4,L|544:96,1,-0.5
256,192,90712,5,12,0:0:0:0:
96,96,90713,2,12,L|544:96,1,-3
96,96,90713,2,12,L|544:96,1,-3.5
96,96,90713,2,12,L|544:96,1,-2
96,96,90713,2,12,L|544:96,1,-0.5
64,128,90733,6,0,L|160:128,1,-325
64,128,90733,2,0,L|160:128,1,-275
64,128,90733,2,0,L|160:128,1,-425
64,128,90733,2,0,L|160:128,1,-375
64,128,90733,2,0,L|160:128,1,-125
64,128,90733,2,0,L|160:128,1,-75
64,128,90733,2,0,L|160:128,1,-225
64,128,90733,2,0,L|160:128,1,-175
64,128,90733,2,0,L|160:128,1,-475
64,128,90733,2,0,L|160:128,1,-450
64,128,90733,2,0,L|160:128,1,-350
64,128,90733,2,0,L|160:128,1,-600
64,128,90733,2,0,L|160:128,1,-550
64,128,90733,2,0,L|160:128,1,-575
64,128,90733,2,0,L|160:128,1,-525
64,128,90733,2,0,L|160:128,1,-250
64,128,90733,2,0,L|160:128,1,-150
96,96,90733,2,8,L|544:96,1,-1.5
96,96,90733,2,8,L|544:96,1,-4.5
96,96,90733,2,8,L|544:96,1,-2
96,96,90733,2,8,L|544:96,1,-1
96,96,90733,2,8,L|544:96,1,-3
96,96,90733,2,8,L|544:96,1,-3.5
96,96,90733,2,8,L|544:96,1,-5
96,96,90733,2,8,L|544:96,1,-4
96,96,90733,2,8,L|544:96,1,-0.5
64,128,90733,2,0,L|160:128,1,-100
64,128,90733,2,0,L|160:128,1,-200
64,128,90733,2,0,L|160:128,1,-25
64,128,90733,2,0,L|160:128,1,-50
64,128,90733,2,0,L|160:128,1,-500
96,96,90733,2,8,L|544:96,1,-2.5
64,128,90733,2,0,L|160:128,1,-300
64,128,90733,2,0,L|160:128,1,-400
256,192,90795,5,4,0:0:0:0:
96,96,90796,2,4,L|544:96,1,-1
96,96,90796,2,4,L|544:96,1,-1.5
96,96,90796,2,4,L|544:96,1,-2.5
96,96,90796,2,4,L|544:96,1,-0.5
256,192,90878,5,4,0:0:0:0:
96,96,90879,2,4,L|544:96,1,-3
96,96,90879,2,4,L|544:96,1,-3.5
96,96,90879,2,4,L|544:96,1,-2
96,96,90879,2,4,L|544:96,1,-0.5
256,192,90961,5,4,0:0:0:0:
96,96,90962,2,4,L|544:96,1,-1
96,96,90962,2,4,L|544:96,1,-1.5
96,96,90962,2,4,L|544:96,1,-2.5
96,96,90962,2,4,L|544:96,1,-0.5
256,192,91044,5,12,0:0:0:0:
96,96,91045,2,12,L|544:96,1,-3
96,96,91045,2,12,L|544:96,1,-3.5
96,96,91045,2,12,L|544:96,1,-2
96,96,91045,2,12,L|544:96,1,-0.5
256,192,91127,5,12,0:0:0:0:
96,96,91128,2,12,L|544:96,1,-1
96,96,91128,2,12,L|544:96,1,-1.5
96,96,91128,2,12,L|544:96,1,-2.5
96,96,91128,2,12,L|544:96,1,-3
256,192,91210,5,4,0:0:0:0:
96,96,91211,2,4,L|544:96,1,-3
96,96,91211,2,4,L|544:96,1,-3.5
96,96,91211,2,4,L|544:96,1,-2
96,96,91211,2,4,L|544:96,1,-0.5
256,192,91292,5,4,0:0:0:0:
96,96,91293,2,4,L|544:96,1,-1
96,96,91293,2,4,L|544:96,1,-1.5
96,96,91293,2,4,L|544:96,1,-2.5
96,96,91293,2,4,L|544:96,1,-0.5
256,192,91375,5,12,0:0:0:0:
96,96,91376,2,12,L|544:96,1,-3
96,96,91376,2,12,L|544:96,1,-3.5
96,96,91376,2,12,L|544:96,1,-2
96,96,91376,2,12,L|544:96,1,-0.5
64,128,91396,6,0,L|160:128,1,-325
64,128,91396,2,0,L|160:128,1,-275
64,128,91396,2,0,L|160:128,1,-425
64,128,91396,2,0,L|160:128,1,-375
64,128,91396,2,0,L|160:128,1,-125
64,128,91396,2,0,L|160:128,1,-75
64,128,91396,2,0,L|160:128,1,-225
64,128,91396,2,0,L|160:128,1,-175
64,128,91396,2,0,L|160:128,1,-475
64,128,91396,2,0,L|160:128,1,-450
64,128,91396,2,0,L|160:128,1,-350
64,128,91396,2,0,L|160:128,1,-600
64,128,91396,2,0,L|160:128,1,-550
64,128,91396,2,0,L|160:128,1,-575
64,128,91396,2,0,L|160:128,1,-525
64,128,91396,2,0,L|160:128,1,-250
64,128,91396,2,0,L|160:128,1,-150
96,96,91396,2,8,L|544:96,1,-1.5
96,96,91396,2,8,L|544:96,1,-4.5
96,96,91396,2,8,L|544:96,1,-2
96,96,91396,2,8,L|544:96,1,-1
96,96,91396,2,8,L|544:96,1,-3
96,96,91396,2,8,L|544:96,1,-3.5
96,96,91396,2,8,L|544:96,1,-5
96,96,91396,2,8,L|544:96,1,-4
96,96,91396,2,8,L|544:96,1,-0.5
64,128,91396,2,0,L|160:128,1,-100
64,128,91396,2,0,L|160:128,1,-200
64,128,91396,2,0,L|160:128,1,-25
64,128,91396,2,0,L|160:128,1,-50
64,128,91396,2,0,L|160:128,1,-500
96,96,91396,2,8,L|544:96,1,-2.5
64,128,91396,2,0,L|160:128,1,-300
64,128,91396,2,0,L|160:128,1,-400
256,192,91458,5,4,0:0:0:0:
96,96,91459,2,4,L|544:96,1,-1
96,96,91459,2,4,L|544:96,1,-1.5
96,96,91459,2,4,L|544:96,1,-2.5
96,96,91459,2,4,L|544:96,1,-0.5
256,192,91541,5,4,0:0:0:0:
96,96,91542,2,4,L|544:96,1,-3
96,96,91542,2,4,L|544:96,1,-3.5
96,96,91542,2,4,L|544:96,1,-2
96,96,91542,2,4,L|544:96,1,-0.5
256,192,91624,5,4,0:0:0:0:
96,96,91625,2,4,L|544:96,1,-1
96,96,91625,2,4,L|544:96,1,-1.5
96,96,91625,2,4,L|544:96,1,-2.5
96,96,91625,2,4,L|544:96,1,-0.5
256,192,91707,5,12,0:0:0:0:
96,96,91708,2,12,L|544:96,1,-3
96,96,91708,2,12,L|544:96,1,-3.5
96,96,91708,2,12,L|544:96,1,-2
96,96,91708,2,12,L|544:96,1,-0.5
256,192,91790,5,12,0:0:0:0:
96,96,91791,2,12,L|544:96,1,-1
96,96,91791,2,12,L|544:96,1,-1.5
96,96,91791,2,12,L|544:96,1,-2.5
96,96,91791,2,12,L|544:96,1,-0.5
256,192,91873,5,4,0:0:0:0:
96,96,91874,2,4,L|544:96,1,-3
96,96,91874,2,4,L|544:96,1,-3.5
96,96,91874,2,4,L|544:96,1,-2
96,96,91874,2,4,L|544:96,1,-0.5
256,192,91955,5,4,0:0:0:0:
96,96,91956,2,4,L|544:96,1,-1
96,96,91956,2,4,L|544:96,1,-1.5
96,96,91956,2,4,L|544:96,1,-2.5
96,96,91956,2,4,L|544:96,1,-0.5
256,192,92038,5,12,0:0:0:0:
96,96,92039,2,12,L|544:96,1,-3
96,96,92039,2,12,L|544:96,1,-3.5
96,96,92039,2,12,L|544:96,1,-2
96,96,92039,2,12,L|544:96,1,-2.5
64,128,92059,6,0,L|160:128,1,-325
64,128,92059,2,0,L|160:128,1,-275
64,128,92059,2,0,L|160:128,1,-425
64,128,92059,2,0,L|160:128,1,-375
64,128,92059,2,0,L|160:128,1,-125
64,128,92059,2,0,L|160:128,1,-75
64,128,92059,2,0,L|160:128,1,-225
64,128,92059,2,0,L|160:128,1,-175
64,128,92059,2,0,L|160:128,1,-475
64,128,92059,2,0,L|160:128,1,-450
64,128,92059,2,0,L|160:128,1,-350
64,128,92059,2,0,L|160:128,1,-600
64,128,92059,2,0,L|160:128,1,-550
64,128,92059,2,0,L|160:128,1,-575
64,128,92059,2,0,L|160:128,1,-525
64,128,92059,2,0,L|160:128,1,-250
64,128,92059,2,0,L|160:128,1,-150
96,96,92059,2,8,L|544:96,1,-1.5
96,96,92059,2,8,L|544:96,1,-4.5
96,96,92059,2,8,L|544:96,1,-2
96,96,92059,2,8,L|544:96,1,-1
96,96,92059,2,8,L|544:96,1,-3
96,96,92059,2,8,L|544:96,1,-3.5
96,96,92059,2,8,L|544:96,1,-5
96,96,92059,2,8,L|544:96,1,-4
96,96,92059,2,8,L|544:96,1,-0.5
64,128,92059,2,0,L|160:128,1,-100
64,128,92059,2,0,L|160:128,1,-200
64,128,92059,2,0,L|160:128,1,-25
64,128,92059,2,0,L|160:128,1,-50
64,128,92059,2,0,L|160:128,1,-500
96,96,92059,2,8,L|544:96,1,-2.5
64,128,92059,2,0,L|160:128,1,-300
64,128,92059,2,0,L|160:128,1,-400
256,192,92121,5,12,0:0:0:0:
96,96,92122,2,12,L|544:96,1,-1
96,96,92122,2,12,L|544:96,1,-1.5
96,96,92122,2,12,L|544:96,1,-2.5
96,96,92122,2,12,L|544:96,1,-0.5
256,192,92204,5,12,0:0:0:0:
96,96,92205,2,12,L|544:96,1,-3
96,96,92205,2,12,L|544:96,1,-3.5
96,96,92205,2,12,L|544:96,1,-2
96,96,92205,2,12,L|544:96,1,-0.5
256,192,92287,5,12,0:0:0:0:
96,96,92288,2,12,L|544:96,1,-1
96,96,92288,2,12,L|544:96,1,-1.5
96,96,92288,2,12,L|544:96,1,-2.5
96,96,92288,2,12,L|544:96,1,-0.5
256,192,92370,5,4,0:0:0:0:
96,96,92371,2,4,L|544:96,1,-3
96,96,92371,2,4,L|544:96,1,-3.5
96,96,92371,2,4,L|544:96,1,-2
96,96,92371,2,4,L|544:96,1,-0.5
256,192,92453,5,4,0:0:0:0:
96,96,92454,2,4,L|544:96,1,-1
96,96,92454,2,4,L|544:96,1,-1.5
96,96,92454,2,4,L|544:96,1,-2.5
96,96,92454,2,4,L|544:96,1,-0.5
256,192,92536,5,12,0:0:0:0:
96,96,92537,2,12,L|544:96,1,-3
96,96,92537,2,12,L|544:96,1,-3.5
96,96,92537,2,12,L|544:96,1,-2
96,96,92537,2,12,L|544:96,1,-0.5
256,192,92618,5,12,0:0:0:0:
96,96,92619,2,12,L|544:96,1,-1
96,96,92619,2,12,L|544:96,1,-1.5
96,96,92619,2,12,L|544:96,1,-2.5
96,96,92619,2,12,L|544:96,1,-0.5
256,192,92701,5,4,0:0:0:0:
96,96,92702,2,4,L|544:96,1,-3
96,96,92702,2,4,L|544:96,1,-3.5
96,96,92702,2,4,L|544:96,1,-2
96,96,92702,2,4,L|544:96,1,-0.5
64,128,92722,6,0,L|160:128,1,-325
64,128,92722,2,0,L|160:128,1,-275
64,128,92722,2,0,L|160:128,1,-425
64,128,92722,2,0,L|160:128,1,-375
64,128,92722,2,0,L|160:128,1,-125
64,128,92722,2,0,L|160:128,1,-225
64,128,92722,2,0,L|160:128,1,-175
64,128,92722,2,0,L|160:128,1,-475
64,128,92722,2,0,L|160:128,1,-450
64,128,92722,2,0,L|160:128,1,-350
64,128,92722,2,0,L|160:128,1,-600
64,128,92722,2,0,L|160:128,1,-550
64,128,92722,2,0,L|160:128,1,-575
64,128,92722,2,0,L|160:128,1,-525
64,128,92722,2,0,L|160:128,1,-250
64,128,92722,2,0,L|160:128,1,-150
96,96,92722,2,8,L|544:96,1,-1.5
96,96,92722,2,8,L|544:96,1,-4.5
96,96,92722,2,8,L|544:96,1,-2
96,96,92722,2,8,L|544:96,1,-1
96,96,92722,2,8,L|544:96,1,-3
96,96,92722,2,8,L|544:96,1,-3.5
96,96,92722,2,8,L|544:96,1,-5
96,96,92722,2,8,L|544:96,1,-4
96,96,92722,2,8,L|544:96,1,-0.5
64,128,92722,2,0,L|160:128,1,-100
64,128,92722,2,0,L|160:128,1,-200
64,128,92722,2,0,L|160:128,1,-25
64,128,92722,2,0,L|160:128,1,-50
64,128,92722,2,0,L|160:128,1,-500
96,96,92722,2,8,L|544:96,1,-2.5
64,128,92722,2,0,L|160:128,1,-300
64,128,92722,2,0,L|160:128,1,-400
64,128,92722,2,0,L|160:128,1,-75
256,192,93033,5,12,0:0:0:0:
96,96,93034,2,12,L|544:96,1,-4
96,96,93034,2,12,L|544:96,1,-3.5
96,96,93034,2,12,L|544:96,1,-4.5
96,96,93034,2,12,L|544:96,1,-1
96,96,93034,2,12,L|544:96,1,-5
96,96,93034,2,12,L|544:96,1,-2
96,96,93034,2,12,L|544:96,1,-1.5
96,96,93034,2,12,L|544:96,1,-2.5
96,96,93034,2,12,L|544:96,1,-3
96,96,93034,2,12,L|544:96,1,-0.5
256,192,93365,5,4,0:0:0:0:
96,96,93366,2,4,L|544:96,1,-4
96,96,93366,2,4,L|544:96,1,-3.5
96,96,93366,2,4,L|544:96,1,-4.5
96,96,93366,2,4,L|544:96,1,-1
96,96,93366,2,4,L|544:96,1,-5
96,96,93366,2,4,L|544:96,1,-2
96,96,93366,2,4,L|544:96,1,-1.5
96,96,93366,2,4,L|544:96,1,-2.5
96,96,93366,2,4,L|544:96,1,-3
96,96,93366,2,4,L|544:96,1,-0.5
256,192,93385,12,0,94690,0:0:0:0:
