osu file format v14

[General]
AudioFilename: Ryu - I'm so Happy.mp3
AudioLeadIn: 0
PreviewTime: 48298
Countdown: 0
SampleSet: Normal
StackLeniency: 0.7
Mode: 1
LetterboxInBreaks: 0
WidescreenStoryboard: 0

[Editor]
DistanceSpacing: 0.1
BeatDivisor: 4
GridSize: 32
TimelineZoom: 3.099999

[Metadata]
Title:I'm so Happy
TitleUnicode:I'm so Happy
Artist:Ryu*
ArtistUnicode:Ryu☆
Creator:Taka030
Version:Bya's So Fucking(No BigNote)
Source:jubeat knit
Tags:sdvx konami
BeatmapID:1573880
BeatmapSetID:746812

[Difficulty]
HPDrainRate:5
CircleSize:5
OverallDifficulty:0
ApproachRate:5
SliderMultiplier:1.4
SliderTickRate:1

[Events]
//Background and Video events
0,0,"I'm so Happy.png",0,0
//Break Periods
//Storyboard Layer 0 (Background)
//Storyboard Layer 1 (Fail)
//Storyboard Layer 2 (Pass)
//Storyboard Layer 3 (Foreground)
//Storyboard Sound Samples

[TimingPoints]
564,331.491712707182,4,1,0,100,1,0
37691,-100,4,1,0,100,0,1
58906,-100,4,1,0,100,0,0

[HitObjects]
256,192,564,5,0,0:0:0:0:
256,192,729,1,0,0:0:0:0:
256,192,895,5,2,0:0:0:0:
256,192,1226,1,0,0:0:0:0:
256,192,1309,1,0,0:0:0:0:
256,192,1392,1,0,0:0:0:0:
256,192,1558,1,2,0:0:0:0:
256,192,1889,1,2,0:0:0:0:
256,192,1972,1,0,0:0:0:0:
256,192,2055,1,0,0:0:0:0:
256,192,2138,1,0,0:0:0:0:
256,192,2221,1,2,0:0:0:0:
256,192,2304,1,0,0:0:0:0:
256,192,2387,1,0,0:0:0:0:
256,192,2470,1,0,0:0:0:0:
256,192,2552,1,2,0:0:0:0:
256,192,2718,1,0,0:0:0:0:
256,192,2884,1,2,0:0:0:0:
256,192,3215,1,2,0:0:0:0:
256,192,3381,1,0,0:0:0:0:
256,192,3464,1,0,0:0:0:0:
256,192,3547,1,2,0:0:0:0:
256,192,3713,1,0,0:0:0:0:
256,192,3878,1,2,0:0:0:0:
256,192,3961,1,0,0:0:0:0:
256,192,4044,1,0,0:0:0:0:
256,192,4127,1,2,0:0:0:0:
256,192,4293,1,0,0:0:0:0:
256,192,4376,1,2,0:0:0:0:
256,192,4541,1,0,0:0:0:0:
256,192,4624,1,0,0:0:0:0:
256,192,4707,1,2,0:0:0:0:
256,192,4790,1,0,0:0:0:0:
256,192,4873,1,0,0:0:0:0:
256,192,4956,1,2,0:0:0:0:
256,192,5039,1,0,0:0:0:0:
256,192,5204,1,2,0:0:0:0:
256,192,5287,1,0,0:0:0:0:
256,192,5370,1,0,0:0:0:0:
256,192,5453,1,2,0:0:0:0:
256,192,5536,1,0,0:0:0:0:
256,192,5619,1,2,0:0:0:0:
256,192,5702,1,0,0:0:0:0:
256,192,5784,1,2,0:0:0:0:
256,192,5867,1,0,0:0:0:0:
256,192,6033,1,2,0:0:0:0:
256,192,6116,1,2,0:0:0:0:
256,192,6199,1,0,0:0:0:0:
256,192,6365,1,2,0:0:0:0:
256,192,6530,1,0,0:0:0:0:
256,192,6613,1,0,0:0:0:0:
256,192,6696,1,2,0:0:0:0:
256,192,6779,1,0,0:0:0:0:
256,192,6862,1,2,0:0:0:0:
256,192,6945,1,2,0:0:0:0:
256,192,7028,1,0,0:0:0:0:
256,192,7193,1,2,0:0:0:0:
256,192,7276,1,0,0:0:0:0:
256,192,7359,1,0,0:0:0:0:
256,192,7442,1,0,0:0:0:0:
256,192,7525,1,2,0:0:0:0:
256,192,7608,1,2,0:0:0:0:
256,192,7691,1,0,0:0:0:0:
256,192,7856,1,2,0:0:0:0:
256,192,7939,1,2,0:0:0:0:
256,192,8022,1,0,0:0:0:0:
256,192,8105,1,0,0:0:0:0:
256,192,8188,1,2,0:0:0:0:
256,192,8271,1,2,0:0:0:0:
256,192,8354,1,0,0:0:0:0:
256,192,8436,1,0,0:0:0:0:
256,192,8519,1,2,0:0:0:0:
256,192,8685,1,0,0:0:0:0:
256,192,8768,1,2,0:0:0:0:
256,192,8851,1,0,0:0:0:0:
256,192,9017,1,2,0:0:0:0:
256,192,9182,1,0,0:0:0:0:
256,192,9265,1,0,0:0:0:0:
256,192,9348,1,2,0:0:0:0:
256,192,9431,1,2,0:0:0:0:
256,192,9514,1,0,0:0:0:0:
256,192,9597,1,0,0:0:0:0:
256,192,9680,1,2,0:0:0:0:
256,192,9845,1,0,0:0:0:0:
256,192,9928,1,0,0:0:0:0:
256,192,10011,1,2,0:0:0:0:
256,192,10094,1,0,0:0:0:0:
256,192,10177,1,2,0:0:0:0:
256,192,10260,1,2,0:0:0:0:
256,192,10343,1,0,0:0:0:0:
256,192,10425,1,2,0:0:0:0:
256,192,10508,1,0,0:0:0:0:
256,192,10591,1,0,0:0:0:0:
256,192,10674,1,2,0:0:0:0:
256,192,10757,1,0,0:0:0:0:
256,192,10840,1,2,0:0:0:0:
256,192,10923,1,2,0:0:0:0:
256,192,11005,1,0,0:0:0:0:
256,192,11171,1,2,0:0:0:0:
256,192,11337,1,0,0:0:0:0:
256,192,11420,1,0,0:0:0:0:
256,192,11503,1,2,0:0:0:0:
256,192,11668,1,0,0:0:0:0:
256,192,11834,1,2,0:0:0:0:
256,192,11917,1,2,0:0:0:0:
256,192,12000,1,0,0:0:0:0:
256,192,12083,1,2,0:0:0:0:
256,192,12166,1,0,0:0:0:0:
256,192,12249,1,0,0:0:0:0:
256,192,12331,1,0,0:0:0:0:
256,192,12414,1,0,0:0:0:0:
256,192,12497,1,2,0:0:0:0:
256,192,12580,1,2,0:0:0:0:
256,192,12663,1,2,0:0:0:0:
256,192,12746,1,2,0:0:0:0:
256,192,12829,1,0,0:0:0:0:
256,192,12912,1,0,0:0:0:0:
256,192,12994,1,2,0:0:0:0:
256,192,13160,1,0,0:0:0:0:
256,192,13243,1,0,0:0:0:0:
256,192,13326,1,2,0:0:0:0:
256,192,13409,1,0,0:0:0:0:
256,192,13492,1,0,0:0:0:0:
256,192,13575,1,2,0:0:0:0:
256,192,13657,1,0,0:0:0:0:
256,192,13823,1,2,0:0:0:0:
256,192,13989,1,0,0:0:0:0:
256,192,14155,1,2,0:0:0:0:
256,192,14320,1,0,0:0:0:0:
256,192,14486,1,2,0:0:0:0:
256,192,14569,1,0,0:0:0:0:
256,192,14652,1,2,0:0:0:0:
256,192,14735,1,2,0:0:0:0:
256,192,14818,1,0,0:0:0:0:
256,192,14983,1,2,0:0:0:0:
256,192,15149,1,0,0:0:0:0:
256,192,15481,1,0,0:0:0:0:
256,192,15646,1,0,0:0:0:0:
256,192,15978,1,2,0:0:0:0:
256,192,16144,12,0,17635,0:0:0:0:
256,192,17801,5,2,0:0:0:0:
256,192,18133,1,2,0:0:0:0:
256,192,18298,1,0,0:0:0:0:
256,192,18630,1,2,0:0:0:0:
256,192,18796,12,0,19127,0:0:0:0:
256,192,19293,5,0,0:0:0:0:
256,192,19376,1,0,0:0:0:0:
256,192,19459,1,0,0:0:0:0:
256,192,19624,12,0,20287,0:0:0:0:
256,192,20453,5,2,0:0:0:0:
256,192,20784,1,2,0:0:0:0:
256,192,20950,1,0,0:0:0:0:
256,192,21282,1,0,0:0:0:0:
256,192,21447,12,0,22939,0:0:0:0:
256,192,23105,5,2,0:0:0:0:
256,192,23436,1,2,0:0:0:0:
256,192,24099,1,0,0:0:0:0:
256,192,24431,1,0,0:0:0:0:
256,192,24762,1,2,0:0:0:0:
256,192,24928,12,0,25343,0:0:0:0:
256,192,25425,5,2,0:0:0:0:
256,192,25757,5,2,0:0:0:0:
256,192,25840,1,2,0:0:0:0:
256,192,25923,1,2,0:0:0:0:
256,192,26088,1,0,0:0:0:0:
256,192,26254,1,2,0:0:0:0:
256,192,26337,1,2,0:0:0:0:
256,192,26420,1,2,0:0:0:0:
256,192,26503,1,2,0:0:0:0:
256,192,26586,1,0,0:0:0:0:
256,192,26751,1,2,0:0:0:0:
256,192,26917,1,0,0:0:0:0:
256,192,27083,1,0,0:0:0:0:
256,192,27166,1,2,0:0:0:0:
256,192,27249,1,0,0:0:0:0:
256,192,27414,1,2,0:0:0:0:
256,192,27580,1,0,0:0:0:0:
256,192,27746,1,0,0:0:0:0:
256,192,27829,1,0,0:0:0:0:
256,192,27912,1,2,0:0:0:0:
256,192,27994,1,0,0:0:0:0:
256,192,28077,1,2,0:0:0:0:
256,192,28243,1,0,0:0:0:0:
256,192,28409,1,2,0:0:0:0:
256,192,28492,1,0,0:0:0:0:
256,192,28575,1,0,0:0:0:0:
256,192,28740,1,2,0:0:0:0:
256,192,28906,1,2,0:0:0:0:
256,192,29072,1,0,0:0:0:0:
256,192,29155,1,0,0:0:0:0:
256,192,29238,1,2,0:0:0:0:
256,192,29320,1,2,0:0:0:0:
256,192,29403,1,2,0:0:0:0:
256,192,29569,1,0,0:0:0:0:
256,192,29735,1,2,0:0:0:0:
256,192,29818,1,2,0:0:0:0:
256,192,29901,1,2,0:0:0:0:
256,192,30066,1,0,0:0:0:0:
256,192,30232,1,2,0:0:0:0:
256,192,30398,1,0,0:0:0:0:
256,192,30481,1,0,0:0:0:0:
256,192,30563,1,0,0:0:0:0:
256,192,30646,1,0,0:0:0:0:
256,192,30729,1,2,0:0:0:0:
256,192,31061,1,2,0:0:0:0:
256,192,31226,1,0,0:0:0:0:
256,192,31392,1,0,0:0:0:0:
256,192,31558,1,0,0:0:0:0:
256,192,31724,1,2,0:0:0:0:
256,192,31807,1,2,0:0:0:0:
256,192,31889,1,0,0:0:0:0:
256,192,31972,1,0,0:0:0:0:
256,192,32055,1,2,0:0:0:0:
256,192,32138,1,0,0:0:0:0:
256,192,32221,1,0,0:0:0:0:
256,192,32387,1,2,0:0:0:0:
256,192,32552,1,0,0:0:0:0:
256,192,32718,1,0,0:0:0:0:
256,192,32884,1,0,0:0:0:0:
256,192,33050,1,2,0:0:0:0:
256,192,33133,1,2,0:0:0:0:
256,192,33215,1,0,0:0:0:0:
256,192,33298,1,0,0:0:0:0:
256,192,33381,1,2,0:0:0:0:
256,192,33547,1,0,0:0:0:0:
256,192,33713,5,2,0:0:0:0:
256,192,33796,1,2,0:0:0:0:
256,192,33878,1,0,0:0:0:0:
256,192,33961,1,2,0:0:0:0:
256,192,34044,1,0,0:0:0:0:
256,192,34127,1,0,0:0:0:0:
256,192,34210,1,2,0:0:0:0:
256,192,34293,1,0,0:0:0:0:
256,192,34376,1,2,0:0:0:0:
256,192,34459,1,2,0:0:0:0:
256,192,34541,1,0,0:0:0:0:
256,192,34624,1,2,0:0:0:0:
256,192,34707,1,0,0:0:0:0:
256,192,34790,1,0,0:0:0:0:
256,192,34873,1,2,0:0:0:0:
256,192,34956,1,0,0:0:0:0:
256,192,35039,1,2,0:0:0:0:
256,192,35204,1,0,0:0:0:0:
256,192,35287,1,0,0:0:0:0:
256,192,35370,1,2,0:0:0:0:
256,192,35536,1,0,0:0:0:0:
256,192,35702,1,2,0:0:0:0:
256,192,35784,1,2,0:0:0:0:
256,192,35867,1,0,0:0:0:0:
256,192,35950,1,2,0:0:0:0:
256,192,36033,1,0,0:0:0:0:
256,192,36116,1,0,0:0:0:0:
256,192,36199,1,2,0:0:0:0:
256,192,36282,1,0,0:0:0:0:
256,192,36365,1,2,0:0:0:0:
256,192,36530,1,2,0:0:0:0:
256,192,36696,1,0,0:0:0:0:
256,192,37028,5,2,0:0:0:0:
256,192,37110,1,2,0:0:0:0:
256,192,37193,5,2,0:0:0:0:
256,192,37276,1,2,0:0:0:0:
256,192,37359,1,2,0:0:0:0:
256,192,37525,1,0,0:0:0:0:
256,192,37691,1,2,0:0:0:0:
256,192,37773,1,0,0:0:0:0:
256,192,37856,1,2,0:0:0:0:
256,192,37939,1,2,0:0:0:0:
256,192,38022,1,0,0:0:0:0:
256,192,38188,1,2,0:0:0:0:
256,192,38354,1,2,0:0:0:0:
256,192,38436,1,0,0:0:0:0:
256,192,38519,1,0,0:0:0:0:
256,192,38602,1,2,0:0:0:0:
256,192,38685,1,0,0:0:0:0:
256,192,38851,1,0,0:0:0:0:
256,192,39017,1,2,0:0:0:0:
256,192,39099,1,0,0:0:0:0:
256,192,39182,1,2,0:0:0:0:
256,192,39265,1,0,0:0:0:0:
256,192,39348,1,2,0:0:0:0:
256,192,39514,1,0,0:0:0:0:
256,192,39680,1,2,0:0:0:0:
256,192,39845,1,0,0:0:0:0:
256,192,40011,1,2,0:0:0:0:
256,192,40177,1,0,0:0:0:0:
256,192,40343,1,2,0:0:0:0:
256,192,40508,1,0,0:0:0:0:
256,192,40591,1,2,0:0:0:0:
256,192,40674,1,0,0:0:0:0:
256,192,40757,1,0,0:0:0:0:
256,192,40840,1,2,0:0:0:0:
256,192,41005,1,0,0:0:0:0:
256,192,41171,1,0,0:0:0:0:
256,192,41254,1,2,0:0:0:0:
256,192,41337,1,0,0:0:0:0:
256,192,41420,1,2,0:0:0:0:
256,192,41503,1,2,0:0:0:0:
256,192,41668,1,0,0:0:0:0:
256,192,41834,1,0,0:0:0:0:
256,192,41917,1,2,0:0:0:0:
256,192,42000,1,0,0:0:0:0:
256,192,42083,1,2,0:0:0:0:
256,192,42166,1,0,0:0:0:0:
256,192,42331,1,2,0:0:0:0:
256,192,42497,1,0,0:0:0:0:
256,192,42663,1,2,0:0:0:0:
256,192,42829,1,0,0:0:0:0:
256,192,42994,1,2,0:0:0:0:
256,192,43159,1,0,0:0:0:0:
256,192,43242,1,2,0:0:0:0:
256,192,43325,1,2,0:0:0:0:
256,192,43409,1,2,0:0:0:0:
256,192,43491,1,0,0:0:0:0:
256,192,43656,1,2,0:0:0:0:
256,192,43822,1,0,0:0:0:0:
256,192,43905,1,2,0:0:0:0:
256,192,43988,1,2,0:0:0:0:
256,192,44071,1,0,0:0:0:0:
256,192,44154,1,0,0:0:0:0:
256,192,44319,1,2,0:0:0:0:
256,192,44485,1,0,0:0:0:0:
256,192,44568,1,0,0:0:0:0:
256,192,44651,1,2,0:0:0:0:
256,192,44734,1,0,0:0:0:0:
256,192,44817,1,0,0:0:0:0:
256,192,44983,1,2,0:0:0:0:
256,192,45148,1,0,0:0:0:0:
256,192,45315,1,2,0:0:0:0:
256,192,45480,1,0,0:0:0:0:
256,192,45646,1,0,0:0:0:0:
256,192,45811,1,2,0:0:0:0:
256,192,45894,1,2,0:0:0:0:
256,192,45977,1,0,0:0:0:0:
256,192,46060,1,0,0:0:0:0:
256,192,46143,1,2,0:0:0:0:
256,192,46308,1,0,0:0:0:0:
256,192,46475,1,2,0:0:0:0:
256,192,46557,1,0,0:0:0:0:
256,192,46640,1,0,0:0:0:0:
256,192,46723,1,2,0:0:0:0:
256,192,46806,1,2,0:0:0:0:
256,192,46971,1,0,0:0:0:0:
256,192,47137,1,2,0:0:0:0:
256,192,47220,1,0,0:0:0:0:
256,192,47303,1,2,0:0:0:0:
256,192,47386,1,0,0:0:0:0:
256,192,47469,1,2,0:0:0:0:
256,192,47634,1,2,0:0:0:0:
256,192,47800,1,0,0:0:0:0:
256,192,47966,1,2,0:0:0:0:
256,192,48132,1,0,0:0:0:0:
256,192,48298,1,2,0:0:0:0:
256,192,48381,1,2,0:0:0:0:
256,192,48464,1,2,0:0:0:0:
256,192,48547,1,2,0:0:0:0:
256,192,48630,1,0,0:0:0:0:
256,192,48796,1,0,0:0:0:0:
256,192,48961,1,0,0:0:0:0:
256,192,49044,1,0,0:0:0:0:
256,192,49127,1,2,0:0:0:0:
256,192,49210,1,0,0:0:0:0:
256,192,49293,1,2,0:0:0:0:
256,192,49376,1,2,0:0:0:0:
256,192,49459,1,0,0:0:0:0:
256,192,49624,1,2,0:0:0:0:
256,192,49707,1,0,0:0:0:0:
256,192,49790,1,0,0:0:0:0:
256,192,49873,1,2,0:0:0:0:
256,192,49956,1,0,0:0:0:0:
256,192,50039,1,0,0:0:0:0:
256,192,50122,1,2,0:0:0:0:
256,192,50287,1,2,0:0:0:0:
256,192,50453,1,0,0:0:0:0:
256,192,50619,1,2,0:0:0:0:
256,192,50784,1,0,0:0:0:0:
256,192,50950,1,2,0:0:0:0:
256,192,51033,1,0,0:0:0:0:
256,192,51116,1,2,0:0:0:0:
256,192,51199,1,0,0:0:0:0:
256,192,51282,1,2,0:0:0:0:
256,192,51448,1,0,0:0:0:0:
256,192,51613,1,2,0:0:0:0:
256,192,51696,1,0,0:0:0:0:
256,192,51779,1,0,0:0:0:0:
256,192,51862,1,0,0:0:0:0:
256,192,51945,1,2,0:0:0:0:
256,192,52028,1,2,0:0:0:0:
256,192,52110,1,0,0:0:0:0:
256,192,52276,1,2,0:0:0:0:
256,192,52359,1,2,0:0:0:0:
256,192,52442,1,0,0:0:0:0:
256,192,52525,1,2,0:0:0:0:
256,192,52608,1,0,0:0:0:0:
256,192,52691,1,0,0:0:0:0:
256,192,52774,1,2,0:0:0:0:
256,192,52939,1,0,0:0:0:0:
256,192,53105,1,2,0:0:0:0:
256,192,53271,1,0,0:0:0:0:
256,192,53436,1,2,0:0:0:0:
256,192,53602,1,0,0:0:0:0:
256,192,53685,1,2,0:0:0:0:
256,192,53768,1,0,0:0:0:0:
256,192,53851,1,0,0:0:0:0:
256,192,53934,1,0,0:0:0:0:
256,192,54100,1,2,0:0:0:0:
256,192,54265,1,0,0:0:0:0:
256,192,54348,1,0,0:0:0:0:
256,192,54431,1,2,0:0:0:0:
256,192,54514,1,0,0:0:0:0:
256,192,54597,1,0,0:0:0:0:
256,192,54680,1,2,0:0:0:0:
256,192,54763,1,0,0:0:0:0:
256,192,54928,1,2,0:0:0:0:
256,192,55011,1,0,0:0:0:0:
256,192,55094,1,0,0:0:0:0:
256,192,55177,1,2,0:0:0:0:
256,192,55260,1,0,0:0:0:0:
256,192,55343,1,0,0:0:0:0:
256,192,55426,1,2,0:0:0:0:
256,192,55591,1,2,0:0:0:0:
256,192,55757,1,0,0:0:0:0:
256,192,55923,1,2,0:0:0:0:
256,192,56088,1,0,0:0:0:0:
256,192,56254,1,2,0:0:0:0:
256,192,56337,1,2,0:0:0:0:
256,192,56420,1,0,0:0:0:0:
256,192,56503,1,0,0:0:0:0:
256,192,56586,1,2,0:0:0:0:
256,192,56752,1,0,0:0:0:0:
256,192,56917,1,2,0:0:0:0:
256,192,57000,1,2,0:0:0:0:
256,192,57083,1,0,0:0:0:0:
256,192,57166,1,2,0:0:0:0:
256,192,57249,1,0,0:0:0:0:
256,192,57332,1,0,0:0:0:0:
256,192,57415,1,2,0:0:0:0:
256,192,57580,1,0,0:0:0:0:
256,192,57663,1,0,0:0:0:0:
256,192,57746,1,2,0:0:0:0:
256,192,57829,1,0,0:0:0:0:
256,192,57912,1,2,0:0:0:0:
256,192,57995,1,2,0:0:0:0:
256,192,58078,1,0,0:0:0:0:
256,192,58160,1,0,0:0:0:0:
256,192,58243,1,2,0:0:0:0:
256,192,58326,1,0,0:0:0:0:
256,192,58409,1,0,0:0:0:0:
256,192,58492,1,2,0:0:0:0:
256,192,58575,1,0,0:0:0:0:
256,192,58657,1,0,0:0:0:0:
256,192,58740,1,2,0:0:0:0:
256,192,58823,1,0,0:0:0:0:
256,192,58906,1,2,0:0:0:0:
256,192,59238,1,2,0:0:0:0:
256,192,59569,1,0,0:0:0:0:
256,192,59735,1,0,0:0:0:0:
256,192,59901,1,2,0:0:0:0:
256,192,60232,1,2,0:0:0:0:
256,192,60563,1,0,0:0:0:0:
256,192,60895,1,2,0:0:0:0:
256,192,61061,1,0,0:0:0:0:
256,192,61226,1,2,0:0:0:0:
256,192,61392,1,0,0:0:0:0:
256,192,61558,1,2,0:0:0:0:
256,192,61889,1,0,0:0:0:0:
256,192,62221,1,0,0:0:0:0:
256,192,62387,1,0,0:0:0:0:
256,192,62552,1,2,0:0:0:0:
256,192,62884,1,2,0:0:0:0:
256,192,63215,1,2,0:0:0:0:
256,192,63547,1,0,0:0:0:0:
256,192,63713,1,0,0:0:0:0:
256,192,63878,1,2,0:0:0:0:
256,192,64210,1,0,0:0:0:0:
256,192,64293,1,0,0:0:0:0:
256,192,64376,1,0,0:0:0:0:
256,192,64459,1,0,0:0:0:0:
256,192,64541,1,0,0:0:0:0:
256,192,64624,1,0,0:0:0:0:
256,192,64707,1,0,0:0:0:0:
256,192,64790,1,0,0:0:0:0:
256,192,64873,1,0,0:0:0:0:
256,192,64956,1,0,0:0:0:0:
256,192,65039,1,0,0:0:0:0:
256,192,65122,1,0,0:0:0:0:
256,192,65204,1,2,0:0:0:0:
256,192,65536,1,0,0:0:0:0:
256,192,65619,1,0,0:0:0:0:
256,192,65702,1,0,0:0:0:0:
256,192,65785,1,0,0:0:0:0:
256,192,65867,1,0,0:0:0:0:
256,192,65950,1,0,0:0:0:0:
256,192,66033,1,0,0:0:0:0:
256,192,66116,1,0,0:0:0:0:
256,192,66199,1,0,0:0:0:0:
256,192,66282,1,0,0:0:0:0:
256,192,66365,1,0,0:0:0:0:
256,192,66448,1,0,0:0:0:0:
256,192,66530,1,2,0:0:0:0:
256,192,66862,1,2,0:0:0:0:
256,192,66945,1,0,0:0:0:0:
256,192,67028,1,0,0:0:0:0:
256,192,67111,1,0,0:0:0:0:
256,192,67193,1,2,0:0:0:0:
256,192,67276,1,0,0:0:0:0:
256,192,67359,1,0,0:0:0:0:
256,192,67442,1,0,0:0:0:0:
256,192,67525,1,2,0:0:0:0:
256,192,67608,1,0,0:0:0:0:
256,192,67691,1,0,0:0:0:0:
256,192,67774,1,0,0:0:0:0:
256,192,67856,1,2,0:0:0:0:
256,192,67939,1,0,0:0:0:0:
256,192,68022,1,0,0:0:0:0:
256,192,68105,1,0,0:0:0:0:
256,192,68188,1,2,0:0:0:0:
256,192,68519,1,2,0:0:0:0:
256,192,68851,1,2,0:0:0:0:
256,192,69182,1,2,0:0:0:0:
256,192,69514,1,0,0:0:0:0:
256,192,69680,1,0,0:0:0:0:
256,192,69762,1,0,0:0:0:0:
256,192,69845,1,2,0:0:0:0:
256,192,70011,1,0,0:0:0:0:
256,192,70177,1,2,0:0:0:0:
256,192,70260,1,0,0:0:0:0:
256,192,70343,1,2,0:0:0:0:
256,192,70425,1,0,0:0:0:0:
256,192,70508,1,2,0:0:0:0:
256,192,70674,1,0,0:0:0:0:
256,192,70840,1,2,0:0:0:0:
256,192,71005,1,2,0:0:0:0:
256,192,71171,12,0,71503,0:0:0:0:
256,192,71668,5,0,0:0:0:0:
256,192,71834,1,2,0:0:0:0:
256,192,72000,1,2,0:0:0:0:
256,192,72166,1,0,0:0:0:0:
256,192,72331,1,2,0:0:0:0:
256,192,72414,1,2,0:0:0:0:
256,192,72497,1,0,0:0:0:0:
256,192,72663,1,2,0:0:0:0:
256,192,72829,1,0,0:0:0:0:
256,192,72912,1,0,0:0:0:0:
256,192,72994,1,2,0:0:0:0:
256,192,73077,1,2,0:0:0:0:
256,192,73160,1,0,0:0:0:0:
256,192,73326,1,0,0:0:0:0:
256,192,73492,1,2,0:0:0:0:
256,192,73657,1,0,0:0:0:0:
256,192,73740,1,0,0:0:0:0:
256,192,73823,1,2,0:0:0:0:
256,192,73989,1,0,0:0:0:0:
256,192,74155,1,0,0:0:0:0:
256,192,74238,1,0,0:0:0:0:
256,192,74320,1,0,0:0:0:0:
256,192,74486,1,2,0:0:0:0:
256,192,74818,1,2,0:0:0:0:
256,192,74983,1,0,0:0:0:0:
256,192,75066,1,0,0:0:0:0:
256,192,75149,1,2,0:0:0:0:
256,192,75315,1,0,0:0:0:0:
256,192,75481,1,2,0:0:0:0:
256,192,75564,1,0,0:0:0:0:
256,192,75646,1,0,0:0:0:0:
256,192,75729,1,0,0:0:0:0:
256,192,75812,1,2,0:0:0:0:
256,192,75978,1,0,0:0:0:0:
256,192,76144,1,2,0:0:0:0:
256,192,76309,1,0,0:0:0:0:
256,192,76392,1,0,0:0:0:0:
256,192,76475,1,2,0:0:0:0:
256,192,76641,1,0,0:0:0:0:
256,192,76807,1,2,0:0:0:0:
256,192,76972,1,0,0:0:0:0:
256,192,77055,1,2,0:0:0:0:
256,192,77138,1,0,0:0:0:0:
256,192,77304,1,0,0:0:0:0:
256,192,77470,1,2,0:0:0:0:
256,192,77635,1,0,0:0:0:0:
256,192,77718,1,0,0:0:0:0:
256,192,77801,1,2,0:0:0:0:
256,192,77967,1,0,0:0:0:0:
256,192,78133,1,2,0:0:0:0:
256,192,78215,1,2,0:0:0:0:
256,192,78298,1,0,0:0:0:0:
256,192,78381,1,0,0:0:0:0:
256,192,78464,1,2,0:0:0:0:
256,192,78630,1,0,0:0:0:0:
256,192,78796,1,2,0:0:0:0:
256,192,78961,1,2,0:0:0:0:
256,192,79044,1,2,0:0:0:0:
256,192,79127,1,0,0:0:0:0:
256,192,79293,1,0,0:0:0:0:
256,192,79459,1,0,0:0:0:0:
256,192,79542,1,0,0:0:0:0:
256,192,79624,1,0,0:0:0:0:
256,192,79790,1,2,0:0:0:0:
256,192,80122,1,2,0:0:0:0:
256,192,80287,1,0,0:0:0:0:
256,192,80370,1,0,0:0:0:0:
256,192,80453,1,2,0:0:0:0:
256,192,80619,1,0,0:0:0:0:
256,192,80785,1,2,0:0:0:0:
256,192,80868,1,0,0:0:0:0:
256,192,80950,1,2,0:0:0:0:
256,192,81033,1,2,0:0:0:0:
256,192,81116,1,0,0:0:0:0:
256,192,81282,1,2,0:0:0:0:
256,192,81448,1,0,0:0:0:0:
256,192,81613,1,0,0:0:0:0:
256,192,81696,1,0,0:0:0:0:
256,192,81779,1,2,0:0:0:0:
256,192,81945,1,0,0:0:0:0:
256,192,82111,1,2,0:0:0:0:
256,192,82276,1,2,0:0:0:0:
256,192,82359,1,2,0:0:0:0:
256,192,82442,1,0,0:0:0:0:
256,192,82608,1,0,0:0:0:0:
256,192,82773,1,2,0:0:0:0:
256,192,82938,1,0,0:0:0:0:
256,192,83021,1,0,0:0:0:0:
256,192,83104,1,2,0:0:0:0:
256,192,83271,1,0,0:0:0:0:
256,192,83436,1,2,0:0:0:0:
256,192,83519,1,0,0:0:0:0:
256,192,83601,1,2,0:0:0:0:
256,192,83684,1,2,0:0:0:0:
256,192,83767,1,0,0:0:0:0:
256,192,83933,1,0,0:0:0:0:
256,192,84099,1,2,0:0:0:0:
256,192,84264,1,2,0:0:0:0:
256,192,84347,1,0,0:0:0:0:
256,192,84430,1,2,0:0:0:0:
256,192,84596,1,0,0:0:0:0:
256,192,84762,1,0,0:0:0:0:
256,192,84845,1,0,0:0:0:0:
256,192,84927,1,0,0:0:0:0:
256,192,85093,1,2,0:0:0:0:
256,192,85425,1,2,0:0:0:0:
256,192,85590,1,0,0:0:0:0:
256,192,85673,1,0,0:0:0:0:
256,192,85756,1,2,0:0:0:0:
256,192,85922,1,0,0:0:0:0:
256,192,86088,1,2,0:0:0:0:
256,192,86171,1,0,0:0:0:0:
256,192,86253,1,2,0:0:0:0:
256,192,86336,1,0,0:0:0:0:
256,192,86420,1,2,0:0:0:0:
256,192,86585,1,0,0:0:0:0:
256,192,86751,1,0,0:0:0:0:
256,192,86916,1,2,0:0:0:0:
256,192,86999,1,0,0:0:0:0:
256,192,87082,1,2,0:0:0:0:
256,192,87248,1,2,0:0:0:0:
256,192,87414,1,2,0:0:0:0:
256,192,87497,1,2,0:0:0:0:
256,192,87579,1,2,0:0:0:0:
256,192,87745,1,0,0:0:0:0:
256,192,87912,1,0,0:0:0:0:
256,192,88077,5,0,0:0:0:0:
256,192,88160,1,0,0:0:0:0:
256,192,88243,1,2,0:0:0:0:
256,192,88326,1,0,0:0:0:0:
256,192,88409,1,2,0:0:0:0:
256,192,88492,1,2,0:0:0:0:
256,192,88575,1,0,0:0:0:0:
256,192,88657,1,0,0:0:0:0:
256,192,88740,1,2,0:0:0:0:
256,192,88823,1,0,0:0:0:0:
256,192,88906,1,0,0:0:0:0:
256,192,88989,1,0,0:0:0:0:
256,192,89072,1,2,0:0:0:0:
256,192,89238,1,0,0:0:0:0:
256,192,89403,5,2,0:0:0:0:
256,192,89486,1,2,0:0:0:0:
256,192,89569,1,0,0:0:0:0:
256,192,89652,1,0,0:0:0:0:
256,192,89735,1,2,0:0:0:0:
256,192,89818,1,0,0:0:0:0:
256,192,89901,1,0,0:0:0:0:
256,192,89983,1,0,0:0:0:0:
256,192,90066,1,2,0:0:0:0:
256,192,90149,1,0,0:0:0:0:
256,192,90232,1,2,0:0:0:0:
256,192,90315,1,0,0:0:0:0:
256,192,90398,1,2,0:0:0:0:
256,192,90729,5,2,0:0:0:0:
256,192,90812,1,2,0:0:0:0:
256,192,90895,1,0,0:0:0:0:
256,192,90978,1,2,0:0:0:0:
256,192,91061,1,0,0:0:0:0:
256,192,91143,1,0,0:0:0:0:
256,192,91226,1,2,0:0:0:0:
256,192,91309,1,2,0:0:0:0:
256,192,91392,1,0,0:0:0:0:
256,192,91475,1,2,0:0:0:0:
256,192,91558,1,0,0:0:0:0:
256,192,91641,1,2,0:0:0:0:
256,192,91723,1,0,0:0:0:0:
256,192,91807,1,2,0:0:0:0:
256,192,91889,1,2,0:0:0:0:
256,192,91972,1,2,0:0:0:0:
256,192,92055,1,0,0:0:0:0:
256,192,92221,1,2,0:0:0:0:
256,192,92304,1,0,0:0:0:0:
256,192,92387,1,2,0:0:0:0:
256,192,92552,1,0,0:0:0:0:
256,192,92718,1,2,0:0:0:0:
256,192,92884,1,0,0:0:0:0:
256,192,92967,1,0,0:0:0:0:
256,192,93050,1,2,0:0:0:0:
256,192,93215,1,0,0:0:0:0:
256,192,93381,12,0,97359,0:0:0:0:
