osu file format v14

[General]
AudioFilename: audio.mp3
AudioLeadIn: 0
PreviewTime: 11003
Countdown: 1
SampleSet: Normal
StackLeniency: 0.7
Mode: 0
LetterboxInBreaks: 0
WidescreenStoryboard: 1

[Editor]
Bookmarks: 6472,17961
DistanceSpacing: 0.9
BeatDivisor: 4
GridSize: 32
TimelineZoom: 1.4

[Metadata]
Title:Cirno's Perfect Math Class -Ryu Remix-
TitleUnicode:チルノのパーフェクトさんすう教室 - Ryu☆ remix -
Artist:Ryu
ArtistUnicode:Ryu
Creator:-Enalos-
Version:Light Lunatic
Source:Touhou Project
Tags:Touhou, Cirno, Instrumental
BeatmapID:1783932
BeatmapSetID:853591

[Difficulty]
HPDrainRate:6
CircleSize:3
OverallDifficulty:7.3
ApproachRate:9.1
SliderMultiplier:1.4
SliderTickRate:1

[Events]
//Background and Video events
0,0,"cirno.jpg",0,0
//Break Periods
2,74552,129982
2,134341,137749
2,140814,150694
2,153921,194707
//Storyboard Layer 0 (Background)
//Storyboard Layer 1 (Fail)
//Storyboard Layer 2 (Pass)
//Storyboard Layer 3 (Foreground)
//Storyboard Sound Samples

[TimingPoints]
0,323.624595469256,4,1,0,100,1,0
24433,-666.666666666658,4,1,0,100,0,0
26860,-83.3333333333333,4,1,0,100,0,0
151294,-55.5555555555556,4,1,0,100,0,0
151941,-47.6190476190476,4,1,0,100,0,0
153559,-83.3333333333333,4,1,0,100,0,0
202427,-71.4285714285714,4,1,0,60,0,0

[Colours]
Combo1 : 64,0,128
Combo2 : 128,128,255
Combo3 : 0,64,128
Combo4 : 0,0,166
Combo5 : 0,0,160
Combo6 : 0,0,128
Combo7 : 64,0,64
Combo8 : 64,0,64

[HitObjects]
54,226,647,5,0,0:0:0:0:
167,286,809,1,0,0:0:0:0:
282,246,970,1,0,0:0:0:0:
188,180,1132,2,0,P|137:220|243:282,1,210
357,89,2265,2,0,B|287:151|286:151|303:217,1,140
166,273,2912,1,0,0:0:0:0:
140,135,3074,2,0,B|193:91|194:91|281:90,1,140
257,315,3721,6,0,L|253:153,1,140
94,135,4207,1,0,0:0:0:0:
242,74,4368,1,0,0:0:0:0:
185,226,4530,1,0,0:0:0:0:
352,157,4692,1,0,0:0:0:0:
120,78,4854,2,0,L|92:239,1,140
264,198,5501,6,0,L|182:82,1,140
337,251,5987,2,0,L|183:247,1,140
168,200,6796,1,0,0:0:0:0:
238,291,6957,1,0,0:0:0:0:
108,253,7119,1,0,0:0:0:0:
124,129,7281,1,0,0:0:0:0:
226,73,7443,2,0,P|265:156|238:215,1,140
358,155,8090,5,0,0:0:0:0:
289,280,8252,2,0,P|278:218|215:140,1,140
121,219,8899,2,0,P|123:282|225:307,1,175
260,295,9385,1,0,0:0:0:0:
355,246,9546,1,0,0:0:0:0:
276,173,9708,1,0,0:0:0:0:
188,238,9870,1,0,0:0:0:0:
136,317,10032,2,0,P|88:266|148:152,1,210
108,106,11003,6,0,L|149:178,1,70
327,207,11326,2,0,L|266:282,1,70
86,150,11974,1,0,0:0:0:0:
222,283,12135,1,0,0:0:0:0:
208,84,12297,1,0,0:0:0:0:
160,206,12459,1,0,0:0:0:0:
318,240,12621,1,0,0:0:0:0:
244,164,12783,2,0,P|333:135|312:17,1,210
122,239,13592,5,0,0:0:0:0:
195,271,13754,1,0,0:0:0:0:
96,133,13915,1,0,0:0:0:0:
250,266,14077,2,0,B|215:195|215:194|274:129,1,140
325,255,14563,1,0,0:0:0:0:
146,194,14724,1,0,0:0:0:0:
338,158,14886,1,0,0:0:0:0:
137,91,15048,1,0,0:0:0:0:
261,304,15210,1,0,0:0:0:0:
227,204,15372,2,0,L|374:118,1,140
143,146,16019,6,0,L|136:226,1,70
203,304,16343,1,0,0:0:0:0:
245,304,16423,1,0,0:0:0:0:
276,295,16504,1,0,0:0:0:0:
299,280,16585,1,0,0:0:0:0:
326,264,16666,2,0,B|372:180|372:180|328:128,1,140
226,138,17152,2,0,L|232:231,1,70
286,278,17475,2,0,B|349:202|349:202|321:142,1,140
233,285,17961,5,0,0:0:0:0:
118,143,18122,1,0,0:0:0:0:
132,134,18203,1,0,0:0:0:0:
146,130,18284,1,0,0:0:0:0:
328,250,18446,1,0,0:0:0:0:
159,209,18608,1,0,0:0:0:0:
277,90,18770,1,0,0:0:0:0:
230,308,18932,1,0,0:0:0:0:
234,295,19012,1,0,0:0:0:0:
205,109,19255,6,0,L|146:169,1,70
355,193,19579,2,0,L|308:105,1,70
169,246,19902,2,0,B|250:281|250:281|322:283,1,140
237,150,20550,1,0,0:0:0:0:
329,243,20711,1,0,0:0:0:0:
342,232,20792,1,0,0:0:0:0:
356,227,20873,1,0,0:0:0:0:
290,81,21035,1,0,0:0:0:0:
251,254,21197,1,0,0:0:0:0:
91,190,21359,2,0,L|151:120,1,70
256,192,21682,12,0,23300,0:0:0:0:
157,164,23462,6,0,B|223:84|223:84|293:200|293:202|247:263,1,280
165,158,24433,2,0,P|211:137|314:158,1,157.499995193482
252,250,27022,1,0,0:0:0:0:
364,124,27184,1,0,0:0:0:0:
163,120,27346,2,0,L|142:233,1,83.9999974365235
214,287,27669,1,0,0:0:0:0:
245,151,27831,1,0,0:0:0:0:
335,228,27993,6,0,L|222:237,1,83.9999974365235
99,208,28317,1,0,0:0:0:0:
124,166,28398,1,0,0:0:0:0:
161,137,28478,1,0,0:0:0:0:
199,114,28559,1,0,0:0:0:0:
240,106,28640,1,0,0:0:0:0:
283,115,28721,1,0,0:0:0:0:
317,136,28802,1,0,0:0:0:0:
336,158,28883,5,0,0:0:0:0:
354,191,28964,1,0,0:0:0:0:
273,304,29126,5,0,0:0:0:0:
176,111,29288,1,0,0:0:0:0:
345,236,29449,1,0,0:0:0:0:
121,220,29611,2,0,L|287:164,1,167.999994873047
195,284,30097,5,0,0:0:0:0:
263,137,30258,1,0,0:0:0:0:
339,333,30420,1,0,0:0:0:0:
130,201,30582,1,0,0:0:0:0:
277,278,30744,2,0,L|337:185,1,83.9999974365235
232,89,31067,2,0,B|192:183|192:183,1,83.9999974365235
205,266,31391,5,0,0:0:0:0:
342,175,31553,1,0,0:0:0:0:
145,160,31715,1,0,0:0:0:0:
289,239,31877,2,0,L|234:133,1,83.9999974365235
153,269,32200,2,0,B|274:292|274:292|342:177,1,251.999992309571
125,155,32847,1,0,0:0:0:0:
312,237,33009,1,0,0:0:0:0:
226,99,33171,1,0,0:0:0:0:
147,284,33333,1,0,0:0:0:0:
299,178,33495,1,0,0:0:0:0:
148,178,33656,1,0,0:0:0:0:
296,279,33818,1,0,0:0:0:0:
314,99,33980,1,0,0:0:0:0:
230,182,34142,6,0,L|126:243,1,83.9999974365235
296,279,34466,1,0,0:0:0:0:
306,254,34546,1,0,0:0:0:0:
309,223,34627,1,0,0:0:0:0:
302,198,34708,1,0,0:0:0:0:
294,178,34789,2,0,B|200:111|200:111|151:173,1,167.999994873047
172,294,35275,5,0,0:0:0:0:
203,118,35436,1,0,0:0:0:0:
285,283,35598,1,0,0:0:0:0:
327,146,35760,1,0,0:0:0:0:
121,216,35922,1,0,0:0:0:0:
370,234,36084,1,0,0:0:0:0:
203,93,36245,1,0,0:0:0:0:
235,218,36407,1,0,0:0:0:0:
322,304,36569,1,0,0:0:0:0:
302,162,36731,6,0,L|130:164,1,167.999994873047
214,280,37216,1,0,0:0:0:0:
186,97,37378,2,0,B|267:152|267:153|299:240,1,167.999994873047
317,300,37864,1,0,0:0:0:0:
367,183,38025,1,0,0:0:0:0:
257,76,38187,1,0,0:0:0:0:
213,246,38349,1,0,0:0:0:0:
177,84,38511,2,0,B|139:160|139:160|155:268,1,167.999994873047
254,197,39158,1,0,0:0:0:0:
318,283,39320,5,0,0:0:0:0:
354,226,39401,1,0,0:0:0:0:
353,165,39482,1,0,0:0:0:0:
306,110,39563,1,0,0:0:0:0:
235,99,39644,1,0,0:0:0:0:
173,133,39724,1,0,0:0:0:0:
166,205,39805,1,0,0:0:0:0:
201,256,39886,1,0,0:0:0:0:
264,260,39967,2,0,L|257:80,1,167.999994873047
336,204,40453,5,0,0:0:0:0:
144,164,40614,1,0,0:0:0:0:
239,274,40776,1,0,0:0:0:0:
243,109,40938,1,0,0:0:0:0:
128,242,41100,1,0,0:0:0:0:
276,200,41262,2,0,B|352:145|352:145|356:237,1,167.999994873047
233,315,41747,2,0,P|148:268|164:202,1,167.999994873047
260,107,42233,1,0,0:0:0:0:
172,297,42556,6,0,B|121:186|121:186|148:116,1,167.999994873047
236,264,43042,1,0,0:0:0:0:
257,73,43203,1,0,0:0:0:0:
301,311,43365,1,0,0:0:0:0:
338,95,43527,1,0,0:0:0:0:
179,297,43689,2,0,B|132:144|132:144|214:89,1,251.999992309571
266,215,44336,2,0,L|329:146,1,83.9999974365235
392,237,44660,2,0,L|198:242,1,167.999994873047
112,173,45145,5,0,0:0:0:0:
334,253,45631,1,0,0:0:0:0:
240,104,45792,1,0,0:0:0:0:
257,281,45954,1,0,0:0:0:0:
128,97,46116,1,0,0:0:0:0:
138,266,46278,2,0,P|166:308|276:293,1,167.999994873047
126,186,46925,1,0,0:0:0:0:
276,269,47087,1,0,0:0:0:0:
246,84,47249,1,0,0:0:0:0:
106,116,47411,1,0,0:0:0:0:
186,244,47734,5,0,0:0:0:0:
157,217,47815,1,0,0:0:0:0:
325,211,47977,5,0,0:0:0:0:
324,182,48058,1,0,0:0:0:0:
124,111,48220,5,0,0:0:0:0:
152,107,48300,1,0,0:0:0:0:
184,124,48381,1,0,0:0:0:0:
210,151,48462,1,0,0:0:0:0:
223,180,48543,1,0,0:0:0:0:
227,215,48624,1,0,0:0:0:0:
237,240,48705,1,0,0:0:0:0:
259,273,48786,1,0,0:0:0:0:
285,300,48867,5,0,0:0:0:0:
319,296,48948,1,0,0:0:0:0:
338,269,49029,1,0,0:0:0:0:
333,233,49110,1,0,0:0:0:0:
320,208,49190,1,0,0:0:0:0:
293,191,49271,1,0,0:0:0:0:
260,194,49352,1,0,0:0:0:0:
235,213,49433,1,0,0:0:0:0:
219,235,49514,1,0,0:0:0:0:
209,255,49595,1,0,0:0:0:0:
138,111,50000,6,0,L|222:180,1,83.9999974365235
270,289,50323,6,0,B|320:210|320:210|299:165,1,125.999996154785
280,151,50647,1,0,0:0:0:0:
186,229,50809,1,0,0:0:0:0:
392,205,50970,2,0,B|312:83|312:83|281:98,1,167.999994873047
128,188,51618,6,0,L|240:253,1,125.999996154785
269,270,51941,1,0,0:0:0:0:
218,119,52103,1,0,0:0:0:0:
288,261,52265,2,0,L|296:82,1,167.999994873047
136,207,52912,6,0,L|232:257,1,83.9999974365235
339,173,53236,1,0,0:0:0:0:
165,296,53398,1,0,0:0:0:0:
311,100,53559,1,0,0:0:0:0:
139,217,53883,2,0,L|163:117,1,83.9999974365235
281,246,54207,1,0,0:0:0:0:
192,51,54368,1,0,0:0:0:0:
332,222,54530,2,0,B|274:153|274:153|185:189,1,167.999994873047
191,237,55501,5,0,0:0:0:0:
339,169,55663,1,0,0:0:0:0:
340,203,55744,1,0,0:0:0:0:
339,229,55825,1,0,0:0:0:0:
152,130,55987,1,0,0:0:0:0:
377,97,56148,1,0,0:0:0:0:
222,257,56796,1,0,0:0:0:0:
326,101,56957,1,0,0:0:0:0:
344,120,57038,1,0,0:0:0:0:
363,155,57119,1,0,0:0:0:0:
140,188,57281,1,0,0:0:0:0:
401,218,57443,1,0,0:0:0:0:
161,244,58090,6,0,B|188:148|188:148,1,83.9999974365235
285,302,58414,2,0,L|351:244,1,83.9999974365235
152,279,58737,1,0,0:0:0:0:
374,166,58899,1,0,0:0:0:0:
152,91,59061,1,0,0:0:0:0:
331,316,59223,1,0,0:0:0:0:
128,216,59385,2,0,B|277:214|277:214|324:106,1,251.999992309571
221,93,60032,5,0,0:0:0:0:
215,117,60113,1,0,0:0:0:0:
204,144,60194,1,0,0:0:0:0:
214,176,60275,1,0,0:0:0:0:
232,198,60355,1,0,0:0:0:0:
254,219,60436,1,0,0:0:0:0:
269,253,60517,1,0,0:0:0:0:
142,291,60679,6,0,L|123:182,1,83.9999974365235
336,190,61003,1,0,0:0:0:0:
103,188,61165,1,0,0:0:0:0:
327,191,61326,2,0,L|153:117,1,167.999994873047
221,280,61974,1,0,0:0:0:0:
441,180,62135,1,0,0:0:0:0:
394,164,62216,1,0,0:0:0:0:
357,153,62297,1,0,0:0:0:0:
125,171,62459,1,0,0:0:0:0:
350,311,62621,1,0,0:0:0:0:
199,251,62783,6,0,L|289:105,1,167.999994873047
345,227,63268,5,0,0:0:0:0:
166,170,63430,1,0,0:0:0:0:
179,187,63511,1,0,0:0:0:0:
190,209,63592,1,0,0:0:0:0:
201,57,63754,1,0,0:0:0:0:
222,71,63834,1,0,0:0:0:0:
257,94,63915,1,0,0:0:0:0:
281,251,64239,6,0,L|181:251,1,83.9999974365235
336,173,64563,1,0,0:0:0:0:
106,187,64724,1,0,0:0:0:0:
397,263,64886,1,0,0:0:0:0:
187,95,65048,1,0,0:0:0:0:
197,291,65210,2,0,L|325:144,1,167.999994873047
354,138,65857,5,0,0:0:0:0:
319,124,65938,1,0,0:0:0:0:
268,117,66019,1,0,0:0:0:0:
220,133,66100,1,0,0:0:0:0:
188,161,66181,1,0,0:0:0:0:
171,192,66262,1,0,0:0:0:0:
192,231,66343,1,0,0:0:0:0:
230,260,66423,1,0,0:0:0:0:
280,255,66504,5,0,0:0:0:0:
268,206,66585,1,0,0:0:0:0:
214,219,66666,1,0,0:0:0:0:
201,255,66747,1,0,0:0:0:0:
235,298,66828,1,0,0:0:0:0:
283,302,66909,1,0,0:0:0:0:
316,268,66990,1,0,0:0:0:0:
332,218,67071,1,0,0:0:0:0:
292,184,67152,5,0,0:0:0:0:
246,177,67233,1,0,0:0:0:0:
195,168,67313,1,0,0:0:0:0:
159,143,67394,1,0,0:0:0:0:
154,111,67475,1,0,0:0:0:0:
175,75,67556,1,0,0:0:0:0:
219,64,67637,1,0,0:0:0:0:
254,97,67718,1,0,0:0:0:0:
204,147,67799,6,0,L|141:212,2,83.9999974365235
266,98,68446,2,0,P|321:135|339:182,1,83.9999974365235
292,247,68770,1,0,0:0:0:0:
129,171,68932,1,0,0:0:0:0:
127,273,69093,2,0,P|176:260|193:215,1,83.9999974365235
87,188,69417,1,0,0:0:0:0:
203,109,69579,1,0,0:0:0:0:
122,108,69741,6,0,P|133:180|230:202,1,167.999994873047
339,289,70226,1,0,0:0:0:0:
178,262,70388,2,0,P|222:223|335:202,1,167.999994873047
143,115,70873,5,2,0:0:0:0:
176,150,70954,2,2,P|211:178|217:242,1,105
310,266,71359,1,2,0:0:0:0:
263,66,71521,1,2,0:0:0:0:
134,286,72330,5,0,0:0:0:0:
262,276,72491,1,0,0:0:0:0:
201,321,72653,2,0,P|157:244|181:162,1,167.999994873047
287,201,73139,1,0,0:0:0:0:
183,115,73300,1,0,0:0:0:0:
106,218,73462,1,0,0:0:0:0:
183,302,73624,2,0,P|222:236|159:181,1,167.999994873047
164,181,74029,2,0,P|133:145|202:68,1,167.999994873047
219,162,130582,5,0,0:0:0:0:
328,294,130744,1,0,0:0:0:0:
289,69,130906,1,0,0:0:0:0:
94,238,131067,1,0,0:0:0:0:
326,222,131229,1,0,0:0:0:0:
159,101,131391,1,0,0:0:0:0:
226,324,131553,1,0,0:0:0:0:
338,114,131715,1,0,0:0:0:0:
174,282,131877,2,0,B|114:178|114:178|35:172,1,167.999994873047
186,117,132362,5,0,0:0:0:0:
338,185,132524,1,0,0:0:0:0:
338,221,132605,1,0,0:0:0:0:
308,255,132686,1,0,0:0:0:0:
282,266,132766,1,0,0:0:0:0:
246,272,132847,1,0,0:0:0:0:
213,264,132928,1,0,0:0:0:0:
192,246,133009,1,0,0:0:0:0:
285,123,133171,6,0,L|272:218,1,83.9999974365235
182,140,133495,1,0,0:0:0:0:
304,162,133656,1,0,0:0:0:0:
185,208,133818,2,0,P|113:211|117:129,1,167.999994873047
292,266,138349,5,0,0:0:0:0:
343,240,138430,1,0,0:0:0:0:
360,184,138511,1,0,0:0:0:0:
337,132,138592,1,0,0:0:0:0:
286,97,138673,1,0,0:0:0:0:
231,100,138754,1,0,0:0:0:0:
183,137,138834,1,0,0:0:0:0:
130,155,138915,1,0,0:0:0:0:
72,134,138996,5,0,0:0:0:0:
107,184,139077,1,0,0:0:0:0:
128,237,139158,1,0,0:0:0:0:
166,279,139239,1,0,0:0:0:0:
223,300,139320,1,0,0:0:0:0:
281,293,139401,1,0,0:0:0:0:
334,274,139482,1,0,0:0:0:0:
375,232,139563,1,0,0:0:0:0:
415,266,139644,5,0,0:0:0:0:
421,333,139724,1,0,0:0:0:0:
394,284,139805,1,0,0:0:0:0:
347,258,139886,1,0,0:0:0:0:
298,243,139967,1,0,0:0:0:0:
248,221,140048,1,0,0:0:0:0:
203,195,140129,1,0,0:0:0:0:
175,142,140210,1,0,0:0:0:0:
212,94,140291,6,0,L|301:92,2,83.9999974365235
105,133,151294,6,0,B|175:70|175:70|176:282,1,251.999992309571
264,186,151941,2,0,B|277:152|309:135|339:154|356:208|263:286|263:286|365:291,1,293.999991027832
148,135,152588,2,0,B|218:89|218:89|263:122|189:192|189:192|241:192|241:192|245:271|186:279|186:279|132:234,1,440.999986541749
80,174,153236,1,0,0:0:0:0:
107,129,153317,1,0,0:0:0:0:
144,107,153398,1,0,0:0:0:0:
190,93,153478,1,0,0:0:0:0:
234,99,153559,5,0,0:0:0:0:
286,133,153640,1,0,0:0:0:0:
329,175,153721,1,0,0:0:0:0:
350,148,195307,5,0,0:0:0:0:
326,116,195388,1,0,0:0:0:0:
287,97,195469,1,0,0:0:0:0:
237,97,195550,1,0,0:0:0:0:
198,124,195631,1,0,0:0:0:0:
162,158,195711,1,0,0:0:0:0:
110,164,195792,1,0,0:0:0:0:
78,124,195873,1,0,0:0:0:0:
99,78,195954,1,0,0:0:0:0:
156,68,196035,5,0,0:0:0:0:
186,112,196116,1,0,0:0:0:0:
186,160,196197,1,0,0:0:0:0:
172,204,196278,1,0,0:0:0:0:
161,250,196359,1,0,0:0:0:0:
190,295,196440,1,0,0:0:0:0:
232,316,196521,1,0,0:0:0:0:
284,320,196601,1,0,0:0:0:0:
337,312,196682,5,0,0:0:0:0:
389,297,196763,1,0,0:0:0:0:
452,297,196844,1,0,0:0:0:0:
402,288,196925,1,0,0:0:0:0:
372,259,197006,1,0,0:0:0:0:
342,242,197087,1,0,0:0:0:0:
291,251,197168,1,0,0:0:0:0:
247,199,197249,2,0,L|290:118,1,83.9999974365235
128,207,197572,2,0,L|156:316,1,83.9999974365235
247,253,197896,5,0,0:0:0:0:
290,238,197977,1,0,0:0:0:0:
328,204,198058,1,0,0:0:0:0:
353,163,198139,1,0,0:0:0:0:
336,118,198220,1,0,0:0:0:0:
304,84,198300,1,0,0:0:0:0:
255,71,198381,1,0,0:0:0:0:
199,84,198462,1,0,0:0:0:0:
156,111,198543,5,0,0:0:0:0:
152,158,198624,1,0,0:0:0:0:
188,189,198705,1,0,0:0:0:0:
242,198,198786,1,0,0:0:0:0:
294,222,198867,1,0,0:0:0:0:
324,265,198948,1,0,0:0:0:0:
316,313,199029,1,0,0:0:0:0:
265,330,199110,1,0,0:0:0:0:
195,322,199190,2,0,P|181:274|200:231,1,83.9999974365235
308,166,199514,2,0,P|316:89|303:61,2,83.9999974365235
132,100,200161,5,0,0:0:0:0:
323,298,200485,5,0,0:0:0:0:
266,311,200566,1,0,0:0:0:0:
216,293,200647,1,0,0:0:0:0:
166,257,200728,1,0,0:0:0:0:
114,211,200809,1,0,0:0:0:0:
134,150,200889,1,0,0:0:0:0:
178,100,200970,1,0,0:0:0:0:
245,82,201051,1,0,0:0:0:0:
311,118,201132,5,0,0:0:0:0:
358,174,201213,1,0,0:0:0:0:
425,209,201294,1,0,0:0:0:0:
501,208,201375,1,0,0:0:0:0:
434,233,201456,1,0,0:0:0:0:
380,276,201537,1,0,0:0:0:0:
326,312,201618,1,0,0:0:0:0:
258,313,201699,1,0,0:0:0:0:
196,319,201779,5,0,0:0:0:0:
146,277,201860,1,0,0:0:0:0:
179,211,201941,1,0,0:0:0:0:
243,177,202022,1,0,0:0:0:0:
314,151,202103,1,0,0:0:0:0:
339,88,202184,1,0,0:0:0:0:
289,40,202265,1,0,0:0:0:0:
224,44,202346,1,0,0:0:0:0:
175,66,202427,2,0,P|145:133|155:176,1,97.9999970092774
281,220,202750,2,0,L|162:257,1,97.9999970092774
160,254,202993,1,0,0:0:0:0:
95,228,203074,5,0,0:0:0:0:
111,162,203155,1,0,0:0:0:0:
179,133,203236,1,0,0:0:0:0:
252,158,203317,1,0,0:0:0:0:
312,191,203398,1,0,0:0:0:0:
384,180,203478,1,0,0:0:0:0:
426,119,203559,1,0,0:0:0:0:
392,59,203640,1,0,0:0:0:0:
319,48,203721,5,0,0:0:0:0:
265,92,203802,1,0,0:0:0:0:
252,158,203883,1,0,0:0:0:0:
293,217,203964,1,0,0:0:0:0:
356,247,204045,1,0,0:0:0:0:
378,315,204126,1,0,0:0:0:0:
323,357,204207,1,0,0:0:0:0:
255,339,204288,1,0,0:0:0:0:
186,303,204368,6,0,P|149:272|152:217,1,97.9999970092774
208,119,204692,1,0,0:0:0:0:
321,270,204854,1,0,0:0:0:0:
91,168,205016,2,0,P|94:235|126:275,1,97.9999970092774
239,295,205339,1,0,0:0:0:0:
266,251,205420,1,0,0:0:0:0:
305,223,205501,1,0,0:0:0:0:
364,215,205582,1,0,0:0:0:0:
418,177,205663,5,0,0:0:0:0:
415,106,205744,1,0,0:0:0:0:
357,64,205825,1,0,0:0:0:0:
299,66,205906,1,0,0:0:0:0:
259,122,205987,1,0,0:0:0:0:
274,185,206067,1,0,0:0:0:0:
313,237,206148,1,0,0:0:0:0:
304,299,206229,1,0,0:0:0:0:
241,318,206310,5,0,0:0:0:0:
172,306,206391,1,0,0:0:0:0:
137,251,206472,1,0,0:0:0:0:
122,184,206553,1,0,0:0:0:0:
165,135,206634,1,0,0:0:0:0:
228,109,206715,1,0,0:0:0:0:
246,37,206796,1,0,0:0:0:0:
267,106,206877,1,0,0:0:0:0:
306,157,206957,5,0,0:0:0:0:
364,193,207038,1,0,0:0:0:0:
376,255,207119,1,0,0:0:0:0:
323,297,207200,1,0,0:0:0:0:
255,293,207281,1,0,0:0:0:0:
204,248,207362,1,0,0:0:0:0:
195,180,207443,1,0,0:0:0:0:
171,113,207524,1,0,0:0:0:0:
101,111,207605,2,0,L|83:198,2,48.9999985046387
179,47,207928,2,0,P|230:45|266:80,1,97.9999970092774
280,100,208171,1,0,0:0:0:0:
296,152,208252,5,0,0:0:0:0:
329,189,208333,1,0,0:0:0:0:
376,217,208414,1,0,0:0:0:0:
418,243,208495,1,0,0:0:0:0:
435,291,208576,1,0,0:0:0:0:
408,340,208656,1,0,0:0:0:0:
355,351,208737,1,0,0:0:0:0:
308,326,208818,1,0,0:0:0:0:
283,280,208899,5,0,0:0:0:0:
321,242,208980,1,0,0:0:0:0:
365,204,209061,1,0,0:0:0:0:
392,162,209142,1,0,0:0:0:0:
379,103,209223,1,0,0:0:0:0:
332,69,209304,1,0,0:0:0:0:
286,55,209385,1,0,0:0:0:0:
232,65,209466,1,0,0:0:0:0:
171,79,209546,2,0,L|112:175,1,97.9999970092774
232,185,209870,2,0,L|294:275,1,97.9999970092774
108,313,210194,1,0,0:0:0:0:
139,145,210355,5,0,0:0:0:0:
337,265,210517,1,0,0:0:0:0:
244,95,210679,1,0,0:0:0:0:
357,130,210841,5,0,0:0:0:0:
365,185,210922,1,0,0:0:0:0:
398,218,211003,1,0,0:0:0:0:
454,228,211084,1,0,0:0:0:0:
406,251,211165,1,0,0:0:0:0:
375,290,211245,1,0,0:0:0:0:
334,306,211326,1,0,0:0:0:0:
279,302,211407,1,0,0:0:0:0:
243,268,211488,5,0,0:0:0:0:
192,252,211569,1,0,0:0:0:0:
143,266,211650,1,0,0:0:0:0:
97,299,211731,1,0,0:0:0:0:
50,330,211812,1,0,0:0:0:0:
77,282,211893,1,0,0:0:0:0:
93,228,211974,1,0,0:0:0:0:
99,180,212055,1,0,0:0:0:0:
128,140,212135,5,0,0:0:0:0:
177,116,212216,1,0,0:0:0:0:
230,137,212297,1,0,0:0:0:0:
267,176,212378,1,0,0:0:0:0:
320,196,212459,1,0,0:0:0:0:
374,178,212540,1,0,0:0:0:0:
406,131,212621,1,0,0:0:0:0:
400,80,212702,1,0,0:0:0:0:
361,53,212783,2,0,L|245:71,1,97.9999970092774
141,83,213106,2,0,L|154:198,1,97.9999970092774
250,136,213430,5,0,0:0:0:0:
252,91,213511,1,0,0:0:0:0:
214,55,213592,1,0,0:0:0:0:
168,44,213673,1,0,0:0:0:0:
119,53,213754,1,0,0:0:0:0:
92,86,213834,1,0,0:0:0:0:
93,129,213915,1,0,0:0:0:0:
130,157,213996,1,0,0:0:0:0:
174,180,214077,5,0,0:0:0:0:
194,229,214158,1,0,0:0:0:0:
181,268,214239,1,0,0:0:0:0:
143,296,214320,1,0,0:0:0:0:
89,319,214401,1,0,0:0:0:0:
152,313,214482,1,0,0:0:0:0:
212,326,214563,1,0,0:0:0:0:
272,325,214644,1,0,0:0:0:0:
317,300,214724,2,0,L|337:195,1,97.9999970092774
264,102,215048,2,0,L|195:221,1,97.9999970092774
381,103,215372,1,0,0:0:0:0:
140,179,215533,5,0,0:0:0:0:
277,237,215695,1,0,0:0:0:0:
166,283,215857,2,0,P|120:240|187:130,1,195.999994018555
256,192,216343,12,0,220873,0:0:0:0:
