osu file format v14

[General]
AudioFilename: audio.mp3
AudioLeadIn: 0
PreviewTime: 195010
Countdown: 0
SampleSet: Normal
StackLeniency: 0.7
Mode: 1
LetterboxInBreaks: 0
WidescreenStoryboard: 0

[Editor]
Bookmarks: 11533,29655,50365,65897,68486,71074,102140,122850,133204,138382,143559,153914,174624,184979,190157,195334,216044,221222,260053,270403
DistanceSpacing: 0.9
BeatDivisor: 16
GridSize: 4
TimelineZoom: 2.599999

[Metadata]
Title:Cirno's Perfect Math Class - Ryu* remix -
TitleUnicode:Cirno's Perfect Math Class - Ryu☆ remix -
Artist:Ryu*
ArtistUnicode:Ryu☆
Creator:katacheh
Version:kata's PerfectShiftClass
Source:
Tags:Ryu☆ IOSYS ファンタジックぴこれーしょん! Picoration 東方紅魔郷 おてんば恋娘 ARM 夕野ヨシミ miko (Alternative ending) パーフェクト
BeatmapID:1027526
BeatmapSetID:481441

[Difficulty]
HPDrainRate:4
CircleSize:5
OverallDifficulty:5
ApproachRate:5
SliderMultiplier:1.4
SliderTickRate:1

[Events]
//Background and Video events
0,0,"BG.jpg",0,60
//Break Periods
2,1379,5156
2,216243,220021
//Storyboard Layer 0 (Background)
//Storyboard Layer 1 (Fail)
//Storyboard Layer 2 (Pass)
//Storyboard Layer 3 (Foreground)
//Storyboard Sound Samples

[TimingPoints]
1179,323.593178655794,4,1,0,100,1,0
1179,-1,4,1,0,100,0,1
1259,-109.89010989011,4,1,0,100,0,0
6356,-111.111111111111,4,1,0,100,0,0
10886,-108.695652173913,4,1,0,100,0,0
10967,-107.52688172043,4,1,0,100,0,0
11048,-106.382978723404,4,1,0,100,0,0
11129,-105.263157894737,4,1,0,100,0,0
11210,-104.166666666667,4,1,0,100,0,0
11291,-103.092783505155,4,1,0,100,0,0
11372,-102.040816326531,4,1,0,100,0,0
11453,-101.010101010101,4,1,0,100,0,0
11533,-100,4,1,0,100,0,0
18005,-133.333333333333,4,1,0,100,0,0
18167,-100,4,1,0,100,0,0
18329,-133.333333333333,4,1,0,100,0,0
18653,-100,4,1,0,100,0,0
18814,-133.333333333333,4,1,0,100,0,0
18976,-100,4,1,0,100,0,0
19623,-133.333333333333,4,1,0,100,0,0
19947,-100,4,1,0,100,0,0
20270,-133.333333333333,4,1,0,100,0,0
20594,-100,4,1,0,100,0,0
21403,-50,4,1,0,100,0,0
21808,-25,4,1,0,100,0,0
21969,-100,4,1,0,100,0,0
24477,5999994.82,4,1,0,100,1,8
27066,323.593178655794,4,1,0,100,1,0
27066,-66.6666666666667,4,1,0,100,0,0
27713,-58.8235294117647,4,1,0,100,0,0
28360,-55.5555555555556,4,1,0,100,0,0
29654,-100,4,1,0,100,0,0
34832,-666.666666666667,4,1,0,100,0,0
40009,-100,4,1,0,100,0,0
40009,-100,4,1,0,100,0,0
41304,-666.666666666667,4,1,0,100,0,0
42598,-100,4,1,0,100,0,0
43892,-666.666666666667,4,1,0,100,0,0
45187,-100,4,1,0,100,0,0
46481,-666.666666666667,4,1,0,100,0,0
47773,-100,4,1,0,100,0,0
47814,-104.166666666667,4,1,0,100,0,0
48014,-100,4,1,0,100,0,0
48055,-104.166666666667,4,1,0,100,0,0
48257,-100,4,1,0,100,0,0
48298,-104.166666666667,4,1,0,100,0,0
48500,-100,4,1,0,100,0,0
48541,-104.166666666667,4,1,0,100,0,0
48742,-100,4,1,0,100,0,0
48783,-104.166666666667,4,1,0,100,0,0
48904,-100,4,1,0,100,0,0
48945,-104.166666666667,4,1,0,100,0,0
49066,-100,4,1,0,100,0,0
49107,-104.166666666667,4,1,0,100,0,0
49228,-100,4,1,0,100,0,0
49269,-104.166666666667,4,1,0,100,0,0
49389,-100,4,1,0,100,0,0
49430,-104.166666666667,4,1,0,100,0,0
49551,-100,4,1,0,100,0,0
49592,-104.166666666667,4,1,0,100,0,0
49713,-100,4,1,0,100,0,0
49754,-104.166666666667,4,1,0,100,0,0
50000,-41.6666666666667,4,1,0,100,0,0
50122,-100,4,1,0,100,0,0
50362,-69.4444444444444,4,1,0,100,0,0
50443,-75.7575757575758,4,1,0,100,0,0
50524,-82.6446280991736,4,1,0,100,0,0
50605,-90.9090909090909,4,1,0,100,0,0
50686,-100,4,1,0,100,0,0
51657,-69.4444444444444,4,1,0,100,0,0
51738,-75.7575757575758,4,1,0,100,0,0
51819,-82.6446280991736,4,1,0,100,0,0
51900,-90.9090909090909,4,1,0,100,0,0
51981,-100,4,1,0,100,0,0
52951,-69.4444444444444,4,1,0,100,0,0
53032,-75.7575757575758,4,1,0,100,0,0
53113,-82.6446280991736,4,1,0,100,0,0
53194,-90.9090909090909,4,1,0,100,0,0
53275,-100,4,1,0,100,0,0
53598,-69.4444444444444,4,1,0,100,0,0
53679,-75.7575757575758,4,1,0,100,0,0
53760,-82.6446280991736,4,1,0,100,0,0
53841,-90.9090909090909,4,1,0,100,0,0
53922,-100,4,1,0,100,0,0
54086,-61.3496932515337,4,1,0,100,0,0
54166,-64.5161290322581,4,1,0,100,0,0
54247,-68.0272108843537,4,1,0,100,0,0
54328,-70.9219858156028,4,1,0,100,0,0
54409,-74.6268656716418,4,1,0,100,0,0
54490,-78.125,4,1,0,100,0,0
54571,-82.6446280991736,4,1,0,100,0,0
54652,-86.2068965517241,4,1,0,100,0,0
54733,-90.9090909090909,4,1,0,100,0,0
54814,-95.2380952380952,4,1,0,100,0,0
54895,-100,4,1,0,100,0,0
55540,-69.4444444444444,4,1,0,100,0,0
55621,-75.7575757575758,4,1,0,100,0,0
55702,-82.6446280991736,4,1,0,100,0,0
55783,-90.9090909090909,4,1,0,100,0,0
55864,-100,4,1,0,100,0,0
56834,-69.4444444444444,4,1,0,100,0,0
56915,-75.7575757575758,4,1,0,100,0,0
56996,-82.6446280991736,4,1,0,100,0,0
57077,-90.9090909090909,4,1,0,100,0,0
57158,-100,4,1,0,100,0,0
58130,-100,4,1,0,100,0,0
58211,-95.2380952380952,4,1,0,100,0,0
58292,-90.9090909090909,4,1,0,100,0,0
58373,-86.9565217391304,4,1,0,100,0,0
58454,-100,4,1,0,100,0,0
58535,-105.263157894737,4,1,0,100,0,0
58616,-111.111111111111,4,1,0,100,0,0
58697,-117.647058823529,4,1,0,100,0,0
58778,-100,4,1,0,100,0,0
58859,-95.2380952380954,4,1,0,100,0,0
58939,-90.9090909090908,4,1,0,100,0,0
59020,-86.9565217391302,4,1,0,100,0,0
59101,-100,4,1,0,100,0,0
59182,-105.263157894737,4,1,0,100,0,0
59263,-111.111111111111,4,1,0,100,0,0
59344,-117.64705882353,4,1,0,100,0,0
59425,-100,4,1,0,100,0,0
60153,-99.009900990099,4,1,0,100,0,0
60234,-98.0392156862745,4,1,0,100,0,0
60315,-96.1538461538461,4,1,0,100,0,0
60396,-94.3396226415094,4,1,0,100,0,0
60476,-91.743119266055,4,1,0,100,0,0
60557,-89.2857142857143,4,1,0,100,0,0
60638,-86.2068965517241,4,1,0,100,0,0
60719,-83.3333333333333,4,1,0,100,0,0
60881,-64.1025641025641,4,1,0,100,0,0
60962,-66.6666666666667,4,1,0,100,0,0
61043,-69.4444444444444,4,1,0,100,0,0
61124,-72.463768115942,4,1,0,100,0,0
61205,-75.7575757575758,4,1,0,100,0,0
61285,-79.3650793650794,4,1,0,100,0,0
61366,-83.3333333333333,4,1,0,100,0,0
62013,-66.6666666666667,4,1,0,100,0,0
62094,-68.9655172413793,4,1,0,100,0,0
62175,-71.4285714285714,4,1,0,100,0,0
62256,-74.0740740740741,4,1,0,100,0,0
62337,-76.9230769230769,4,1,0,100,0,0
62417,-80,4,1,0,100,0,0
62498,-83.3333333333333,4,1,0,100,0,0
64602,-56.4971751412429,4,1,0,100,0,0
64683,-58.8235294117647,4,1,0,100,0,0
64764,-61.3496932515337,4,1,0,100,0,0
64845,-64.5161290322581,4,1,0,100,0,0
64926,-67.5675675675676,4,1,0,100,0,0
65007,-70.9219858156028,4,1,0,100,0,0
65088,-74.6268656716418,4,1,0,100,0,0
65169,-78.7401574803149,4,1,0,100,0,0
65249,-83.3333333333333,4,1,0,100,0,0
65330,-50,4,1,0,100,0,0
65897,-100,4,1,0,100,0,0
65897,-100,4,1,0,100,0,0
66220,-50,4,1,0,100,0,0
66544,-100,4,1,0,100,0,0
66867,-50,4,1,0,100,0,0
67191,-100,4,1,0,100,0,0
67515,-50,4,1,0,100,0,0
67838,-100,4,1,0,100,0,0
68485,-50,4,1,0,100,0,0
68566,-52.0833333333333,4,1,0,100,0,0
68647,-54.3478260869565,4,1,0,100,0,0
68728,-56.8181818181818,4,1,0,100,0,0
68809,-59.5238095238095,4,1,0,100,0,0
68890,-62.5,4,1,0,100,0,0
68971,-65.7894736842105,4,1,0,100,0,0
69052,-69.4444444444444,4,1,0,100,0,0
69133,-73.5294117647059,4,1,0,100,0,0
69214,-78.125,4,1,0,100,0,0
69294,-83.3333333333333,4,1,0,100,0,0
69375,-89.2857142857143,4,1,0,100,0,0
69456,-96.1538461538461,4,1,0,100,0,0
69537,-104.166666666667,4,1,0,100,0,0
69618,-112.359550561798,4,1,0,100,0,0
69699,-121.951219512195,4,1,0,100,0,0
69780,-131.578947368421,4,1,0,100,0,0
69861,-142.857142857143,4,1,0,100,0,0
69942,-153.846153846154,4,1,0,100,0,0
70022,-166.666666666667,4,1,0,100,0,0
70103,-181.818181818182,4,1,0,100,0,0
70184,-200,4,1,0,100,0,0
70265,-217.391304347826,4,1,0,100,0,0
70346,-238.095238095238,4,1,0,100,0,0
70427,-256.410256410256,4,1,0,100,0,0
70508,-277.777777777778,4,1,0,100,0,0
70589,-294.117647058824,4,1,0,100,0,0
70670,-312.5,4,1,0,100,0,0
70751,-322.58064516129,4,1,0,100,0,0
71074,-50,4,1,0,100,0,0
71155,-51.0204081632653,4,1,0,100,0,0
71236,-52.0833333333333,4,1,0,100,0,0
71317,-53.1914893617021,4,1,0,100,0,0
71398,-54.3478260869565,4,1,0,100,0,0
71479,-55.5555555555556,4,1,0,100,0,0
71560,-56.8181818181818,4,1,0,100,0,0
71640,-58.1395348837209,4,1,0,100,0,0
71721,-59.5238095238095,4,1,0,100,0,0
71802,-60.9756097560976,4,1,0,100,0,0
71883,-62.5,4,1,0,100,0,0
71964,-64.1025641025641,4,1,0,100,0,0
72045,-65.7894736842105,4,1,0,100,0,0
72126,-67.5675675675676,4,1,0,100,0,0
72207,-69.4444444444444,4,1,0,100,0,0
72288,-71.4285714285714,4,1,0,100,0,0
72369,-73.5294117647059,4,1,0,100,0,0
72449,-75.7575757575758,4,1,0,100,0,0
72530,-78.125,4,1,0,100,0,0
72611,-80.6451612903226,4,1,0,100,0,0
72692,-83.3333333333333,4,1,0,100,0,0
72773,-86.2068965517241,4,1,0,100,0,0
72854,-89.2857142857143,4,1,0,100,0,0
72935,-92.5925925925926,4,1,0,100,0,0
73016,-96.1538461538461,4,1,0,100,0,0
73097,-100,4,1,0,100,0,0
73178,-104.166666666667,4,1,0,100,0,0
73258,-108.695652173913,4,1,0,100,0,0
73339,-113.636363636364,4,1,0,100,0,0
73420,-119.047619047619,4,1,0,100,0,0
73501,-125,4,1,0,100,0,0
73580,-131.578947368421,4,1,0,100,0,0
73661,-50,4,1,0,100,0,0
73742,-51.0204081632653,4,1,0,100,0,0
73823,-52.0833333333333,4,1,0,100,0,0
73904,-53.1914893617021,4,1,0,100,0,0
73985,-54.3478260869565,4,1,0,100,0,0
74066,-55.5555555555556,4,1,0,100,0,0
74147,-56.8181818181818,4,1,0,100,0,0
74227,-58.1395348837209,4,1,0,100,0,0
74308,-59.5238095238095,4,1,0,100,0,0
74389,-60.9756097560976,4,1,0,100,0,0
74470,-62.5,4,1,0,100,0,0
74551,-64.1025641025641,4,1,0,100,0,0
74632,-65.7894736842105,4,1,0,100,0,0
74713,-67.5675675675676,4,1,0,100,0,0
74794,-69.4444444444444,4,1,0,100,0,0
74875,-71.4285714285714,4,1,0,100,0,0
74956,-73.5294117647059,4,1,0,100,0,0
75036,-75.7575757575758,4,1,0,100,0,0
75117,-78.125,4,1,0,100,0,0
75198,-80.6451612903226,4,1,0,100,0,0
75279,-83.3333333333333,4,1,0,100,0,0
75360,-86.2068965517241,4,1,0,100,0,0
75441,-89.2857142857143,4,1,0,100,0,0
75522,-92.5925925925926,4,1,0,100,0,0
75603,-96.1538461538461,4,1,0,100,0,0
75684,-100,4,1,0,100,0,0
75764,-104.166666666667,4,1,0,100,0,0
75845,-108.695652173913,4,1,0,100,0,0
75926,-113.636363636364,4,1,0,100,0,0
76007,-119.047619047619,4,1,0,100,0,0
76088,-125,4,1,0,100,0,0
76169,-131.578947368421,4,1,0,100,0,0
76250,-50,4,1,0,100,0,0
76331,-51.0204081632653,4,1,0,100,0,0
76412,-52.0833333333333,4,1,0,100,0,0
76493,-53.1914893617021,4,1,0,100,0,0
76574,-54.3478260869565,4,1,0,100,0,0
76655,-55.5555555555556,4,1,0,100,0,0
76736,-56.8181818181818,4,1,0,100,0,0
76816,-58.1395348837209,4,1,0,100,0,0
76897,-59.5238095238095,4,1,0,100,0,0
76978,-60.9756097560976,4,1,0,100,0,0
77059,-62.5,4,1,0,100,0,0
77140,-64.1025641025641,4,1,0,100,0,0
77221,-65.7894736842105,4,1,0,100,0,0
77302,-67.5675675675676,4,1,0,100,0,0
77383,-69.4444444444444,4,1,0,100,0,0
77464,-73.5294117647059,4,1,0,100,0,0
77544,-75.7575757575758,4,1,0,100,0,0
78598,-100,4,1,0,100,0,0
78840,323.593178655794,4,1,0,100,1,0
78840,-1,4,1,0,100,0,1
78848,323.593178655794,4,1,0,100,1,0
79164,-100,4,1,0,100,0,0
79488,323.593178655794,4,1,0,100,1,0
79488,-1,4,1,0,100,0,1
79496,323.593178655794,4,1,0,100,1,0
79568,323.593178655794,4,1,0,100,1,0
79568,-1,4,1,0,100,0,1
79576,323.593178655794,4,1,0,100,1,0
79811,-100,4,1,0,100,0,0
80135,323.593178655794,4,1,0,100,1,0
80135,-1,4,1,0,100,0,1
80143,323.593178655794,4,1,0,100,1,0
80216,323.593178655794,4,1,0,100,1,0
80216,-1,4,1,0,100,0,1
80224,323.593178655794,4,1,0,100,1,0
80297,323.593178655794,4,1,0,100,1,0
80297,-1,4,1,0,100,0,1
80305,323.593178655794,4,1,0,100,1,0
80377,323.593178655794,4,1,0,100,1,0
80377,-1,4,1,0,100,0,1
80385,323.593178655794,4,1,0,100,1,0
80458,323.593178655794,4,1,0,100,1,0
80458,-1,4,1,0,100,0,1
80466,323.593178655794,4,1,0,100,1,0
80539,323.593178655794,4,1,0,100,1,0
80539,-1,4,1,0,100,0,1
80547,323.593178655794,4,1,0,100,1,0
80620,323.593178655794,4,1,0,100,1,0
80620,-1,4,1,0,100,0,1
80628,323.593178655794,4,1,0,100,1,0
80701,323.593178655794,4,1,0,100,1,0
80701,-1,4,1,0,100,0,1
80709,323.593178655794,4,1,0,100,1,0
80782,323.593178655794,4,1,0,100,1,0
80782,-1,4,1,0,100,0,1
80790,323.593178655794,4,1,0,100,1,0
80790,-25,4,1,0,100,0,0
81429,323.593178655794,4,1,0,100,1,0
82722,323.593178655794,4,1,0,100,1,8
82881,323.593178655794,4,1,0,100,1,0
82881,-1,4,1,0,100,0,1
82889,323.593178655794,4,1,0,100,1,0
83043,323.593178655794,4,1,0,100,1,0
83043,-1,4,1,0,100,0,1
83051,323.593178655794,4,1,0,100,1,0
83205,323.593178655794,4,1,0,100,1,0
83205,-1,4,1,0,100,0,1
83213,323.593178655794,4,1,0,100,1,0
83367,323.593178655794,4,1,0,100,1,0
83367,-1,4,1,0,100,0,1
83375,323.593178655794,4,1,0,100,1,0
84669,323.593178655794,4,1,0,100,1,8
85470,323.593178655794,4,1,0,100,1,0
85470,-1,4,1,0,100,0,1
85478,323.593178655794,4,1,0,100,1,0
85551,323.593178655794,4,1,0,100,1,0
85551,-1,4,1,0,100,0,1
85559,323.593178655794,4,1,0,100,1,0
85632,323.593178655794,4,1,0,100,1,0
85632,-1,4,1,0,100,0,1
85640,323.593178655794,4,1,0,100,1,0
85713,323.593178655794,4,1,0,100,1,0
85713,-1,4,1,0,100,0,1
85721,323.593178655794,4,1,0,100,1,0
85794,323.593178655794,4,1,0,100,1,0
85794,-1,4,1,0,100,0,1
85802,323.593178655794,4,1,0,100,1,0
85875,323.593178655794,4,1,0,100,1,0
85875,-1,4,1,0,100,0,1
85883,323.593178655794,4,1,0,100,1,0
85955,323.593178655794,4,1,0,100,1,0
85955,-1,4,1,0,100,0,1
85963,323.593178655794,4,1,0,100,1,0
87257,323.593178655794,4,1,0,100,1,8
88551,323.593178655794,4,1,0,100,1,8
89845,323.593178655794,4,1,0,100,1,8
90486,323.593178655794,4,1,0,100,1,0
90486,-1,4,1,0,100,0,1
90494,323.593178655794,4,1,0,100,1,0
90809,323.593178655794,4,1,0,100,1,0
90809,-1,4,1,0,100,0,1
90817,323.593178655794,4,1,0,100,1,0
91133,323.593178655794,4,1,0,100,1,0
91133,-1,4,1,0,100,0,1
91141,323.593178655794,4,1,0,100,1,0
92435,323.593178655794,4,1,0,100,1,8
93236,323.593178655794,4,1,0,100,1,0
93236,-1,4,1,0,100,0,1
93244,323.593178655794,4,1,0,100,1,0
93398,323.593178655794,4,1,0,100,1,0
93398,-1,4,1,0,100,0,1
93406,323.593178655794,4,1,0,100,1,0
93560,323.593178655794,4,1,0,100,1,0
93560,-1,4,1,0,100,0,1
93568,323.593178655794,4,1,0,100,1,0
93722,323.593178655794,4,1,0,100,1,0
93722,-1,4,1,0,100,0,1
93730,323.593178655794,4,1,0,100,1,0
95024,323.593178655794,4,1,0,100,1,8
95825,323.593178655794,4,1,0,100,1,0
95825,-1,4,1,0,100,0,1
95833,323.593178655794,4,1,0,100,1,0
95906,323.593178655794,4,1,0,100,1,0
95906,-1,4,1,0,100,0,1
95914,323.593178655794,4,1,0,100,1,0
95987,323.593178655794,4,1,0,100,1,0
95987,-1,4,1,0,100,0,1
95995,323.593178655794,4,1,0,100,1,0
96067,323.593178655794,4,1,0,100,1,0
96067,-1,4,1,0,100,0,1
96075,323.593178655794,4,1,0,100,1,0
96148,323.593178655794,4,1,0,100,1,0
96148,-1,4,1,0,100,0,1
96156,323.593178655794,4,1,0,100,1,0
96229,323.593178655794,4,1,0,100,1,0
96229,-1,4,1,0,100,0,1
96237,323.593178655794,4,1,0,100,1,0
96310,323.593178655794,4,1,0,100,1,0
96310,-1,4,1,0,100,0,1
96318,323.593178655794,4,1,0,100,1,0
97612,323.593178655794,4,1,0,100,1,8
98906,323.593178655794,4,1,0,100,1,8
100200,323.593178655794,4,1,0,100,1,8
101494,323.593178655794,4,1,0,100,1,8
101573,-66.6666666666667,4,1,0,100,0,0
101977,-100,4,1,0,100,0,0
102139,323.593178655794,4,1,0,100,1,0
102301,-100,4,1,0,100,0,0
102623,-33.3333333333333,4,1,0,100,0,0
102786,-100,4,1,0,100,0,0
103272,-33.3333333333333,4,1,0,100,0,0
103433,-100,4,1,0,100,0,0
103593,-33.3333333333333,4,1,0,100,0,0
103757,-100,4,1,0,100,0,0
103917,-33.3333333333333,4,1,0,100,0,0
104081,-100,4,1,0,100,0,0
104402,-33.3333333333333,4,1,0,100,0,0
104566,-100,4,1,0,100,0,0
104726,-33.3333333333333,4,1,0,100,0,0
104890,-100,4,1,0,100,0,0
105211,-33.3333333333333,4,1,0,100,0,0
105375,-100,4,1,0,100,0,0
105697,-33.3333333333333,4,1,0,100,0,0
105860,-100,4,1,0,100,0,0
106022,-33.3333333333333,4,1,0,100,0,0
106184,-100,4,1,0,100,0,0
106346,-33.3333333333333,4,1,0,100,0,0
106508,-100,4,1,0,100,0,0
106667,-33.3333333333333,4,1,0,100,0,0
107317,-100,4,1,0,100,0,0
107638,-33.3333333333333,4,1,0,100,0,0
107802,-100,4,1,0,100,0,0
107962,-33.3333333333333,4,1,0,100,0,0
108126,-100,4,1,0,100,0,0
108449,-33.3333333333333,4,1,0,100,0,0
108611,-100,4,1,0,100,0,0
108771,-33.3333333333333,4,1,0,100,0,0
108935,-100,4,1,0,100,0,0
109094,-33.3333333333333,4,1,0,100,0,0
109258,-100,4,1,0,100,0,0
109580,-33.3333333333333,4,1,0,100,0,0
109744,-100,4,1,0,100,0,0
109903,-33.3333333333333,4,1,0,100,0,0
110067,-100,4,1,0,100,0,0
110389,-33.3333333333333,4,1,0,100,0,0
110553,-100,4,1,0,100,0,0
110712,-33.3333333333333,4,1,0,100,0,0
110876,-100,4,1,0,100,0,0
111038,-33.3333333333333,4,1,0,100,0,0
111200,-100,4,1,0,100,0,0
111360,-33.3333333333333,4,1,0,100,0,0
111523,-100,4,1,0,100,0,0
111845,-33.3333333333333,4,1,0,100,0,0
112494,-100,4,1,0,100,0,0
112816,-33.3333333333333,4,1,0,100,0,0
112979,-100,4,1,0,100,0,0
113139,-33.3333333333333,4,1,0,100,0,0
113303,-100,4,1,0,100,0,0
113627,-33.3333333333333,4,1,0,100,0,0
113788,-100,4,1,0,100,0,0
113948,-33.3333333333333,4,1,0,100,0,0
114112,-100,4,1,0,100,0,0
114436,-33.3333333333333,4,1,0,100,0,0
114597,-100,4,1,0,100,0,0
114757,-33.3333333333333,4,1,0,100,0,0
114921,-100,4,1,0,100,0,0
115081,-33.3333333333333,4,1,0,100,0,0
115245,-100,4,1,0,100,0,0
115566,-33.3333333333333,4,1,0,100,0,0
115730,-100,4,1,0,100,0,0
116215,-33.3333333333333,4,1,0,100,0,0
116377,-100,4,1,0,100,0,0
116537,-33.3333333333333,4,1,0,100,0,0
116701,-100,4,1,0,100,0,0
117024,-33.3333333333333,4,1,0,100,0,0
117186,-100,4,1,0,100,0,0
117670,-33.3333333333333,4,1,0,100,0,0
117833,-100,4,1,0,100,0,0
118155,-33.3333333333333,4,1,0,100,0,0
118319,-100,4,1,0,100,0,0
118481,-33.3333333333333,4,1,0,100,0,0
118642,-100,4,1,0,100,0,0
118804,-33.3333333333333,4,1,0,100,0,0
118966,-100,4,1,0,100,0,0
119126,-33.3333333333333,4,1,0,100,0,0
119290,-100,4,1,0,100,0,0
119613,-33.3333333333333,4,1,0,100,0,0
119775,-100,4,1,0,100,0,0
119935,-33.3333333333333,4,1,0,100,0,0
120099,-100,4,1,0,100,0,0
120258,-33.3333333333333,4,1,0,100,0,0
120422,-100,4,1,0,100,0,0
120744,-33.3333333333333,4,1,0,100,0,0
120908,-100,4,1,0,100,0,0
121069,-33.3333333333333,4,1,0,100,0,0
121231,-100,4,1,0,100,0,0
121553,-33.3333333333333,4,1,0,100,0,0
122364,-50,4,1,0,100,0,0
122768,-200,4,1,0,100,0,0
123010,-204.081632653061,4,1,0,100,0,0
123172,-200,4,1,0,100,0,0
123334,-196.078431372549,4,1,0,100,0,0
123496,-200,4,1,0,100,0,0
123657,-204.081632653061,4,1,0,100,0,0
123819,-200,4,1,0,100,0,0
123981,-196.078431372549,4,1,0,100,0,0
124143,-200,4,1,0,100,0,0
124305,-204.081632653061,4,1,0,100,0,0
124466,-200,4,1,0,100,0,0
124628,-196.078431372549,4,1,0,100,0,0
124790,-200,4,1,0,100,0,0
124952,-204.081632653061,4,1,0,100,0,0
125114,-200,4,1,0,100,0,0
125275,-196.078431372549,4,1,0,100,0,0
125437,-200,4,1,0,100,0,0
125599,-204.081632653061,4,1,0,100,0,0
125761,-200,4,1,0,100,0,0
125923,-196.078431372549,4,1,0,100,0,0
126084,-200,4,1,0,100,0,0
126246,-204.081632653061,4,1,0,100,0,0
126408,-200,4,1,0,100,0,0
126570,-196.078431372549,4,1,0,100,0,0
126732,-204.081632653061,4,1,0,100,0,0
126893,-200,4,1,0,100,0,0
127055,-196.078431372549,4,1,0,100,0,0
127217,-204.081632653061,4,1,0,100,0,0
127379,-200,4,1,0,100,0,0
127595,-25,4,1,0,100,0,0
127945,-196.078431372549,4,1,0,100,0,0
128188,-200,4,1,0,100,0,0
128350,-204.081632653061,4,1,0,100,0,0
128511,-200,4,1,0,100,0,0
128673,-196.078431372549,4,1,0,100,0,0
128835,-200,4,1,0,100,0,0
128997,-204.081632653061,4,1,0,100,0,0
129159,-200,4,1,0,100,0,0
129320,-196.078431372549,4,1,0,100,0,0
129482,-200,4,1,0,100,0,0
129644,-204.081632653061,4,1,0,100,0,0
129806,-200,4,1,0,100,0,0
129968,-196.078431372549,4,1,0,100,0,0
130129,-200,4,1,0,100,0,0
130291,-204.081632653061,4,1,0,100,0,0
130453,-196.078431372549,4,1,0,100,0,0
130615,-200,4,1,0,100,0,0
130696,-204.081632653061,4,1,0,100,0,0
130776,-200,4,1,0,100,0,0
130857,-196.078431372549,4,1,0,100,0,0
130938,-200,4,1,0,100,0,0
131019,-204.081632653061,4,1,0,100,0,0
131100,-200,4,1,0,100,0,0
131181,-196.078431372549,4,1,0,100,0,0
131262,-200,4,1,0,100,0,0
131343,-204.081632653061,4,1,0,100,0,0
131424,-200,4,1,0,100,0,0
131505,-196.078431372549,4,1,0,100,0,0
131585,-200,4,1,0,100,0,0
131666,-204.081632653061,4,1,0,100,0,0
131747,-200,4,1,0,100,0,0
131828,-196.078431372549,4,1,0,100,0,0
131909,-200,4,1,0,100,0,0
132610,-25,4,1,0,100,0,0
133203,-200,4,1,0,100,0,0
134093,-50,4,1,0,100,0,0
134336,-200,4,1,0,100,0,0
135226,-50,4,1,0,100,0,0
135630,-200,4,1,0,100,0,0
137815,-50,4,1,0,100,0,0
138381,-200,4,1,0,100,0,0
138705,-50,4,1,0,100,0,0
139028,-200,4,1,0,100,0,0
139352,-50,4,1,0,100,0,0
139675,-200,4,1,0,100,0,0
139999,-50,4,1,0,100,0,0
140322,-200,4,1,0,100,0,0
140727,-50,4,1,0,100,0,0
140950,-50,4,1,0,100,0,0
141031,-52.0833333333333,4,1,0,100,0,0
141112,-54.3478260869565,4,1,0,100,0,0
141193,-56.8181818181818,4,1,0,100,0,0
141274,-59.5238095238095,4,1,0,100,0,0
141355,-62.5,4,1,0,100,0,0
141436,-65.7894736842105,4,1,0,100,0,0
141517,-69.4444444444444,4,1,0,100,0,0
141598,-73.5294117647059,4,1,0,100,0,0
141679,-78.125,4,1,0,100,0,0
141759,-83.3333333333333,4,1,0,100,0,0
141840,-89.2857142857143,4,1,0,100,0,0
141921,-96.1538461538461,4,1,0,100,0,0
142002,-104.166666666667,4,1,0,100,0,0
142083,-112.359550561798,4,1,0,100,0,0
142164,-121.951219512195,4,1,0,100,0,0
142245,-131.578947368421,4,1,0,100,0,0
142326,-142.857142857143,4,1,0,100,0,0
142407,-153.846153846154,4,1,0,100,0,0
142487,-166.666666666667,4,1,0,100,0,0
142568,-181.818181818182,4,1,0,100,0,0
142649,-200,4,1,0,100,0,0
142730,-217.391304347826,4,1,0,100,0,0
142811,-238.095238095238,4,1,0,100,0,0
142892,-256.410256410256,4,1,0,100,0,0
142973,-277.777777777778,4,1,0,100,0,0
143054,-294.117647058824,4,1,0,100,0,0
143135,-312.5,4,1,0,100,0,0
143216,-322.58064516129,4,1,0,100,0,0
143555,-50,4,1,0,100,0,0
143636,-51.0204081632653,4,1,0,100,0,0
143717,-52.0833333333333,4,1,0,100,0,0
143798,-53.1914893617021,4,1,0,100,0,0
143879,-54.3478260869565,4,1,0,100,0,0
143960,-55.5555555555556,4,1,0,100,0,0
144041,-56.8181818181818,4,1,0,100,0,0
144121,-58.1395348837209,4,1,0,100,0,0
144202,-59.5238095238095,4,1,0,100,0,0
144283,-60.9756097560976,4,1,0,100,0,0
144364,-62.5,4,1,0,100,0,0
144445,-64.1025641025641,4,1,0,100,0,0
144526,-65.7894736842105,4,1,0,100,0,0
144607,-67.5675675675676,4,1,0,100,0,0
144688,-69.4444444444444,4,1,0,100,0,0
144769,-71.4285714285714,4,1,0,100,0,0
144850,-73.5294117647059,4,1,0,100,0,0
144930,-75.7575757575758,4,1,0,100,0,0
145011,-78.125,4,1,0,100,0,0
145092,-80.6451612903226,4,1,0,100,0,0
145173,-83.3333333333333,4,1,0,100,0,0
145254,-86.2068965517241,4,1,0,100,0,0
145335,-89.2857142857143,4,1,0,100,0,0
145416,-92.5925925925926,4,1,0,100,0,0
145497,-96.1538461538461,4,1,0,100,0,0
145578,-100,4,1,0,100,0,0
145660,-104.166666666667,4,1,0,100,0,0
145741,-108.695652173913,4,1,0,100,0,0
145822,-113.636363636364,4,1,0,100,0,0
145903,-119.047619047619,4,1,0,100,0,0
145984,-125,4,1,0,100,0,0
146064,-131.578947368421,4,1,0,100,0,0
146144,-50,4,1,0,100,0,0
146225,-51.0204081632653,4,1,0,100,0,0
146306,-52.0833333333333,4,1,0,100,0,0
146387,-53.1914893617021,4,1,0,100,0,0
146468,-54.3478260869565,4,1,0,100,0,0
146549,-55.5555555555556,4,1,0,100,0,0
146630,-56.8181818181818,4,1,0,100,0,0
146710,-58.1395348837209,4,1,0,100,0,0
146791,-59.5238095238095,4,1,0,100,0,0
146872,-60.9756097560976,4,1,0,100,0,0
146953,-62.5,4,1,0,100,0,0
147034,-64.1025641025641,4,1,0,100,0,0
147115,-65.7894736842105,4,1,0,100,0,0
147196,-67.5675675675676,4,1,0,100,0,0
147277,-69.4444444444444,4,1,0,100,0,0
147358,-71.4285714285714,4,1,0,100,0,0
147439,-73.5294117647059,4,1,0,100,0,0
147519,-75.7575757575758,4,1,0,100,0,0
147600,-78.125,4,1,0,100,0,0
147681,-80.6451612903226,4,1,0,100,0,0
147762,-83.3333333333333,4,1,0,100,0,0
147843,-86.2068965517241,4,1,0,100,0,0
147924,-89.2857142857143,4,1,0,100,0,0
148005,-92.5925925925926,4,1,0,100,0,0
148086,-96.1538461538461,4,1,0,100,0,0
148167,-100,4,1,0,100,0,0
148249,-104.166666666667,4,1,0,100,0,0
148330,-108.695652173913,4,1,0,100,0,0
148411,-113.636363636364,4,1,0,100,0,0
148492,-119.047619047619,4,1,0,100,0,0
148573,-125,4,1,0,100,0,0
148653,-131.578947368421,4,1,0,100,0,0
148733,-50,4,1,0,100,0,0
148814,-51.0204081632653,4,1,0,100,0,0
148895,-52.0833333333333,4,1,0,100,0,0
148976,-53.1914893617021,4,1,0,100,0,0
149057,-54.3478260869565,4,1,0,100,0,0
149138,-55.5555555555556,4,1,0,100,0,0
149219,-56.8181818181818,4,1,0,100,0,0
149299,-58.1395348837209,4,1,0,100,0,0
149380,-59.5238095238095,4,1,0,100,0,0
149461,-60.9756097560976,4,1,0,100,0,0
149542,-62.5,4,1,0,100,0,0
149623,-64.1025641025641,4,1,0,100,0,0
149704,-65.7894736842105,4,1,0,100,0,0
149785,-67.5675675675676,4,1,0,100,0,0
149866,-69.4444444444444,4,1,0,100,0,0
149947,-73.5294117647059,4,1,0,100,0,0
150030,323.593178655794,4,1,0,100,1,0
150030,-1,4,1,0,100,0,1
150038,323.593178655794,4,1,0,100,1,0
150354,323.593178655794,4,1,0,100,1,0
150354,-1,4,1,0,100,0,1
150362,323.593178655794,4,1,0,100,1,0
150677,323.593178655794,4,1,0,100,1,0
150677,-1,4,1,0,100,0,1
150685,323.593178655794,4,1,0,100,1,0
151001,323.593178655794,4,1,0,100,1,0
151001,-1,4,1,0,100,0,1
151009,323.593178655794,4,1,0,100,1,0
151325,323.593178655794,4,1,0,100,1,0
151325,-1,4,1,0,100,0,1
151333,323.593178655794,4,1,0,100,1,0
151972,323.593178655794,4,1,0,100,1,0
151972,-1,4,1,0,100,0,1
151980,323.593178655794,4,1,0,100,1,0
152053,323.593178655794,4,1,0,100,1,0
152053,-1,4,1,0,100,0,1
152061,323.593178655794,4,1,0,100,1,0
152619,323.593178655794,4,1,0,100,1,0
152619,-1,4,1,0,100,0,1
152627,323.593178655794,4,1,0,100,1,0
152700,323.593178655794,4,1,0,100,1,0
152700,-1,4,1,0,100,0,1
152708,323.593178655794,4,1,0,100,1,0
152781,323.593178655794,4,1,0,100,1,0
152781,-1,4,1,0,100,0,1
152789,323.593178655794,4,1,0,100,1,0
152862,323.593178655794,4,1,0,100,1,0
152862,-1,4,1,0,100,0,1
152870,323.593178655794,4,1,0,100,1,0
152943,323.593178655794,4,1,0,100,1,0
152943,-1,4,1,0,100,0,1
152951,323.593178655794,4,1,0,100,1,0
153023,323.593178655794,4,1,0,100,1,0
153023,-1,4,1,0,100,0,1
153031,323.593178655794,4,1,0,100,1,0
153104,323.593178655794,4,1,0,100,1,0
153104,-1,4,1,0,100,0,1
153112,323.593178655794,4,1,0,100,1,0
153185,323.593178655794,4,1,0,100,1,0
153185,-1,4,1,0,100,0,1
153193,323.593178655794,4,1,0,100,1,0
153266,323.593178655794,4,1,0,100,1,0
153266,-1,4,1,0,100,0,1
153274,323.593178655794,4,1,0,100,1,0
153913,323.593178655794,4,1,0,100,1,0
153913,-100,4,1,0,100,0,0
155207,323.593178655794,4,1,0,100,1,8
155369,323.593178655794,4,1,0,100,1,0
155369,-1,4,1,0,100,0,1
155377,323.593178655794,4,1,0,100,1,0
155530,323.593178655794,4,1,0,100,1,0
155530,-1,4,1,0,100,0,1
155538,323.593178655794,4,1,0,100,1,0
155692,323.593178655794,4,1,0,100,1,0
155692,-1,4,1,0,100,0,1
155700,323.593178655794,4,1,0,100,1,0
155854,323.593178655794,4,1,0,100,1,0
155854,-1,4,1,0,100,0,1
155862,323.593178655794,4,1,0,100,1,0
157156,323.593178655794,4,1,0,100,1,8
157957,323.593178655794,4,1,0,100,1,0
157957,-1,4,1,0,100,0,1
157965,323.593178655794,4,1,0,100,1,0
158038,323.593178655794,4,1,0,100,1,0
158038,-1,4,1,0,100,0,1
158046,323.593178655794,4,1,0,100,1,0
158119,323.593178655794,4,1,0,100,1,0
158119,-1,4,1,0,100,0,1
158127,323.593178655794,4,1,0,100,1,0
158200,323.593178655794,4,1,0,100,1,0
158200,-1,4,1,0,100,0,1
158208,323.593178655794,4,1,0,100,1,0
158281,323.593178655794,4,1,0,100,1,0
158281,-1,4,1,0,100,0,1
158289,323.593178655794,4,1,0,100,1,0
158362,323.593178655794,4,1,0,100,1,0
158362,-1,4,1,0,100,0,1
158370,323.593178655794,4,1,0,100,1,0
158443,323.593178655794,4,1,0,100,1,0
158443,-1,4,1,0,100,0,1
158451,323.593178655794,4,1,0,100,1,0
159745,323.593178655794,4,1,0,100,1,8
161039,323.593178655794,4,1,0,100,1,0
162333,323.593178655794,4,1,0,100,1,8
162973,323.593178655794,4,1,0,100,1,0
162973,-1,4,1,0,100,0,1
162981,323.593178655794,4,1,0,100,1,0
163297,323.593178655794,4,1,0,100,1,0
163297,-1,4,1,0,100,0,1
163305,323.593178655794,4,1,0,100,1,0
163620,323.593178655794,4,1,0,100,1,0
163620,-1,4,1,0,100,0,1
163628,323.593178655794,4,1,0,100,1,0
164922,323.593178655794,4,1,0,100,1,8
165724,323.593178655794,4,1,0,100,1,0
165724,-1,4,1,0,100,0,1
165732,323.593178655794,4,1,0,100,1,0
165885,323.593178655794,4,1,0,100,1,0
165885,-1,4,1,0,100,0,1
165893,323.593178655794,4,1,0,100,1,0
166047,323.593178655794,4,1,0,100,1,0
166047,-1,4,1,0,100,0,1
166055,323.593178655794,4,1,0,100,1,0
166209,323.593178655794,4,1,0,100,1,0
166209,-1,4,1,0,100,0,1
166217,323.593178655794,4,1,0,100,1,0
167511,323.593178655794,4,1,0,100,1,8
168312,323.593178655794,4,1,0,100,1,0
168312,-1,4,1,0,100,0,1
168320,323.593178655794,4,1,0,100,1,0
168393,323.593178655794,4,1,0,100,1,0
168393,-1,4,1,0,100,0,1
168401,323.593178655794,4,1,0,100,1,0
168474,323.593178655794,4,1,0,100,1,0
168474,-1,4,1,0,100,0,1
168482,323.593178655794,4,1,0,100,1,0
168555,323.593178655794,4,1,0,100,1,0
168555,-1,4,1,0,100,0,1
168563,323.593178655794,4,1,0,100,1,0
168636,323.593178655794,4,1,0,100,1,0
168636,-1,4,1,0,100,0,1
168644,323.593178655794,4,1,0,100,1,0
168717,323.593178655794,4,1,0,100,1,0
168717,-1,4,1,0,100,0,1
168725,323.593178655794,4,1,0,100,1,0
168798,323.593178655794,4,1,0,100,1,0
168798,-1,4,1,0,100,0,1
168806,323.593178655794,4,1,0,100,1,0
170100,323.593178655794,4,1,0,100,1,0
171394,323.593178655794,4,1,0,100,1,8
172688,323.593178655794,4,1,0,100,1,8
173982,323.593178655794,4,1,0,100,1,8
174062,-66.6666666666667,4,1,0,100,0,8
174624,323.593178655794,4,1,0,100,1,0
174624,-66.6666666666667,4,1,0,100,0,0
175835,-76.9230769230769,4,1,0,100,0,0
177129,-90.9090909090909,4,1,0,100,0,0
178424,-111.111111111111,4,1,0,100,0,0
179071,-125,4,1,0,100,0,0
179718,-142.857142857143,4,1,0,100,0,0
180123,-166.666666666667,4,1,0,100,0,0
180689,-175.438596491228,4,1,0,100,0,0
180932,-185.185185185185,4,1,0,100,0,0
181417,-200,4,1,0,100,0,0
184976,-200,4,1,0,100,0,0
185138,-196.078431372549,4,1,0,100,0,0
185300,-200,4,1,0,100,0,0
185462,-204.081632653061,4,1,0,100,0,0
185624,-192.307692307692,4,1,0,100,0,0
185785,-200,4,1,0,100,0,0
185947,-208.333333333333,4,1,0,100,0,0
186109,-200,4,1,0,100,0,0
186271,-188.679245283019,4,1,0,100,0,0
186433,-200,4,1,0,100,0,0
186594,-212.765957446809,4,1,0,100,0,0
186756,-200,4,1,0,100,0,0
186918,-185.185185185185,4,1,0,100,0,0
187080,-200,4,1,0,100,0,0
187242,-217.391304347826,4,1,0,100,0,0
187403,-200,4,1,0,100,0,0
187565,-181.818181818182,4,1,0,100,0,0
187727,-200,4,1,0,100,0,0
187889,-222.222222222222,4,1,0,100,0,0
188051,-200,4,1,0,100,0,0
188212,-178.571428571429,4,1,0,100,0,0
188374,-200,4,1,0,100,0,0
188536,-227.272727272727,4,1,0,100,0,0
188698,-200,4,1,0,100,0,0
188860,-175.438596491228,4,1,0,100,0,0
189021,-200,4,1,0,100,0,0
189183,-232.558139534884,4,1,0,100,0,0
189345,-200,4,1,0,100,0,0
189507,-172.413793103448,4,1,0,100,0,0
189669,-200,4,1,0,100,0,0
189830,-238.095238095238,4,1,0,100,0,0
189992,-200,4,1,0,100,0,0
190154,-100,4,1,0,100,0,0
190316,-55.5555555555556,4,1,0,100,0,0
190478,-33.3333333333333,4,1,0,100,0,0
190639,-40,4,1,0,100,0,0
190801,-33.3333333333333,4,1,0,100,0,0
190963,-25,4,1,0,100,0,0
191125,-50,4,1,0,100,0,0
191287,-55.5555555555556,4,1,0,100,0,0
191448,-25,4,1,0,100,0,0
191610,-33.3333333333333,4,1,0,100,0,0
191772,-29.4117647058824,4,1,0,100,0,0
191934,-25,4,1,0,100,0,0
192096,-32.258064516129,4,1,0,100,0,0
192257,-27.027027027027,4,1,0,100,0,0
192419,-25,4,1,0,100,0,0
192581,-25,4,1,0,100,0,0
192743,-25,4,1,0,100,0,0
192905,-1,4,1,0,100,0,0
195008,-100,4,1,0,100,0,0
195657,-50,4,1,0,100,0,0
195736,-100,4,1,0,100,0,0
195981,-50,4,1,0,100,0,0
196060,-100,4,1,0,100,0,0
196304,-50,4,1,0,100,0,0
196383,-100,4,1,0,100,0,0
196628,-50,4,1,0,100,0,0
196707,-100,4,1,0,100,0,0
196951,-50,4,1,0,100,0,0
197030,-100,4,1,0,100,0,0
197922,-50,4,1,0,100,0,0
198084,-100,4,1,0,100,0,0
198246,-50,4,1,0,100,0,0
198408,-100,4,1,0,100,0,0
198569,-50,4,1,0,100,0,0
198731,-100,4,1,0,100,0,0
198892,-50,4,1,0,100,0,0
199055,-100,4,1,0,100,0,0
200457,-1,4,1,0,100,0,0
200673,-100,4,1,0,100,0,0
200781,-1,4,1,0,100,0,0
200996,-100,4,1,0,100,0,0
201104,-1,4,1,0,100,0,0
201320,-100,4,1,0,100,0,0
201428,-1,4,1,0,100,0,0
201644,-100,4,1,0,100,0,0
201751,-1,4,1,0,100,0,0
201967,-100,4,1,0,100,0,0
202075,-1,4,1,0,100,0,0
202291,-100,4,1,0,100,0,0
203369,-1,4,1,0,100,0,0
203502,-100,4,1,0,100,0,0
203693,-1,4,1,0,100,0,0
203826,-100,4,1,0,100,0,0
204017,-1,4,1,0,100,0,0
204149,-100,4,1,0,100,0,0
205958,-1,4,1,0,100,0,0
206091,-100,4,1,0,100,0,0
206282,-1,4,1,0,100,0,0
206415,-100,4,1,0,100,0,0
206605,-1,4,1,0,100,0,0
206713,-100,4,1,0,100,0,0
206929,-1,4,1,0,100,0,0
207037,-100,4,1,0,100,0,0
207252,-1,4,1,0,100,0,0
207360,-100,4,1,0,100,0,0
207576,-1,4,1,0,100,0,0
207684,-100,4,1,0,100,0,0
208547,-1,4,1,0,100,0,0
208680,-100,4,1,0,100,0,0
208870,-1,4,1,0,100,0,0
209003,-100,4,1,0,100,0,0
209194,-1,4,1,0,100,0,0
209327,-100,4,1,0,100,0,0
211136,-1,4,1,0,100,0,0
211268,-100,4,1,0,100,0,0
211459,-1,4,1,0,100,0,0
211592,-100,4,1,0,100,0,0
211783,-1,4,1,0,100,0,0
211916,-100,4,1,0,100,0,0
212106,-1,4,1,0,100,0,0
212239,-100,4,1,0,100,0,0
212430,-1,4,1,0,100,0,0
212563,-100,4,1,0,100,0,0
213401,-1,4,1,0,100,0,0
213563,-100,4,1,0,100,0,0
213724,-1,4,1,0,100,0,0
213886,-100,4,1,0,100,0,0
214048,-1,4,1,0,100,0,0
214210,-100,4,1,0,100,0,0
214372,-1,4,1,0,100,0,0
214533,-100,4,1,0,100,0,0
215963,-100,4,1,0,100,0,0
221221,-100,4,1,0,100,0,0
221261,-25,4,1,0,100,0,0
222515,-100,4,1,0,100,0,0
222556,-25,4,1,0,100,0,0
223810,-100,4,1,0,100,0,0
223850,-25,4,1,0,100,0,0
225104,-100,4,1,0,100,0,0
225144,-25,4,1,0,100,0,0
226398,-100,4,1,0,100,0,0
226439,-25,4,1,0,100,0,0
226938,-100,4,1,0,100,0,0
227086,-25,4,1,0,100,0,0
227585,-100,4,1,0,100,0,0
227733,-25,4,1,0,100,0,0
227909,-100,4,1,0,100,0,0
228057,-25,4,1,0,100,0,0
228232,-100,4,1,0,100,0,0
228380,-25,4,1,0,100,0,0
228556,-100,4,1,0,100,0,0
228704,-25,4,1,0,100,0,0
228987,323.593178655794,4,1,0,100,1,0
228987,-1,4,1,0,100,0,1
228995,323.593178655794,4,1,0,100,1,0
229634,323.593178655794,4,1,0,100,1,0
229634,-1,4,1,0,100,0,1
229642,323.593178655794,4,1,0,100,1,0
229715,323.593178655794,4,1,0,100,1,0
229715,-1,4,1,0,100,0,1
229723,323.593178655794,4,1,0,100,1,0
230282,323.593178655794,4,1,0,100,1,0
230282,-1,4,1,0,100,0,1
230290,323.593178655794,4,1,0,100,1,0
230362,323.593178655794,4,1,0,100,1,0
230362,-1,4,1,0,100,0,1
230370,323.593178655794,4,1,0,100,1,0
230443,323.593178655794,4,1,0,100,1,0
230443,-1,4,1,0,100,0,1
230451,323.593178655794,4,1,0,100,1,0
230524,323.593178655794,4,1,0,100,1,0
230524,-1,4,1,0,100,0,1
230532,323.593178655794,4,1,0,100,1,0
230605,323.593178655794,4,1,0,100,1,0
230605,-1,4,1,0,100,0,1
230613,323.593178655794,4,1,0,100,1,0
230686,323.593178655794,4,1,0,100,1,0
230686,-1,4,1,0,100,0,1
230694,323.593178655794,4,1,0,100,1,0
230767,323.593178655794,4,1,0,100,1,0
230767,-1,4,1,0,100,0,1
230775,323.593178655794,4,1,0,100,1,0
230848,323.593178655794,4,1,0,100,1,0
230848,-1,4,1,0,100,0,1
230856,323.593178655794,4,1,0,100,1,0
230929,323.593178655794,4,1,0,100,1,0
230929,-1,4,1,0,100,0,1
230937,323.593178655794,4,1,0,100,1,0
231576,-47.6190476190476,4,1,0,100,0,0
232211,5999994.82,4,1,0,100,1,8
232870,323.593178655794,4,1,0,100,1,8
234083,5999994.82,4,1,0,100,1,8
236106,323.593178655794,4,1,0,100,1,8
237076,323.593178655794,4,1,0,100,1,0
237076,-1,4,1,0,100,0,1
237084,323.593178655794,4,1,0,100,1,0
237723,323.593178655794,4,1,0,100,1,0
237723,-1,4,1,0,100,0,1
237731,323.593178655794,4,1,0,100,1,0
237804,323.593178655794,4,1,0,100,1,0
237804,-1,4,1,0,100,0,1
237812,323.593178655794,4,1,0,100,1,0
238047,323.593178655794,4,1,0,100,1,0
238047,-1,4,1,0,100,0,1
238055,323.593178655794,4,1,0,100,1,0
238128,323.593178655794,4,1,0,100,1,0
238128,-1,4,1,0,100,0,1
238136,323.593178655794,4,1,0,100,1,0
238209,323.593178655794,4,1,0,100,1,0
238209,-1,4,1,0,100,0,1
238217,323.593178655794,4,1,0,100,1,0
238290,323.593178655794,4,1,0,100,1,0
238290,-1,4,1,0,100,0,1
238298,323.593178655794,4,1,0,100,1,0
238371,323.593178655794,4,1,0,100,1,0
238371,-1,4,1,0,100,0,1
238379,323.593178655794,4,1,0,100,1,0
238452,323.593178655794,4,1,0,100,1,0
238452,-1,4,1,0,100,0,1
238460,323.593178655794,4,1,0,100,1,0
238532,323.593178655794,4,1,0,100,1,0
238532,-1,4,1,0,100,0,1
238540,323.593178655794,4,1,0,100,1,0
238613,323.593178655794,4,1,0,100,1,0
238613,-1,4,1,0,100,0,1
238621,323.593178655794,4,1,0,100,1,0
238694,323.593178655794,4,1,0,100,1,0
238694,-1,4,1,0,100,0,1
238702,323.593178655794,4,1,0,100,1,0
239341,323.593178655794,4,1,0,100,1,0
240635,323.593178655794,4,1,0,100,1,8
240795,323.593178655794,4,1,0,100,1,0
240795,-1,4,1,0,100,0,1
240803,323.593178655794,4,1,0,100,1,0
240958,323.593178655794,4,1,0,100,1,0
240958,-1,4,1,0,100,0,1
240966,323.593178655794,4,1,0,100,1,0
241120,323.593178655794,4,1,0,100,1,0
241120,-1,4,1,0,100,0,1
241128,323.593178655794,4,1,0,100,1,0
241282,323.593178655794,4,1,0,100,1,0
241282,-1,4,1,0,100,0,1
241290,323.593178655794,4,1,0,100,1,0
242584,323.593178655794,4,1,0,100,1,8
243385,323.593178655794,4,1,0,100,1,0
243385,-1,4,1,0,100,0,1
243393,323.593178655794,4,1,0,100,1,0
243464,323.593178655794,4,1,0,100,1,0
243464,-1,4,1,0,100,0,1
243472,323.593178655794,4,1,0,100,1,0
243545,323.593178655794,4,1,0,100,1,0
243545,-1,4,1,0,100,0,1
243553,323.593178655794,4,1,0,100,1,0
243626,323.593178655794,4,1,0,100,1,0
243626,-1,4,1,0,100,0,1
243634,323.593178655794,4,1,0,100,1,0
243707,323.593178655794,4,1,0,100,1,0
243707,-1,4,1,0,100,0,1
243715,323.593178655794,4,1,0,100,1,0
243788,323.593178655794,4,1,0,100,1,0
243788,-1,4,1,0,100,0,1
243796,323.593178655794,4,1,0,100,1,0
243869,323.593178655794,4,1,0,100,1,0
243869,-1,4,1,0,100,0,1
243877,323.593178655794,4,1,0,100,1,0
245171,323.593178655794,4,1,0,100,1,8
246465,323.593178655794,4,1,0,100,1,8
247031,-60.9756097560976,4,1,0,100,0,0
247112,-62.5,4,1,0,100,0,0
247193,-64.1025641025641,4,1,0,100,0,0
247273,-65.7894736842105,4,1,0,100,0,0
247354,-67.5675675675676,4,1,0,100,0,0
247435,-69.4444444444444,4,1,0,100,0,0
247516,-71.4285714285714,4,1,0,100,0,0
247597,-73.5294117647059,4,1,0,100,0,0
247678,-75.7575757575758,4,1,0,100,0,0
247759,323.593178655794,4,1,0,100,1,8
247759,-78.125,4,1,0,100,0,0
247839,-80.6451612903226,4,1,0,100,0,0
247920,-83.3333333333333,4,1,0,100,0,0
248001,-86.2068965517241,4,1,0,100,0,0
248082,-89.2857142857143,4,1,0,100,0,0
248163,-92.5925925925926,4,1,0,100,0,0
248244,-96.1538461538461,4,1,0,100,0,0
248325,-100,4,1,0,100,0,0
248401,323.593178655794,4,1,0,100,1,0
248401,-1,4,1,0,100,0,1
248409,323.593178655794,4,1,0,100,1,0
248723,323.593178655794,4,1,0,100,1,0
248723,-1,4,1,0,100,0,1
248731,323.593178655794,4,1,0,100,1,0
249048,323.593178655794,4,1,0,100,1,0
249048,-1,4,1,0,100,0,1
249056,323.593178655794,4,1,0,100,1,0
250350,323.593178655794,4,1,0,100,1,8
251150,323.593178655794,4,1,0,100,1,0
251150,-1,4,1,0,100,0,1
251158,323.593178655794,4,1,0,100,1,0
251313,323.593178655794,4,1,0,100,1,0
251313,-1,4,1,0,100,0,1
251321,323.593178655794,4,1,0,100,1,0
251475,323.593178655794,4,1,0,100,1,0
251475,-1,4,1,0,100,0,1
251483,323.593178655794,4,1,0,100,1,0
251637,323.593178655794,4,1,0,100,1,0
251637,-1,4,1,0,100,0,1
251645,323.593178655794,4,1,0,100,1,0
252939,323.593178655794,4,1,0,100,1,8
253740,323.593178655794,4,1,0,100,1,0
253740,-1,4,1,0,100,0,1
253748,323.593178655794,4,1,0,100,1,0
253821,323.593178655794,4,1,0,100,1,0
253821,-1,4,1,0,100,0,1
253829,323.593178655794,4,1,0,100,1,0
253902,323.593178655794,4,1,0,100,1,0
253902,-1,4,1,0,100,0,1
253910,323.593178655794,4,1,0,100,1,0
253983,323.593178655794,4,1,0,100,1,0
253983,-1,4,1,0,100,0,1
253991,323.593178655794,4,1,0,100,1,0
254064,323.593178655794,4,1,0,100,1,0
254064,-1,4,1,0,100,0,1
254072,323.593178655794,4,1,0,100,1,0
254145,323.593178655794,4,1,0,100,1,0
254145,-1,4,1,0,100,0,1
254153,323.593178655794,4,1,0,100,1,0
254224,323.593178655794,4,1,0,100,1,0
254224,-1,4,1,0,100,0,1
254232,323.593178655794,4,1,0,100,1,0
255523,323.593178655794,4,1,0,100,1,8
256822,323.593178655794,4,1,0,100,1,8
257388,-100,4,1,0,100,0,0
257469,-96.1538461538461,4,1,0,100,0,0
257550,-92.5925925925926,4,1,0,100,0,0
257630,-89.2857142857143,4,1,0,100,0,0
257711,-86.2068965517241,4,1,0,100,0,0
257792,-83.3333333333333,4,1,0,100,0,0
257873,-80.6451612903226,4,1,0,100,0,0
257954,-78.125,4,1,0,100,0,0
258035,-75.7575757575758,4,1,0,100,0,0
258116,323.593178655794,4,1,0,100,1,8
258116,-73.5294117647059,4,1,0,100,0,0
258196,-71.4285714285714,4,1,0,100,0,0
258277,-69.4444444444444,4,1,0,100,0,0
258358,-67.5675675675676,4,1,0,100,0,0
258439,-65.7894736842105,4,1,0,100,0,0
258520,-64.1025641025641,4,1,0,100,0,0
258601,-62.5,4,1,0,100,0,0
258682,-60.9756097560976,4,1,0,100,0,0
259410,323.593178655794,4,1,0,100,1,8
259410,-60.9756097560976,4,1,0,100,0,8
260049,323.593178655794,4,1,0,100,1,0
278089,-100,4,1,0,100,0,0
278170,-102.040816326531,4,1,0,100,0,0
278332,-100,4,1,0,100,0,0
278412,-102.040816326531,4,1,0,100,0,0
278574,-100,4,1,0,100,0,0
278655,-102.040816326531,4,1,0,100,0,0
278736,-100,4,1,0,100,0,0
278817,-102.040816326531,4,1,0,100,0,0
278898,-100,4,1,0,100,0,0
278979,-102.040816326531,4,1,0,100,0,0
279060,-100,4,1,0,100,0,0
279140,-102.040816326531,4,1,0,100,0,0
279221,-100,4,1,0,100,0,0
279302,-102.040816326531,4,1,0,100,0,0
279383,-100,4,1,0,100,0,0
279464,-102.040816326531,4,1,0,100,0,0
279545,-100,4,1,0,100,0,0
279626,-102.040816326531,4,1,0,100,0,0
279707,-100,4,1,0,100,0,0
279788,-102.040816326531,4,1,0,100,0,0
279869,-100,4,1,0,100,0,0
279949,-102.040816326531,4,1,0,100,0,0
280030,-100,4,1,0,100,0,0
280111,-102.040816326531,4,1,0,100,0,0
280678,-1,4,1,0,100,0,1

[HitObjects]
304,192,1179,5,6,0:0:0:0:
276,272,6356,5,0,0:0:0:0:
352,176,6680,1,2,0:0:0:0:
324,200,7003,1,0,0:0:0:0:
324,200,7327,1,2,0:0:0:0:
308,224,7489,1,0,0:0:0:0:
332,184,7812,1,0,0:0:0:0:
308,224,7974,1,2,0:0:0:0:
288,248,8298,1,0,0:0:0:0:
296,176,8621,1,2,0:0:0:0:
248,208,8945,1,0,0:0:0:0:
332,204,9268,1,2,0:0:0:0:
296,248,9592,1,0,0:0:0:0:
288,256,9916,1,2,0:0:0:0:
252,264,10077,1,0,0:0:0:0:
200,196,10401,1,0,0:0:0:0:
200,196,10563,1,2,0:0:0:0:
184,232,10886,1,0,0:0:0:0:
268,120,10967,1,0,0:0:0:0:
268,120,11048,1,0,0:0:0:0:
268,120,11129,1,0,0:0:0:0:
216,184,11210,1,2,0:0:0:0:
264,84,11291,1,2,0:0:0:0:
196,204,11372,1,0,0:0:0:0:
252,112,11453,1,0,0:0:0:0:
200,208,11533,1,2,0:0:0:0:
316,200,11695,1,0,0:0:0:0:
316,200,11857,1,2,0:0:0:0:
292,232,12019,1,0,0:0:0:0:
292,232,12100,1,0,0:0:0:0:
292,232,12181,1,0,0:0:0:0:
292,232,12342,1,0,0:0:0:0:
292,232,12504,1,2,0:0:0:0:
276,256,12666,1,0,0:0:0:0:
276,256,12747,1,0,0:0:0:0:
248,176,12828,1,0,0:0:0:0:
248,176,12990,1,0,0:0:0:0:
232,184,13151,1,2,0:0:0:0:
220,204,13313,1,0,0:0:0:0:
220,204,13394,1,0,0:0:0:0:
220,204,13475,1,2,0:0:0:0:
220,204,13637,1,0,0:0:0:0:
220,204,13799,1,2,0:0:0:0:
220,204,13960,1,0,0:0:0:0:
220,204,14041,1,2,0:0:0:0:
168,228,14122,1,2,0:0:0:0:
168,228,14284,1,2,0:0:0:0:
168,228,14446,1,0,0:0:0:0:
252,104,14608,1,2,0:0:0:0:
248,104,14689,1,2,0:0:0:0:
248,104,14769,1,0,0:0:0:0:
268,76,14931,1,0,0:0:0:0:
196,156,15093,1,2,0:0:0:0:
264,96,15255,1,0,0:0:0:0:
264,96,15336,1,0,0:0:0:0:
156,176,15417,1,0,0:0:0:0:
156,176,15578,1,0,0:0:0:0:
184,168,15740,1,2,0:0:0:0:
176,204,15902,1,0,0:0:0:0:
176,204,15983,1,0,0:0:0:0:
176,204,16064,1,0,0:0:0:0:
176,204,16226,1,0,0:0:0:0:
176,204,16387,1,2,0:0:0:0:
160,216,16549,1,0,0:0:0:0:
236,128,16630,1,0,0:0:0:0:
236,128,16711,1,2,0:0:0:0:
212,144,16873,1,0,0:0:0:0:
208,148,17035,1,2,0:0:0:0:
216,172,17196,1,0,0:0:0:0:
252,96,17277,1,2,0:0:0:0:
212,168,17358,1,2,0:0:0:0:
288,156,17439,1,2,0:0:0:0:
272,160,17520,1,0,0:0:0:0:
248,176,17601,1,0,0:0:0:0:
368,200,17682,1,2,0:0:0:0:
196,176,17844,1,2,0:0:0:0:
196,176,17924,1,2,0:0:0:0:
132,216,18005,1,0,0:0:0:0:
332,244,18086,1,0,0:0:0:0:
364,236,18167,1,2,0:0:0:0:
272,240,18248,1,2,0:0:0:0:
248,272,18329,1,0,0:0:0:0:
268,180,18410,1,0,0:0:0:0:
248,272,18491,1,0,0:0:0:0:
248,272,18572,1,0,0:0:0:0:
248,272,18653,1,2,0:0:0:0:
236,276,18733,1,2,0:0:0:0:
236,276,18814,1,0,0:0:0:0:
200,292,18895,1,0,0:0:0:0:
200,292,18976,1,2,0:0:0:0:
368,184,19057,1,2,0:0:0:0:
296,108,19138,1,2,0:0:0:0:
368,184,19219,1,2,0:0:0:0:
172,212,19300,1,0,0:0:0:0:
296,160,19381,1,0,0:0:0:0:
308,80,19462,1,0,0:0:0:0:
296,160,19542,1,0,0:0:0:0:
288,156,19623,1,2,0:0:0:0:
308,80,19704,1,2,0:0:0:0:
308,80,19785,1,2,0:0:0:0:
308,80,19866,1,2,0:0:0:0:
296,108,19947,1,0,0:0:0:0:
296,108,20028,1,0,0:0:0:0:
296,108,20109,1,0,0:0:0:0:
296,108,20190,1,0,0:0:0:0:
296,108,20270,1,2,0:0:0:0:
296,108,20351,1,2,0:0:0:0:
296,108,20432,1,2,0:0:0:0:
296,108,20513,1,2,0:0:0:0:
272,120,20594,1,0,0:0:0:0:
264,96,20756,1,2,0:0:0:0:
264,96,20837,1,2,0:0:0:0:
264,96,20918,1,2,0:0:0:0:
268,100,21079,1,0,0:0:0:0:
268,112,21241,1,0,0:0:0:0:
300,136,21403,1,6,0:0:0:0:
312,144,21565,1,6,0:0:0:0:
272,164,21888,1,4,0:0:0:0:
256,192,24477,12,0,24497,0:0:0:0:
256,192,24477,12,0,24497,0:0:0:0:
256,192,24497,12,0,24517,0:0:0:0:
256,192,24537,12,0,24558,0:0:0:0:
256,192,24538,12,0,24558,0:0:0:0:
256,192,24558,12,0,24578,0:0:0:0:
256,192,24578,12,0,24599,0:0:0:0:
256,192,24598,12,0,24618,0:0:0:0:
256,192,24599,12,0,24619,0:0:0:0:
256,192,24618,12,0,24638,0:0:0:0:
256,192,24619,12,0,24639,0:0:0:0:
256,192,24638,12,0,24659,0:0:0:0:
256,192,24639,12,0,24659,0:0:0:0:
256,192,24659,12,0,24679,0:0:0:0:
256,192,24679,12,0,24700,0:0:0:0:
256,192,24700,12,0,24720,0:0:0:0:
256,192,24740,12,0,24760,0:0:0:0:
256,192,24760,12,0,24781,0:0:0:0:
256,192,24780,12,0,24801,0:0:0:0:
256,192,24781,12,0,24801,0:0:0:0:
256,192,24801,12,0,24821,0:0:0:0:
256,192,24821,12,0,24841,0:0:0:0:
256,192,24842,12,0,24862,0:0:0:0:
256,192,24861,12,0,24882,0:0:0:0:
256,192,24862,12,0,24882,0:0:0:0:
256,192,24882,12,0,24902,0:0:0:0:
256,192,24902,12,0,24922,0:0:0:0:
256,192,24922,12,0,24942,0:0:0:0:
256,192,24923,12,0,24943,0:0:0:0:
256,192,24942,12,0,24962,0:0:0:0:
256,192,24943,12,0,24963,0:0:0:0:
256,192,24962,12,0,24983,0:0:0:0:
256,192,24963,12,0,24983,0:0:0:0:
256,192,25003,12,0,25024,0:0:0:0:
256,192,25023,12,0,25043,0:0:0:0:
256,192,25024,12,0,25044,0:0:0:0:
256,192,25064,12,0,25084,0:0:0:0:
256,192,25084,12,0,25105,0:0:0:0:
256,192,25124,12,0,25144,0:0:0:0:
256,192,25144,12,0,25165,0:0:0:0:
256,192,25164,12,0,25184,0:0:0:0:
256,192,25165,12,0,25185,0:0:0:0:
256,192,25184,12,0,25205,0:0:0:0:
256,192,25185,12,0,25205,0:0:0:0:
256,192,25205,12,0,25225,0:0:0:0:
256,192,25225,12,0,25246,0:0:0:0:
256,192,25245,12,0,25265,0:0:0:0:
256,192,25246,12,0,25266,0:0:0:0:
256,192,25265,12,0,25285,0:0:0:0:
256,192,25266,12,0,25286,0:0:0:0:
256,192,25285,12,0,25306,0:0:0:0:
256,192,25286,12,0,25306,0:0:0:0:
256,192,25306,12,0,25326,0:0:0:0:
256,192,25326,12,0,25347,0:0:0:0:
256,192,25346,12,0,25366,0:0:0:0:
256,192,25367,12,0,25387,0:0:0:0:
256,192,25387,12,0,25407,0:0:0:0:
256,192,25407,12,0,25427,0:0:0:0:
256,192,25428,12,0,25448,0:0:0:0:
256,192,25448,12,0,25468,0:0:0:0:
256,192,25448,12,0,25468,0:0:0:0:
256,192,25468,12,0,25489,0:0:0:0:
256,192,25488,12,0,25508,0:0:0:0:
256,192,25489,12,0,25509,0:0:0:0:
256,192,25508,12,0,25529,0:0:0:0:
256,192,25509,12,0,25529,0:0:0:0:
256,192,25529,12,0,25549,0:0:0:0:
256,192,25549,12,0,25569,0:0:0:0:
256,192,25569,12,0,25589,0:0:0:0:
256,192,25570,12,0,25590,0:0:0:0:
256,192,25589,12,0,25609,0:0:0:0:
256,192,25590,12,0,25610,0:0:0:0:
256,192,25610,12,0,25630,0:0:0:0:
256,192,25630,12,0,25650,0:0:0:0:
256,192,25650,12,0,25671,0:0:0:0:
256,192,25670,12,0,25690,0:0:0:0:
256,192,25671,12,0,25691,0:0:0:0:
256,192,25690,12,0,25711,0:0:0:0:
256,192,25691,12,0,25711,0:0:0:0:
256,192,25711,12,0,25731,0:0:0:0:
256,192,25711,12,0,25731,0:0:0:0:
256,192,25731,12,0,25751,0:0:0:0:
256,192,25751,12,0,25772,0:0:0:0:
256,192,25752,12,0,25772,0:0:0:0:
256,192,25772,12,0,25792,0:0:0:0:
256,192,25792,12,0,25813,0:0:0:0:
256,192,25813,12,0,25833,0:0:0:0:
256,192,25832,12,0,25853,0:0:0:0:
256,192,25833,12,0,25853,0:0:0:0:
256,192,25853,12,0,25873,0:0:0:0:
256,192,25873,12,0,25894,0:0:0:0:
256,192,25893,12,0,25913,0:0:0:0:
256,192,25894,12,0,25914,0:0:0:0:
256,192,25913,12,0,25933,0:0:0:0:
256,192,25914,12,0,25934,0:0:0:0:
256,192,25933,12,0,25954,0:0:0:0:
256,192,25934,12,0,25954,0:0:0:0:
256,192,25954,12,0,25974,0:0:0:0:
256,192,25974,12,0,25995,0:0:0:0:
256,192,25995,12,0,26015,0:0:0:0:
256,192,26015,12,0,26035,0:0:0:0:
256,192,26055,12,0,26076,0:0:0:0:
256,192,26076,12,0,26096,0:0:0:0:
256,192,26095,12,0,26115,0:0:0:0:
256,192,26115,12,0,26135,0:0:0:0:
256,192,26135,12,0,26155,0:0:0:0:
256,192,26136,12,0,26156,0:0:0:0:
256,192,26155,12,0,26176,0:0:0:0:
256,192,26156,12,0,26176,0:0:0:0:
256,192,26176,12,0,26196,0:0:0:0:
256,192,26176,12,0,26196,0:0:0:0:
256,192,26196,12,0,26216,0:0:0:0:
256,192,26217,12,0,26237,0:0:0:0:
256,192,26236,12,0,26256,0:0:0:0:
256,192,26237,12,0,26257,0:0:0:0:
256,192,26257,12,0,26277,0:0:0:0:
256,192,26277,12,0,26297,0:0:0:0:
256,192,26277,12,0,26297,0:0:0:0:
256,192,26297,12,0,26317,0:0:0:0:
256,192,26317,12,0,26337,0:0:0:0:
256,192,26318,12,0,26338,0:0:0:0:
256,192,26337,12,0,26358,0:0:0:0:
256,192,26338,12,0,26358,0:0:0:0:
256,192,26358,12,0,26378,0:0:0:0:
256,192,26378,12,0,26399,0:0:0:0:
256,192,26399,12,0,26419,0:0:0:0:
280,144,27066,5,4,0:0:0:0:
256,160,27227,1,4,0:0:0:0:
228,84,27389,1,6,0:0:0:0:
264,156,27713,1,4,0:0:0:0:
264,156,27874,1,4,0:0:0:0:
268,88,28036,1,6,0:0:0:0:
312,100,28360,1,4,0:0:0:0:
376,96,28441,1,4,0:0:0:0:
376,96,28522,1,6,0:0:0:0:
376,96,28603,1,6,0:0:0:0:
376,96,28683,1,4,0:0:0:0:
376,96,28764,1,4,0:0:0:0:
376,96,28845,1,6,0:0:0:0:
376,96,28926,1,6,0:0:0:0:
376,96,29007,1,4,0:0:0:0:
376,96,29088,1,4,0:0:0:0:
296,136,29169,1,6,0:0:0:0:
292,144,29331,1,6,0:0:0:0:
228,164,29654,1,4,0:0:0:0:
208,120,29816,1,4,0:0:0:0:
208,120,30140,1,4,0:0:0:0:
208,120,30301,1,4,0:0:0:0:
212,124,30625,1,4,0:0:0:0:
208,124,30949,1,4,0:0:0:0:
208,124,31110,1,4,0:0:0:0:
212,124,31434,1,4,0:0:0:0:
212,124,31596,1,4,0:0:0:0:
208,124,31919,1,4,0:0:0:0:
212,132,32243,1,4,0:0:0:0:
212,132,32405,1,4,0:0:0:0:
212,132,32728,1,4,0:0:0:0:
212,132,32890,1,4,0:0:0:0:
212,132,33214,1,4,0:0:0:0:
208,136,33537,1,4,0:0:0:0:
208,136,33699,1,4,0:0:0:0:
468,188,33861,1,6,0:0:0:0:
204,136,34023,1,4,0:0:0:0:
204,136,34185,1,4,0:0:0:0:
456,240,34346,1,6,0:0:0:0:
208,136,34508,1,4,0:0:0:0:
204,136,34832,1,6,0:0:0:0:
204,136,34994,1,6,0:0:0:0:
208,136,35317,1,6,0:0:0:0:
208,136,35479,1,6,0:0:0:0:
204,136,35803,1,6,0:0:0:0:
208,136,36126,1,6,0:0:0:0:
208,136,36288,1,6,0:0:0:0:
204,136,36611,1,6,0:0:0:0:
204,136,36773,1,6,0:0:0:0:
208,136,37097,1,6,0:0:0:0:
208,144,37420,1,6,0:0:0:0:
208,148,37582,1,6,0:0:0:0:
212,148,37906,1,6,0:0:0:0:
212,148,38068,1,6,0:0:0:0:
212,148,38391,1,6,0:0:0:0:
212,148,38715,1,6,0:0:0:0:
212,148,38877,1,6,0:0:0:0:
336,184,39038,1,4,0:0:0:0:
212,148,39200,1,6,0:0:0:0:
212,152,39362,1,6,0:0:0:0:
336,184,39524,1,4,0:0:0:0:
212,152,39686,1,6,0:0:0:0:
292,136,40009,1,4,0:0:0:0:
292,136,40171,1,4,0:0:0:0:
344,144,40333,1,6,0:0:0:0:
292,136,40495,1,4,0:0:0:0:
292,136,40656,1,4,0:0:0:0:
340,148,40818,1,6,0:0:0:0:
292,136,40980,1,4,0:0:0:0:
312,112,41304,1,6,0:0:0:0:
312,112,41465,1,6,0:0:0:0:
324,120,41627,1,4,0:0:0:0:
312,112,41789,1,6,0:0:0:0:
312,112,41951,1,6,0:0:0:0:
320,128,42113,1,4,0:0:0:0:
320,116,42274,1,6,0:0:0:0:
320,120,42598,1,4,0:0:0:0:
320,120,42760,1,4,0:0:0:0:
320,128,42922,1,6,0:0:0:0:
328,120,43083,1,4,0:0:0:0:
328,120,43245,1,4,0:0:0:0:
320,128,43407,1,6,0:0:0:0:
336,232,43569,1,4,0:0:0:0:
336,232,43892,1,6,0:0:0:0:
340,232,44054,1,6,0:0:0:0:
320,128,44216,1,4,0:0:0:0:
344,236,44378,1,6,0:0:0:0:
344,236,44540,1,6,0:0:0:0:
320,128,44701,1,4,0:0:0:0:
344,236,44863,1,6,0:0:0:0:
300,168,45187,1,4,0:0:0:0:
300,168,45349,1,4,0:0:0:0:
300,168,45672,1,4,0:0:0:0:
300,168,45834,1,4,0:0:0:0:
300,168,46157,1,4,0:0:0:0:
300,168,46481,1,6,0:0:0:0:
300,168,46643,1,6,0:0:0:0:
300,168,46966,1,6,0:0:0:0:
300,168,47128,1,6,0:0:0:0:
304,168,47452,1,6,0:0:0:0:
312,224,47775,1,0,0:0:0:0:
144,176,47816,1,0,0:0:0:0:
292,216,48018,1,0,0:0:0:0:
328,228,48059,1,0,0:0:0:0:
328,228,48261,1,0,0:0:0:0:
312,216,48301,1,0,0:0:0:0:
328,228,48504,1,0,0:0:0:0:
328,216,48544,1,0,0:0:0:0:
328,216,48746,1,0,0:0:0:0:
328,232,48787,1,0,0:0:0:0:
344,204,48908,1,2,0:0:0:0:
272,72,48948,1,2,0:0:0:0:
432,168,49070,1,0,0:0:0:0:
336,216,49110,1,0,0:0:0:0:
336,192,49232,1,0,0:0:0:0:
432,168,49272,1,0,0:0:0:0:
432,168,49393,1,0,0:0:0:0:
312,136,49434,1,0,0:0:0:0:
432,168,49555,1,2,0:0:0:0:
312,136,49596,1,2,0:0:0:0:
424,168,49717,1,0,0:0:0:0:
304,156,49757,1,0,0:0:0:0:
392,180,50041,1,6,0:0:0:0:
288,248,50364,1,0,0:0:0:0:
288,248,50445,1,0,0:0:0:0:
288,248,50526,1,0,0:0:0:0:
288,248,50607,1,0,0:0:0:0:
284,256,50688,1,2,0:0:0:0:
252,288,50850,1,0,0:0:0:0:
252,288,51011,1,2,0:0:0:0:
292,160,51173,1,0,0:0:0:0:
248,292,51335,1,2,0:0:0:0:
292,160,51497,1,0,0:0:0:0:
292,160,51659,1,2,0:0:0:0:
288,168,51739,1,2,0:0:0:0:
312,120,51820,1,2,0:0:0:0:
312,120,51901,1,2,0:0:0:0:
256,208,51982,1,0,0:0:0:0:
280,176,52144,1,0,0:0:0:0:
280,176,52306,1,2,0:0:0:0:
252,212,52468,1,0,0:0:0:0:
252,212,52629,1,2,0:0:0:0:
232,224,52791,1,0,0:0:0:0:
324,208,52953,1,0,0:0:0:0:
324,208,53034,1,0,0:0:0:0:
324,208,53115,1,0,0:0:0:0:
324,208,53196,1,0,0:0:0:0:
324,208,53277,1,2,0:0:0:0:
296,228,53438,1,0,0:0:0:0:
320,124,53600,1,2,0:0:0:0:
320,124,53681,1,2,0:0:0:0:
320,124,53762,1,2,0:0:0:0:
320,124,53843,1,2,0:0:0:0:
284,160,53924,1,0,0:0:0:0:
264,92,54086,1,0,0:0:0:0:
264,92,54166,1,0,0:0:0:0:
264,92,54247,1,2,0:0:0:0:
264,92,54328,1,2,0:0:0:0:
264,92,54409,1,2,0:0:0:0:
264,92,54490,1,2,0:0:0:0:
244,112,54571,1,0,0:0:0:0:
244,112,54652,1,0,0:0:0:0:
244,112,54733,1,0,0:0:0:0:
244,112,54814,1,0,0:0:0:0:
244,112,54895,1,2,0:0:0:0:
264,164,55056,1,0,0:0:0:0:
268,168,55218,1,2,0:0:0:0:
264,172,55380,1,0,0:0:0:0:
264,172,55542,1,0,0:0:0:0:
312,80,55623,1,2,0:0:0:0:
264,172,55703,1,0,0:0:0:0:
264,172,55784,1,0,0:0:0:0:
264,172,55865,1,2,0:0:0:0:
216,212,56027,1,0,0:0:0:0:
216,212,56189,1,2,0:0:0:0:
244,176,56351,1,0,0:0:0:0:
248,176,56512,1,2,0:0:0:0:
224,212,56674,1,0,0:0:0:0:
248,204,56836,1,2,0:0:0:0:
192,240,56917,1,0,0:0:0:0:
192,240,56998,1,2,0:0:0:0:
192,240,57079,1,2,0:0:0:0:
148,256,57160,1,0,0:0:0:0:
280,72,57321,1,0,0:0:0:0:
280,72,57483,1,2,0:0:0:0:
264,112,57645,1,0,0:0:0:0:
264,112,57807,1,2,0:0:0:0:
248,148,57969,1,0,0:0:0:0:
388,200,58130,1,2,0:0:0:0:
388,200,58211,1,2,0:0:0:0:
376,208,58292,1,2,0:0:0:0:
240,152,58373,1,2,0:0:0:0:
184,180,58454,1,0,0:0:0:0:
184,180,58535,1,0,0:0:0:0:
264,92,58616,1,2,0:0:0:0:
264,92,58697,1,2,0:0:0:0:
224,128,58778,1,0,0:0:0:0:
224,128,58859,1,0,0:0:0:0:
224,128,58939,1,0,0:0:0:0:
224,128,59020,1,0,0:0:0:0:
224,136,59101,1,2,0:0:0:0:
280,40,59182,1,2,0:0:0:0:
192,164,59263,1,0,0:0:0:0:
248,104,59344,1,0,0:0:0:0:
240,104,59425,1,2,0:0:0:0:
292,132,59587,1,0,0:0:0:0:
300,80,59748,1,2,0:0:0:0:
272,148,59910,1,0,0:0:0:0:
252,176,60072,1,0,0:0:0:0:
312,124,60153,1,0,0:0:0:0:
312,124,60234,1,0,0:0:0:0:
312,124,60315,1,0,0:0:0:0:
312,124,60396,1,2,0:0:0:0:
312,124,60476,1,2,0:0:0:0:
280,144,60557,1,0,0:0:0:0:
304,88,60638,1,0,0:0:0:0:
276,144,60719,1,2,0:0:0:0:
272,220,60881,1,0,0:0:0:0:
272,220,60962,1,0,0:0:0:0:
200,148,61043,1,2,0:0:0:0:
176,176,61124,1,0,0:0:0:0:
176,176,61205,1,0,0:0:0:0:
176,176,61285,1,0,0:0:0:0:
176,176,61366,1,2,0:0:0:0:
164,216,61528,1,0,0:0:0:0:
288,152,61690,1,6,0:0:0:0:
216,128,61852,1,0,0:0:0:0:
216,128,62014,1,2,0:0:0:0:
216,128,62094,1,2,0:0:0:0:
220,36,62175,1,0,0:0:0:0:
216,128,62256,1,2,0:0:0:0:
224,56,62337,1,2,0:0:0:0:
224,56,62418,1,2,0:0:0:0:
220,96,62499,1,0,0:0:0:0:
216,144,62661,1,0,0:0:0:0:
308,176,62823,1,6,0:0:0:0:
308,176,62984,1,6,0:0:0:0:
200,168,63146,1,0,0:0:0:0:
192,172,63308,1,2,0:0:0:0:
176,184,63470,1,0,0:0:0:0:
176,188,63551,1,0,0:0:0:0:
224,88,63632,1,2,0:0:0:0:
176,188,63793,1,0,0:0:0:0:
272,80,63874,1,0,0:0:0:0:
224,120,63955,1,2,0:0:0:0:
272,68,64117,1,0,0:0:0:0:
260,104,64198,1,0,0:0:0:0:
272,68,64279,1,2,0:0:0:0:
244,112,64441,1,0,0:0:0:0:
244,112,64521,1,0,0:0:0:0:
244,112,64602,1,2,0:0:0:0:
176,100,64683,1,2,0:0:0:0:
244,120,64764,1,2,0:0:0:0:
264,40,64845,1,2,0:0:0:0:
248,80,64926,1,0,0:0:0:0:
248,80,65007,1,0,0:0:0:0:
232,84,65088,1,2,0:0:0:0:
232,84,65169,1,2,0:0:0:0:
264,40,65249,1,0,0:0:0:0:
340,264,65411,1,6,0:0:0:0:
340,264,65573,1,6,0:0:0:0:
340,216,65897,1,0,0:0:0:0:
340,216,65978,1,0,0:0:0:0:
340,216,66058,1,2,0:0:0:0:
328,228,66220,1,2,0:0:0:0:
328,228,66301,1,2,0:0:0:0:
328,228,66382,1,0,0:0:0:0:
328,232,66544,1,2,0:0:0:0:
328,236,66625,1,0,0:0:0:0:
256,252,66706,1,0,0:0:0:0:
264,264,66867,1,0,0:0:0:0:
264,264,66948,1,2,0:0:0:0:
208,288,67029,1,2,0:0:0:0:
264,280,67191,1,0,0:0:0:0:
268,272,67272,1,2,0:0:0:0:
264,272,67353,1,0,0:0:0:0:
280,280,67515,1,2,0:0:0:0:
280,280,67596,1,0,0:0:0:0:
280,280,67676,1,2,0:0:0:0:
276,288,67838,1,4,0:0:0:0:
276,288,68000,1,4,0:0:0:0:
276,288,68162,1,6,0:0:0:0:
232,120,68485,1,2,0:0:0:0:
232,120,68566,1,2,0:0:0:0:
308,64,68647,1,2,0:0:0:0:
308,64,68728,1,2,0:0:0:0:
204,148,68809,1,0,0:0:0:0:
264,96,68890,1,0,0:0:0:0:
268,56,68971,1,2,0:0:0:0:
268,36,69052,1,2,0:0:0:0:
232,72,69133,1,0,0:0:0:0:
232,72,69214,1,0,0:0:0:0:
232,72,69294,1,0,0:0:0:0:
232,72,69375,1,0,0:0:0:0:
220,28,69456,1,2,0:0:0:0:
220,28,69537,1,2,0:0:0:0:
168,68,69618,1,0,0:0:0:0:
168,68,69699,1,0,0:0:0:0:
168,68,69780,1,2,0:0:0:0:
168,68,69861,1,2,0:0:0:0:
168,68,69942,1,2,0:0:0:0:
260,36,70022,1,2,0:0:0:0:
136,96,70103,1,0,0:0:0:0:
248,88,70184,1,0,0:0:0:0:
232,84,70265,1,2,0:0:0:0:
224,80,70346,1,2,0:0:0:0:
248,56,70427,1,0,0:0:0:0:
248,56,70508,1,0,0:0:0:0:
248,56,70589,1,0,0:0:0:0:
248,56,70670,1,0,0:0:0:0:
248,56,70751,1,2,0:0:0:0:
268,152,71074,1,2,0:0:0:0:
248,180,71155,1,2,0:0:0:0:
248,180,71236,1,2,0:0:0:0:
276,64,71317,1,2,0:0:0:0:
184,208,71398,1,0,0:0:0:0:
304,172,71479,1,0,0:0:0:0:
180,208,71560,1,2,0:0:0:0:
312,204,71721,1,0,0:0:0:0:
312,204,71802,1,0,0:0:0:0:
312,204,71883,1,2,0:0:0:0:
272,116,72045,1,0,0:0:0:0:
292,200,72126,1,0,0:0:0:0:
272,116,72207,1,2,0:0:0:0:
292,64,72369,1,0,0:0:0:0:
304,68,72449,1,0,0:0:0:0:
304,56,72530,1,2,0:0:0:0:
296,48,72692,1,0,0:0:0:0:
296,48,72773,1,0,0:0:0:0:
336,132,72854,1,2,0:0:0:0:
336,132,72935,1,2,0:0:0:0:
336,132,73016,1,2,0:0:0:0:
336,132,73097,1,2,0:0:0:0:
324,92,73178,1,0,0:0:0:0:
312,140,73258,1,0,0:0:0:0:
292,72,73339,1,2,0:0:0:0:
352,208,73420,1,0,0:0:0:0:
288,40,73501,1,2,0:0:0:0:
288,40,73582,1,2,0:0:0:0:
276,112,73663,1,0,0:0:0:0:
224,72,73744,1,0,0:0:0:0:
224,72,73825,1,0,0:0:0:0:
224,76,73906,1,0,0:0:0:0:
288,28,73987,1,2,0:0:0:0:
288,28,74067,1,2,0:0:0:0:
200,88,74148,1,0,0:0:0:0:
256,40,74310,1,2,0:0:0:0:
252,44,74391,1,2,0:0:0:0:
180,100,74472,1,0,0:0:0:0:
176,104,74634,1,2,0:0:0:0:
176,104,74715,1,2,0:0:0:0:
124,132,74795,1,0,0:0:0:0:
320,88,74957,1,2,0:0:0:0:
324,148,75038,1,2,0:0:0:0:
288,128,75119,1,0,0:0:0:0:
320,136,75281,1,2,0:0:0:0:
320,136,75362,1,2,0:0:0:0:
288,156,75443,1,0,0:0:0:0:
280,160,75524,1,0,0:0:0:0:
280,160,75604,1,0,0:0:0:0:
280,160,75685,1,0,0:0:0:0:
280,160,75766,1,2,0:0:0:0:
280,160,75847,1,2,0:0:0:0:
340,120,75928,1,0,0:0:0:0:
372,108,76009,1,2,0:0:0:0:
252,192,76090,1,0,0:0:0:0:
252,192,76171,1,0,0:0:0:0:
252,192,76252,1,2,0:0:0:0:
280,132,76333,1,2,0:0:0:0:
280,132,76413,1,2,0:0:0:0:
280,132,76494,1,2,0:0:0:0:
256,100,76575,1,0,0:0:0:0:
232,132,76656,1,0,0:0:0:0:
248,96,76737,1,2,0:0:0:0:
260,140,76899,1,0,0:0:0:0:
260,140,76980,1,0,0:0:0:0:
264,140,77061,1,2,0:0:0:0:
248,140,77222,1,0,0:0:0:0:
248,140,77303,1,0,0:0:0:0:
192,216,77384,1,0,0:0:0:0:
196,216,77465,1,0,0:0:0:0:
196,216,77546,1,6,0:0:0:0:
200,204,77870,1,6,0:0:0:0:
208,204,78193,1,6,0:0:0:0:
224,172,78517,1,6,0:0:0:0:
284,232,78679,1,0,0:0:0:0:
284,232,78760,1,0,0:0:0:0:
284,232,78840,1,6,0:0:0:0:
284,232,79164,1,0,0:0:0:0:
280,240,79245,1,0,0:0:0:0:
280,240,79326,1,0,0:0:0:0:
280,240,79407,1,0,0:0:0:0:
260,220,79488,1,6,0:0:0:0:
388,124,79568,1,6,0:0:0:0:
280,240,79811,1,0,0:0:0:0:
208,200,79892,1,0,0:0:0:0:
212,200,79973,1,0,0:0:0:0:
212,200,80054,1,0,0:0:0:0:
276,156,80135,1,6,0:0:0:0:
276,156,80216,1,6,0:0:0:0:
276,156,80297,1,6,0:0:0:0:
276,156,80377,1,6,0:0:0:0:
276,156,80458,1,6,0:0:0:0:
276,156,80539,1,6,0:0:0:0:
276,156,80620,1,6,0:0:0:0:
276,156,80701,1,6,0:0:0:0:
276,156,80782,1,6,0:0:0:0:
148,168,80870,2,4,L|348:160,5,140
204,128,81429,1,6,0:0:0:0:
272,196,81591,1,0,0:0:0:0:
272,196,81672,1,0,0:0:0:0:
272,196,81753,1,2,0:0:0:0:
244,212,81915,1,0,0:0:0:0:
244,212,81995,1,0,0:0:0:0:
240,48,82076,1,2,0:0:0:0:
280,24,82157,1,2,0:0:0:0:
180,116,82238,1,0,0:0:0:0:
280,40,82400,1,2,0:0:0:0:
280,40,82481,1,2,0:0:0:0:
208,240,82562,1,0,0:0:0:0:
208,240,82643,1,0,0:0:0:0:
208,240,82724,1,2,0:0:0:0:
232,128,82885,1,6,0:0:0:0:
232,128,83047,1,6,0:0:0:0:
232,128,83209,1,6,0:0:0:0:
232,128,83371,1,6,0:0:0:0:
256,112,83533,1,0,0:0:0:0:
256,112,83613,1,0,0:0:0:0:
272,152,83694,1,0,0:0:0:0:
272,152,83775,1,0,0:0:0:0:
272,152,83856,1,0,0:0:0:0:
272,152,83937,1,0,0:0:0:0:
272,152,84018,1,2,0:0:0:0:
200,80,84180,1,0,0:0:0:0:
204,84,84261,1,0,0:0:0:0:
204,84,84341,1,2,0:0:0:0:
204,84,84503,1,2,0:0:0:0:
104,148,84665,1,0,0:0:0:0:
104,148,84746,1,0,0:0:0:0:
104,148,84827,1,2,0:0:0:0:
104,148,84908,1,2,0:0:0:0:
264,100,84989,1,0,0:0:0:0:
260,108,85150,1,2,0:0:0:0:
260,108,85231,1,2,0:0:0:0:
188,148,85312,1,0,0:0:0:0:
296,160,85474,1,6,0:0:0:0:
296,160,85555,1,6,0:0:0:0:
284,200,85636,1,6,0:0:0:0:
284,200,85717,1,6,0:0:0:0:
284,200,85798,1,6,0:0:0:0:
264,224,85879,1,6,0:0:0:0:
264,224,85959,1,6,0:0:0:0:
240,236,86283,1,6,0:0:0:0:
216,268,86607,1,4,0:0:0:0:
128,144,86930,1,2,0:0:0:0:
132,148,87092,1,2,0:0:0:0:
340,216,87173,1,0,0:0:0:0:
132,148,87254,1,2,0:0:0:0:
300,188,87416,1,2,0:0:0:0:
264,136,87577,1,0,0:0:0:0:
264,136,87739,1,2,0:0:0:0:
264,136,87820,1,0,0:0:0:0:
260,64,88063,1,2,0:0:0:0:
320,128,88144,1,2,0:0:0:0:
260,64,88225,1,2,0:0:0:0:
176,172,88386,1,0,0:0:0:0:
232,64,88548,1,2,0:0:0:0:
344,160,88629,1,0,0:0:0:0:
264,32,88710,1,2,0:0:0:0:
264,32,88791,1,2,0:0:0:0:
220,64,88872,1,0,0:0:0:0:
212,28,88953,1,0,0:0:0:0:
220,64,89034,1,2,0:0:0:0:
216,20,89195,1,2,0:0:0:0:
216,20,89276,1,2,0:0:0:0:
216,20,89357,1,2,0:0:0:0:
216,20,89438,1,2,0:0:0:0:
160,88,89519,1,0,0:0:0:0:
160,88,89600,1,0,0:0:0:0:
256,68,89681,1,2,0:0:0:0:
256,68,89762,1,2,0:0:0:0:
200,104,89843,1,0,0:0:0:0:
200,108,89923,1,0,0:0:0:0:
200,108,90004,1,0,0:0:0:0:
200,108,90085,1,0,0:0:0:0:
196,108,90166,1,2,0:0:0:0:
228,32,90247,1,2,0:0:0:0:
168,128,90328,1,0,0:0:0:0:
220,64,90409,1,0,0:0:0:0:
104,136,90490,1,6,0:0:0:0:
220,64,90813,1,6,0:0:0:0:
204,96,91137,1,6,0:0:0:0:
248,184,91299,1,0,0:0:0:0:
248,184,91380,1,0,0:0:0:0:
248,184,91461,1,0,0:0:0:0:
248,184,91541,1,0,0:0:0:0:
248,184,91622,1,0,0:0:0:0:
248,184,91703,1,0,0:0:0:0:
248,184,91784,1,2,0:0:0:0:
272,196,91946,1,0,0:0:0:0:
272,196,92027,1,0,0:0:0:0:
272,196,92108,1,2,0:0:0:0:
244,212,92270,1,0,0:0:0:0:
244,212,92350,1,0,0:0:0:0:
240,48,92431,1,2,0:0:0:0:
280,24,92512,1,2,0:0:0:0:
180,116,92593,1,0,0:0:0:0:
236,96,92674,1,2,0:0:0:0:
208,156,92755,1,0,0:0:0:0:
208,156,92836,1,0,0:0:0:0:
280,64,92917,1,2,0:0:0:0:
280,64,92998,1,2,0:0:0:0:
188,104,93079,1,0,0:0:0:0:
232,128,93240,1,6,0:0:0:0:
232,128,93402,1,6,0:0:0:0:
232,128,93564,1,6,0:0:0:0:
232,128,93726,1,6,0:0:0:0:
256,112,93888,1,0,0:0:0:0:
256,112,93968,1,0,0:0:0:0:
252,40,94049,1,2,0:0:0:0:
272,152,94130,1,0,0:0:0:0:
272,152,94211,1,0,0:0:0:0:
272,152,94292,1,0,0:0:0:0:
272,152,94373,1,2,0:0:0:0:
200,80,94535,1,0,0:0:0:0:
204,84,94616,1,0,0:0:0:0:
204,84,94696,1,2,0:0:0:0:
204,84,94858,1,2,0:0:0:0:
104,148,95020,1,0,0:0:0:0:
104,148,95101,1,0,0:0:0:0:
104,148,95182,1,2,0:0:0:0:
104,148,95263,1,2,0:0:0:0:
264,100,95344,1,0,0:0:0:0:
260,108,95505,1,2,0:0:0:0:
260,108,95586,1,2,0:0:0:0:
188,148,95667,1,0,0:0:0:0:
296,160,95829,1,6,0:0:0:0:
296,160,95910,1,6,0:0:0:0:
284,200,95991,1,6,0:0:0:0:
284,200,96072,1,6,0:0:0:0:
284,200,96153,1,6,0:0:0:0:
264,224,96234,1,6,0:0:0:0:
264,224,96314,1,6,0:0:0:0:
240,236,96638,1,4,0:0:0:0:
216,268,96962,1,6,0:0:0:0:
128,144,97285,1,2,0:0:0:0:
132,148,97447,1,2,0:0:0:0:
340,216,97528,1,0,0:0:0:0:
132,148,97609,1,2,0:0:0:0:
300,188,97771,1,2,0:0:0:0:
264,136,97932,1,0,0:0:0:0:
264,136,98094,1,2,0:0:0:0:
240,64,98175,1,2,0:0:0:0:
240,64,98256,1,2,0:0:0:0:
260,64,98418,1,2,0:0:0:0:
320,128,98499,1,2,0:0:0:0:
260,64,98580,1,2,0:0:0:0:
176,172,98741,1,0,0:0:0:0:
316,184,98822,1,0,0:0:0:0:
232,64,98903,1,2,0:0:0:0:
288,76,98984,1,2,0:0:0:0:
264,32,99065,1,2,0:0:0:0:
264,32,99146,1,2,0:0:0:0:
220,64,99227,1,0,0:0:0:0:
212,28,99308,1,0,0:0:0:0:
220,64,99389,1,2,0:0:0:0:
216,20,99550,1,2,0:0:0:0:
216,20,99631,1,2,0:0:0:0:
216,20,99712,1,2,0:0:0:0:
216,20,99793,1,2,0:0:0:0:
160,88,99874,1,0,0:0:0:0:
160,88,99955,1,0,0:0:0:0:
256,68,100036,1,2,0:0:0:0:
256,68,100117,1,2,0:0:0:0:
200,104,100198,1,0,0:0:0:0:
200,108,100278,1,0,0:0:0:0:
200,108,100359,1,2,0:0:0:0:
200,108,100440,1,2,0:0:0:0:
196,108,100521,1,0,0:0:0:0:
228,32,100602,1,0,0:0:0:0:
168,128,100683,1,2,0:0:0:0:
220,64,100764,1,2,0:0:0:0:
268,144,101654,1,4,0:0:0:0:
268,144,101816,1,6,0:0:0:0:
280,116,102139,5,4,0:0:0:0:
272,136,102301,1,2,0:0:0:0:
272,144,102382,1,2,0:0:0:0:
272,144,102463,1,2,0:0:0:0:
272,144,102544,1,2,0:0:0:0:
236,164,102625,1,4,0:0:0:0:
236,180,102786,1,2,0:0:0:0:
240,180,102867,1,2,0:0:0:0:
236,180,102948,1,2,0:0:0:0:
236,180,103029,1,2,0:0:0:0:
240,148,103110,1,2,0:0:0:0:
248,148,103191,1,2,0:0:0:0:
260,120,103272,1,4,0:0:0:0:
328,120,103433,1,2,0:0:0:0:
328,128,103514,1,2,0:0:0:0:
260,120,103595,1,4,0:0:0:0:
260,120,103757,1,2,0:0:0:0:
408,144,103838,1,2,0:0:0:0:
280,88,103919,1,4,0:0:0:0:
312,172,104081,1,2,0:0:0:0:
312,172,104162,1,2,0:0:0:0:
324,144,104242,1,2,0:0:0:0:
304,192,104323,1,2,0:0:0:0:
268,112,104404,1,4,0:0:0:0:
268,112,104566,1,2,0:0:0:0:
272,112,104647,1,2,0:0:0:0:
240,144,104728,1,4,0:0:0:0:
256,148,104890,1,2,0:0:0:0:
256,148,104971,1,2,0:0:0:0:
256,148,105051,1,2,0:0:0:0:
256,148,105132,1,2,0:0:0:0:
232,160,105213,1,4,0:0:0:0:
232,168,105375,1,2,0:0:0:0:
264,128,105456,1,2,0:0:0:0:
248,72,105537,1,2,0:0:0:0:
272,84,105618,1,2,0:0:0:0:
272,84,105699,1,4,0:0:0:0:
236,80,105860,1,2,0:0:0:0:
268,176,105941,1,2,0:0:0:0:
248,120,106022,1,4,0:0:0:0:
296,200,106184,1,2,0:0:0:0:
296,200,106265,1,2,0:0:0:0:
276,120,106346,1,4,0:0:0:0:
280,128,106508,1,2,0:0:0:0:
236,56,106589,1,2,0:0:0:0:
224,168,106669,1,4,0:0:0:0:
224,128,106831,1,4,0:0:0:0:
280,120,106993,1,4,0:0:0:0:
240,216,107155,1,4,0:0:0:0:
352,248,107317,1,2,0:0:0:0:
352,248,107398,1,2,0:0:0:0:
352,248,107478,1,2,0:0:0:0:
352,248,107559,1,2,0:0:0:0:
248,272,107640,1,4,0:0:0:0:
264,160,107802,1,2,0:0:0:0:
264,160,107883,1,2,0:0:0:0:
312,88,107964,1,4,0:0:0:0:
296,84,108126,1,2,0:0:0:0:
288,84,108206,1,2,0:0:0:0:
344,200,108287,1,2,0:0:0:0:
344,200,108368,1,2,0:0:0:0:
216,116,108449,1,4,0:0:0:0:
268,128,108611,1,2,0:0:0:0:
268,128,108692,1,2,0:0:0:0:
232,160,108773,1,4,0:0:0:0:
296,92,108935,1,2,0:0:0:0:
296,92,109015,1,2,0:0:0:0:
212,184,109096,1,4,0:0:0:0:
324,100,109258,1,2,0:0:0:0:
324,100,109339,1,2,0:0:0:0:
324,100,109420,1,2,0:0:0:0:
324,100,109501,1,2,0:0:0:0:
280,140,109582,1,4,0:0:0:0:
264,156,109744,1,2,0:0:0:0:
264,156,109824,1,2,0:0:0:0:
212,184,109905,1,4,0:0:0:0:
284,104,110067,1,2,0:0:0:0:
284,104,110148,1,2,0:0:0:0:
284,104,110229,1,2,0:0:0:0:
284,104,110310,1,2,0:0:0:0:
224,104,110391,1,4,0:0:0:0:
216,124,110553,1,2,0:0:0:0:
216,124,110633,1,2,0:0:0:0:
176,152,110714,1,4,0:0:0:0:
280,120,110876,1,2,0:0:0:0:
280,120,110957,1,2,0:0:0:0:
176,156,111038,1,4,0:0:0:0:
280,68,111200,1,2,0:0:0:0:
280,68,111281,1,2,0:0:0:0:
264,100,111362,1,4,0:0:0:0:
296,136,111523,1,2,0:0:0:0:
324,64,111604,1,2,0:0:0:0:
324,64,111685,1,2,0:0:0:0:
352,64,111766,1,2,0:0:0:0:
336,64,111847,1,4,0:0:0:0:
336,68,112009,1,4,0:0:0:0:
332,72,112171,1,4,0:0:0:0:
328,76,112332,1,4,0:0:0:0:
304,136,112494,1,0,0:0:0:0:
304,136,112575,1,0,0:0:0:0:
304,136,112656,1,0,0:0:0:0:
304,136,112737,1,0,0:0:0:0:
296,160,112818,1,6,0:0:0:0:
280,200,112979,1,0,0:0:0:0:
284,204,113060,1,0,0:0:0:0:
284,204,113141,1,6,0:0:0:0:
296,136,113303,1,0,0:0:0:0:
296,136,113384,1,0,0:0:0:0:
312,232,113465,1,0,0:0:0:0:
312,232,113546,1,0,0:0:0:0:
328,188,113627,1,6,0:0:0:0:
296,136,113788,1,0,0:0:0:0:
296,136,113869,1,0,0:0:0:0:
328,188,113950,1,6,0:0:0:0:
296,136,114112,1,0,0:0:0:0:
296,136,114193,1,0,0:0:0:0:
184,216,114274,1,0,0:0:0:0:
200,204,114355,1,0,0:0:0:0:
328,188,114436,1,6,0:0:0:0:
296,136,114597,1,0,0:0:0:0:
296,136,114678,1,0,0:0:0:0:
328,188,114759,1,6,0:0:0:0:
296,136,114921,1,0,0:0:0:0:
296,136,115002,1,0,0:0:0:0:
328,188,115083,1,6,0:0:0:0:
296,136,115245,1,0,0:0:0:0:
296,136,115326,1,0,0:0:0:0:
296,136,115406,1,0,0:0:0:0:
296,136,115487,1,0,0:0:0:0:
328,188,115568,1,6,0:0:0:0:
296,136,115730,1,0,0:0:0:0:
296,136,115811,1,0,0:0:0:0:
296,136,115892,1,0,0:0:0:0:
296,136,115973,1,0,0:0:0:0:
228,164,116054,1,0,0:0:0:0:
228,164,116135,1,0,0:0:0:0:
328,188,116215,1,6,0:0:0:0:
296,136,116377,1,0,0:0:0:0:
296,136,116458,1,0,0:0:0:0:
360,184,116539,1,6,0:0:0:0:
296,136,116701,1,0,0:0:0:0:
296,136,116782,1,0,0:0:0:0:
348,260,116863,1,0,0:0:0:0:
348,260,116944,1,0,0:0:0:0:
352,176,117024,1,6,0:0:0:0:
296,136,117186,1,0,0:0:0:0:
296,136,117267,1,0,0:0:0:0:
296,136,117348,1,0,0:0:0:0:
296,136,117429,1,0,0:0:0:0:
296,136,117510,1,0,0:0:0:0:
296,136,117591,1,0,0:0:0:0:
348,180,117672,1,6,0:0:0:0:
296,136,117833,1,0,0:0:0:0:
296,136,117914,1,0,0:0:0:0:
296,136,117995,1,0,0:0:0:0:
296,136,118076,1,0,0:0:0:0:
340,184,118157,1,6,0:0:0:0:
296,136,118319,1,0,0:0:0:0:
296,136,118400,1,0,0:0:0:0:
340,188,118481,1,6,0:0:0:0:
296,136,118642,1,0,0:0:0:0:
228,216,118723,1,0,0:0:0:0:
224,176,118804,1,6,0:0:0:0:
296,136,118966,1,0,0:0:0:0:
296,136,119047,1,0,0:0:0:0:
340,124,119128,1,6,0:0:0:0:
296,136,119290,1,0,0:0:0:0:
296,136,119370,1,0,0:0:0:0:
192,208,119451,1,0,0:0:0:0:
160,200,119532,1,0,0:0:0:0:
340,124,119613,1,6,0:0:0:0:
296,136,119775,1,0,0:0:0:0:
296,136,119856,1,0,0:0:0:0:
348,120,119937,1,6,0:0:0:0:
296,136,120099,1,0,0:0:0:0:
296,136,120179,1,0,0:0:0:0:
348,120,120260,1,6,0:0:0:0:
296,136,120422,1,0,0:0:0:0:
296,136,120503,1,0,0:0:0:0:
296,136,120584,1,0,0:0:0:0:
296,136,120665,1,0,0:0:0:0:
296,136,120746,1,6,0:0:0:0:
228,176,120908,1,0,0:0:0:0:
228,176,120988,1,0,0:0:0:0:
308,200,121069,1,6,0:0:0:0:
316,200,121231,1,0,0:0:0:0:
276,128,121312,1,0,0:0:0:0:
316,200,121393,1,0,0:0:0:0:
280,136,121474,1,0,0:0:0:0:
336,132,121555,1,6,0:0:0:0:
336,132,121717,1,6,0:0:0:0:
336,132,121878,1,6,0:0:0:0:
336,132,122040,1,6,0:0:0:0:
336,132,122202,1,6,0:0:0:0:
176,124,122525,1,6,0:0:0:0:
296,216,122849,5,0,0:0:0:0:
296,216,123011,1,0,0:0:0:0:
288,216,123173,1,2,0:0:0:0:
256,216,123334,1,0,0:0:0:0:
292,128,123496,1,2,0:0:0:0:
260,172,123658,1,0,0:0:0:0:
264,176,123820,1,0,0:0:0:0:
268,176,123982,1,2,0:0:0:0:
236,204,124143,1,0,0:0:0:0:
236,204,124305,1,0,0:0:0:0:
236,204,124467,1,2,0:0:0:0:
260,160,124629,1,0,0:0:0:0:
244,120,124791,1,2,0:0:0:0:
264,168,124952,1,2,0:0:0:0:
240,192,125114,1,0,0:0:0:0:
240,196,125276,1,0,0:0:0:0:
268,108,125438,1,2,0:0:0:0:
272,72,125600,1,0,0:0:0:0:
232,176,125761,1,0,0:0:0:0:
268,84,125923,1,2,0:0:0:0:
232,184,126085,1,2,0:0:0:0:
200,216,126247,1,0,0:0:0:0:
316,48,126409,1,2,0:0:0:0:
316,48,126570,1,2,0:0:0:0:
236,144,126732,1,0,0:0:0:0:
248,152,126894,1,2,0:0:0:0:
240,172,127056,1,0,0:0:0:0:
244,184,127218,1,2,0:0:0:0:
200,212,127379,1,0,0:0:0:0:
232,192,127595,2,4,L|368:172,4,93.3333333333333
200,232,128027,1,0,0:0:0:0:
296,192,128188,1,0,0:0:0:0:
296,192,128350,1,2,0:0:0:0:
240,236,128512,1,0,0:0:0:0:
240,240,128674,1,2,0:0:0:0:
240,244,128836,1,2,0:0:0:0:
208,296,128997,1,0,0:0:0:0:
240,284,129159,1,2,0:0:0:0:
220,300,129321,1,0,0:0:0:0:
220,300,129483,1,0,0:0:0:0:
220,300,129645,1,2,0:0:0:0:
200,312,129806,1,2,0:0:0:0:
236,184,129968,1,0,0:0:0:0:
200,312,130130,1,2,0:0:0:0:
200,312,130292,1,2,0:0:0:0:
280,180,130454,1,0,0:0:0:0:
280,180,130615,1,2,0:0:0:0:
220,32,130696,1,2,0:0:0:0:
292,60,130777,1,2,0:0:0:0:
292,60,130858,1,2,0:0:0:0:
284,76,130939,1,0,0:0:0:0:
284,76,131020,1,0,0:0:0:0:
256,216,131101,1,2,0:0:0:0:
284,76,131182,1,2,0:0:0:0:
228,244,131263,1,0,0:0:0:0:
268,144,131343,1,0,0:0:0:0:
228,244,131424,1,0,0:0:0:0:
268,144,131505,1,0,0:0:0:0:
268,144,131586,1,2,0:0:0:0:
268,144,131667,1,2,0:0:0:0:
256,156,131748,1,0,0:0:0:0:
256,156,131829,1,0,0:0:0:0:
256,156,131910,1,2,0:0:0:0:
344,204,132395,1,4,0:0:0:0:
344,204,132557,1,4,0:0:0:0:
172,192,132610,2,4,L|232:200,16,46.6666666666667
280,164,133203,1,0,0:0:0:0:
280,164,133365,1,0,0:0:0:0:
272,168,133527,1,2,0:0:0:0:
304,192,133689,1,0,0:0:0:0:
304,192,133851,1,2,0:0:0:0:
264,208,134012,1,0,0:0:0:0:
284,152,134175,5,6,0:0:0:0:
320,180,134336,1,0,0:0:0:0:
236,96,134498,1,0,0:0:0:0:
236,96,134660,1,0,0:0:0:0:
236,96,134821,1,2,0:0:0:0:
192,96,134983,1,0,0:0:0:0:
192,96,135145,1,0,0:0:0:0:
268,120,135307,1,6,0:0:0:0:
268,120,135469,1,6,0:0:0:0:
272,172,135630,1,0,0:0:0:0:
272,172,135792,1,0,0:0:0:0:
328,132,135954,1,2,0:0:0:0:
312,148,136116,1,0,0:0:0:0:
312,148,136278,1,2,0:0:0:0:
312,148,136439,1,2,0:0:0:0:
252,168,136601,1,0,0:0:0:0:
252,168,136763,1,2,0:0:0:0:
252,168,136925,1,2,0:0:0:0:
216,188,137087,1,4,0:0:0:0:
224,100,137248,1,0,0:0:0:0:
224,192,137410,1,4,0:0:0:0:
220,108,137572,1,0,0:0:0:0:
224,192,137734,1,4,0:0:0:0:
252,216,137896,1,6,0:0:0:0:
256,216,138058,1,6,0:0:0:0:
236,228,138381,1,0,0:0:0:0:
264,196,138462,1,0,0:0:0:0:
236,232,138543,1,2,0:0:0:0:
236,228,138705,1,2,0:0:0:0:
280,56,138785,1,2,0:0:0:0:
256,32,138866,1,0,0:0:0:0:
240,52,139028,1,0,0:0:0:0:
228,64,139110,1,2,0:0:0:0:
256,24,139191,1,2,0:0:0:0:
256,24,139352,1,2,0:0:0:0:
208,156,139433,1,0,0:0:0:0:
272,188,139514,1,0,0:0:0:0:
288,52,139676,1,0,0:0:0:0:
236,116,139757,1,2,0:0:0:0:
212,116,139837,1,0,0:0:0:0:
216,120,140000,1,2,0:0:0:0:
216,120,140080,1,0,0:0:0:0:
260,56,140161,1,2,0:0:0:0:
260,64,140323,1,6,0:0:0:0:
264,64,140485,1,6,0:0:0:0:
240,88,140647,1,6,0:0:0:0:
232,120,140970,1,2,0:0:0:0:
232,120,141051,1,2,0:0:0:0:
308,64,141132,1,2,0:0:0:0:
308,64,141213,1,2,0:0:0:0:
204,148,141294,1,0,0:0:0:0:
264,96,141375,1,0,0:0:0:0:
268,56,141456,1,2,0:0:0:0:
268,36,141537,1,2,0:0:0:0:
232,72,141618,1,0,0:0:0:0:
232,72,141699,1,0,0:0:0:0:
232,72,141779,1,0,0:0:0:0:
232,72,141860,1,0,0:0:0:0:
220,28,141941,1,2,0:0:0:0:
220,28,142022,1,2,0:0:0:0:
168,68,142103,1,0,0:0:0:0:
168,68,142184,1,0,0:0:0:0:
168,68,142265,1,2,0:0:0:0:
168,68,142346,1,2,0:0:0:0:
168,68,142427,1,2,0:0:0:0:
260,36,142507,1,2,0:0:0:0:
136,96,142588,1,0,0:0:0:0:
248,88,142669,1,0,0:0:0:0:
232,84,142750,1,2,0:0:0:0:
224,80,142831,1,2,0:0:0:0:
248,56,142912,1,0,0:0:0:0:
248,56,142993,1,0,0:0:0:0:
248,56,143074,1,0,0:0:0:0:
248,56,143155,1,0,0:0:0:0:
248,56,143236,1,2,0:0:0:0:
268,152,143558,1,2,0:0:0:0:
248,180,143639,1,2,0:0:0:0:
248,180,143720,1,2,0:0:0:0:
276,64,143801,1,2,0:0:0:0:
184,208,143882,1,0,0:0:0:0:
304,172,143963,1,0,0:0:0:0:
180,208,144044,1,2,0:0:0:0:
312,204,144205,1,0,0:0:0:0:
312,204,144286,1,0,0:0:0:0:
312,204,144367,1,2,0:0:0:0:
272,116,144529,1,0,0:0:0:0:
292,200,144610,1,0,0:0:0:0:
272,116,144691,1,2,0:0:0:0:
292,64,144853,1,0,0:0:0:0:
304,68,144933,1,0,0:0:0:0:
304,56,145014,1,2,0:0:0:0:
296,48,145176,1,0,0:0:0:0:
296,48,145257,1,0,0:0:0:0:
336,132,145338,1,2,0:0:0:0:
336,132,145419,1,2,0:0:0:0:
336,132,145500,1,2,0:0:0:0:
336,132,145581,1,2,0:0:0:0:
324,92,145662,1,0,0:0:0:0:
312,140,145742,1,0,0:0:0:0:
292,72,145823,1,2,0:0:0:0:
352,208,145904,1,0,0:0:0:0:
288,40,145985,1,2,0:0:0:0:
288,40,146066,1,2,0:0:0:0:
276,112,146147,1,0,0:0:0:0:
224,72,146228,1,0,0:0:0:0:
224,72,146309,1,0,0:0:0:0:
224,76,146390,1,0,0:0:0:0:
288,28,146471,1,2,0:0:0:0:
288,28,146551,1,2,0:0:0:0:
200,88,146632,1,0,0:0:0:0:
256,40,146794,1,2,0:0:0:0:
252,44,146875,1,2,0:0:0:0:
180,100,146956,1,0,0:0:0:0:
176,104,147118,1,2,0:0:0:0:
176,104,147199,1,2,0:0:0:0:
124,132,147279,1,0,0:0:0:0:
320,88,147441,1,2,0:0:0:0:
324,148,147522,1,2,0:0:0:0:
288,128,147603,1,0,0:0:0:0:
320,136,147765,1,2,0:0:0:0:
320,136,147846,1,2,0:0:0:0:
288,156,147927,1,0,0:0:0:0:
280,160,148008,1,0,0:0:0:0:
280,160,148088,1,0,0:0:0:0:
280,160,148169,1,0,0:0:0:0:
280,160,148250,1,2,0:0:0:0:
280,160,148331,1,2,0:0:0:0:
340,120,148412,1,0,0:0:0:0:
372,108,148493,1,2,0:0:0:0:
252,192,148574,1,0,0:0:0:0:
252,192,148655,1,0,0:0:0:0:
252,192,148736,1,2,0:0:0:0:
280,132,148817,1,2,0:0:0:0:
280,132,148897,1,2,0:0:0:0:
280,132,148978,1,2,0:0:0:0:
256,100,149059,1,0,0:0:0:0:
232,132,149140,1,0,0:0:0:0:
248,96,149221,1,2,0:0:0:0:
260,140,149383,1,0,0:0:0:0:
260,140,149464,1,0,0:0:0:0:
264,140,149545,1,2,0:0:0:0:
248,140,149706,1,0,0:0:0:0:
248,140,149787,1,0,0:0:0:0:
192,216,149868,1,0,0:0:0:0:
196,216,149949,1,0,0:0:0:0:
196,216,150030,1,6,0:0:0:0:
216,144,150354,1,6,0:0:0:0:
352,152,150677,1,6,0:0:0:0:
352,152,151001,1,6,0:0:0:0:
236,112,151325,5,6,0:0:0:0:
268,132,151972,5,6,0:0:0:0:
268,132,152053,1,6,0:0:0:0:
268,132,152619,5,6,0:0:0:0:
268,132,152700,1,6,0:0:0:0:
268,132,152781,1,6,0:0:0:0:
268,132,152862,1,6,0:0:0:0:
268,132,152943,1,6,0:0:0:0:
268,132,153024,1,6,0:0:0:0:
268,132,153104,1,6,0:0:0:0:
268,132,153185,1,6,0:0:0:0:
268,132,153266,1,6,0:0:0:0:
272,252,153435,1,0,0:0:0:0:
272,252,153516,1,0,0:0:0:0:
272,252,153597,1,0,0:0:0:0:
272,252,153678,1,0,0:0:0:0:
272,252,153759,1,0,0:0:0:0:
272,252,153840,1,0,0:0:0:0:
204,128,153913,1,2,0:0:0:0:
272,196,154075,1,0,0:0:0:0:
272,196,154156,1,0,0:0:0:0:
272,196,154237,1,2,0:0:0:0:
244,212,154399,1,0,0:0:0:0:
244,212,154479,1,0,0:0:0:0:
240,48,154560,1,2,0:0:0:0:
280,24,154641,1,2,0:0:0:0:
180,116,154722,1,0,0:0:0:0:
280,40,154884,1,2,0:0:0:0:
280,40,154965,1,2,0:0:0:0:
208,240,155046,1,0,0:0:0:0:
208,240,155127,1,0,0:0:0:0:
208,240,155208,1,2,0:0:0:0:
232,128,155369,1,6,0:0:0:0:
232,128,155531,1,6,0:0:0:0:
232,128,155693,1,6,0:0:0:0:
232,128,155855,1,6,0:0:0:0:
256,112,156017,1,0,0:0:0:0:
256,112,156097,1,0,0:0:0:0:
272,152,156178,1,0,0:0:0:0:
272,152,156259,1,0,0:0:0:0:
272,152,156340,1,0,0:0:0:0:
272,152,156421,1,0,0:0:0:0:
272,152,156502,1,2,0:0:0:0:
200,80,156664,1,0,0:0:0:0:
204,84,156745,1,0,0:0:0:0:
204,84,156825,1,2,0:0:0:0:
204,84,156987,1,2,0:0:0:0:
104,148,157149,1,0,0:0:0:0:
104,148,157230,1,0,0:0:0:0:
104,148,157311,1,2,0:0:0:0:
104,148,157392,1,2,0:0:0:0:
264,100,157473,1,0,0:0:0:0:
260,108,157634,1,2,0:0:0:0:
260,108,157715,1,2,0:0:0:0:
188,148,157796,1,0,0:0:0:0:
296,160,157958,1,6,0:0:0:0:
296,160,158039,1,6,0:0:0:0:
284,200,158120,1,6,0:0:0:0:
284,200,158201,1,6,0:0:0:0:
284,200,158282,1,6,0:0:0:0:
264,224,158363,1,6,0:0:0:0:
264,224,158443,1,6,0:0:0:0:
240,236,158767,1,6,0:0:0:0:
216,268,159091,1,4,0:0:0:0:
128,144,159414,1,2,0:0:0:0:
132,148,159576,1,2,0:0:0:0:
340,216,159657,1,0,0:0:0:0:
132,148,159738,1,2,0:0:0:0:
300,188,159900,1,2,0:0:0:0:
264,136,160061,1,0,0:0:0:0:
264,136,160223,1,2,0:0:0:0:
264,136,160304,1,0,0:0:0:0:
260,64,160547,1,2,0:0:0:0:
320,128,160628,1,2,0:0:0:0:
260,64,160709,1,2,0:0:0:0:
176,172,160870,1,0,0:0:0:0:
232,64,161032,1,2,0:0:0:0:
344,160,161113,1,0,0:0:0:0:
264,32,161194,1,2,0:0:0:0:
264,32,161275,1,2,0:0:0:0:
220,64,161356,1,0,0:0:0:0:
212,28,161437,1,0,0:0:0:0:
220,64,161518,1,2,0:0:0:0:
216,20,161679,1,2,0:0:0:0:
216,20,161760,1,2,0:0:0:0:
216,20,161841,1,2,0:0:0:0:
216,20,161922,1,2,0:0:0:0:
160,88,162003,1,0,0:0:0:0:
160,88,162084,1,0,0:0:0:0:
256,68,162165,1,2,0:0:0:0:
256,68,162246,1,2,0:0:0:0:
200,104,162327,1,0,0:0:0:0:
200,108,162407,1,0,0:0:0:0:
200,108,162488,1,0,0:0:0:0:
200,108,162569,1,0,0:0:0:0:
196,108,162650,1,2,0:0:0:0:
228,32,162731,1,2,0:0:0:0:
168,128,162812,1,0,0:0:0:0:
220,64,162893,1,0,0:0:0:0:
104,136,162974,1,6,0:0:0:0:
220,64,163297,1,6,0:0:0:0:
204,96,163621,1,6,0:0:0:0:
248,184,163783,1,0,0:0:0:0:
248,184,163864,1,0,0:0:0:0:
248,184,163945,1,0,0:0:0:0:
248,184,164025,1,0,0:0:0:0:
248,184,164106,1,0,0:0:0:0:
248,184,164187,1,0,0:0:0:0:
248,184,164268,1,2,0:0:0:0:
272,196,164430,1,0,0:0:0:0:
272,196,164511,1,0,0:0:0:0:
272,196,164592,1,2,0:0:0:0:
244,212,164754,1,0,0:0:0:0:
244,212,164834,1,0,0:0:0:0:
240,48,164915,1,2,0:0:0:0:
280,24,164996,1,2,0:0:0:0:
180,116,165077,1,0,0:0:0:0:
236,96,165158,1,2,0:0:0:0:
208,156,165239,1,0,0:0:0:0:
208,156,165320,1,0,0:0:0:0:
280,64,165401,1,2,0:0:0:0:
280,64,165482,1,2,0:0:0:0:
188,104,165563,1,0,0:0:0:0:
232,128,165724,1,6,0:0:0:0:
232,128,165886,1,6,0:0:0:0:
232,128,166048,1,6,0:0:0:0:
232,128,166210,1,6,0:0:0:0:
256,112,166372,1,0,0:0:0:0:
256,112,166452,1,0,0:0:0:0:
252,40,166533,1,2,0:0:0:0:
272,152,166614,1,0,0:0:0:0:
272,152,166695,1,0,0:0:0:0:
272,152,166776,1,0,0:0:0:0:
272,152,166857,1,2,0:0:0:0:
200,80,167019,1,0,0:0:0:0:
204,84,167100,1,0,0:0:0:0:
204,84,167180,1,2,0:0:0:0:
204,84,167342,1,2,0:0:0:0:
104,148,167504,1,0,0:0:0:0:
104,148,167585,1,0,0:0:0:0:
104,148,167666,1,2,0:0:0:0:
104,148,167747,1,2,0:0:0:0:
264,100,167828,1,0,0:0:0:0:
260,108,167989,1,2,0:0:0:0:
260,108,168070,1,2,0:0:0:0:
188,148,168151,1,0,0:0:0:0:
296,160,168313,1,6,0:0:0:0:
296,160,168394,1,6,0:0:0:0:
284,200,168475,1,6,0:0:0:0:
284,200,168556,1,6,0:0:0:0:
284,200,168637,1,6,0:0:0:0:
264,224,168718,1,6,0:0:0:0:
264,224,168798,1,6,0:0:0:0:
240,236,169122,1,4,0:0:0:0:
216,268,169446,1,6,0:0:0:0:
128,144,169769,1,2,0:0:0:0:
132,148,169931,1,2,0:0:0:0:
340,216,170012,1,0,0:0:0:0:
132,148,170093,1,2,0:0:0:0:
300,188,170255,1,2,0:0:0:0:
264,136,170416,1,0,0:0:0:0:
264,136,170578,1,2,0:0:0:0:
240,64,170659,1,2,0:0:0:0:
240,64,170740,1,2,0:0:0:0:
260,64,170902,1,2,0:0:0:0:
320,128,170983,1,2,0:0:0:0:
260,64,171064,1,2,0:0:0:0:
176,172,171225,1,0,0:0:0:0:
316,184,171306,1,0,0:0:0:0:
232,64,171387,1,2,0:0:0:0:
288,76,171468,1,2,0:0:0:0:
264,32,171549,1,2,0:0:0:0:
264,32,171630,1,2,0:0:0:0:
220,64,171711,1,0,0:0:0:0:
212,28,171792,1,0,0:0:0:0:
220,64,171873,1,2,0:0:0:0:
216,20,172034,1,2,0:0:0:0:
216,20,172115,1,2,0:0:0:0:
216,20,172196,1,2,0:0:0:0:
216,20,172277,1,2,0:0:0:0:
160,88,172358,1,0,0:0:0:0:
160,88,172439,1,0,0:0:0:0:
256,68,172520,1,2,0:0:0:0:
256,68,172601,1,2,0:0:0:0:
200,104,172682,1,0,0:0:0:0:
200,108,172762,1,0,0:0:0:0:
200,108,172843,1,2,0:0:0:0:
200,108,172924,1,2,0:0:0:0:
196,108,173005,1,0,0:0:0:0:
228,32,173086,1,0,0:0:0:0:
168,128,173167,1,2,0:0:0:0:
220,64,173248,1,2,0:0:0:0:
256,172,174137,1,4,0:0:0:0:
264,172,174299,1,6,0:0:0:0:
284,180,174624,5,4,0:0:0:0:
352,176,175918,1,0,0:0:0:0:
332,176,177213,1,0,0:0:0:0:
332,192,178507,1,0,0:0:0:0:
332,192,179154,1,0,0:0:0:0:
332,192,179801,1,2,0:0:0:0:
332,192,180287,1,2,0:0:0:0:
332,192,180772,1,0,0:0:0:0:
332,192,181096,1,2,0:0:0:0:
332,192,181581,1,2,0:0:0:0:
332,192,182067,1,0,0:0:0:0:
332,192,182390,1,2,0:0:0:0:
332,192,182876,1,2,0:0:0:0:
332,192,183361,1,0,0:0:0:0:
332,192,183685,1,0,0:0:0:0:
332,192,184008,1,0,0:0:0:0:
332,192,184332,1,0,0:0:0:0:
332,192,184655,1,2,0:0:0:0:
256,144,184976,1,0,0:0:0:0:
256,144,185138,1,2,0:0:0:0:
240,160,185300,1,0,0:0:0:0:
240,160,185462,1,2,0:0:0:0:
216,180,185624,1,0,0:0:0:0:
216,180,185785,1,2,0:0:0:0:
184,204,185947,1,0,0:0:0:0:
184,204,186109,1,2,0:0:0:0:
168,224,186271,1,0,0:0:0:0:
168,224,186433,1,2,0:0:0:0:
160,228,186594,1,0,0:0:0:0:
160,228,186756,1,2,0:0:0:0:
136,244,186918,1,0,0:0:0:0:
136,244,187080,1,2,0:0:0:0:
112,260,187242,1,0,0:0:0:0:
112,260,187403,1,2,0:0:0:0:
112,260,187565,1,0,0:0:0:0:
112,260,187727,1,2,0:0:0:0:
224,192,187889,1,0,0:0:0:0:
256,68,188051,1,2,0:0:0:0:
220,144,188212,1,0,0:0:0:0:
224,148,188374,1,2,0:0:0:0:
208,176,188536,1,0,0:0:0:0:
208,176,188698,1,2,0:0:0:0:
192,192,188860,1,0,0:0:0:0:
192,192,189021,1,2,0:0:0:0:
172,212,189183,1,0,0:0:0:0:
172,212,189345,1,2,0:0:0:0:
140,236,189507,1,0,0:0:0:0:
144,240,189669,1,2,0:0:0:0:
132,252,189830,1,0,0:0:0:0:
132,252,189992,1,2,0:0:0:0:
336,296,190154,5,4,0:0:0:0:
352,216,190316,1,2,0:0:0:0:
284,256,190470,1,4,0:0:0:0:
284,256,190642,1,2,0:0:0:0:
272,260,190794,1,4,0:0:0:0:
272,260,190965,1,2,0:0:0:0:
252,272,191117,1,4,0:0:0:0:
252,272,191289,1,2,0:0:0:0:
236,280,191441,1,4,0:0:0:0:
236,280,191613,1,2,0:0:0:0:
224,288,191767,1,4,0:0:0:0:
224,288,191936,1,2,0:0:0:0:
216,296,192093,1,4,0:0:0:0:
216,296,192260,1,2,0:0:0:0:
208,296,192417,1,4,0:0:0:0:
208,296,192583,1,2,0:0:0:0:
208,296,192740,1,4,0:0:0:0:
208,296,192907,1,2,0:0:0:0:
208,296,193066,1,4,0:0:0:0:
208,296,193231,1,2,0:0:0:0:
204,300,193392,1,4,0:0:0:0:
204,300,193554,1,2,0:0:0:0:
204,304,193716,1,4,0:0:0:0:
204,304,193878,1,2,0:0:0:0:
200,308,194040,1,4,0:0:0:0:
200,308,194201,1,2,0:0:0:0:
200,308,194363,1,4,0:0:0:0:
200,308,194525,1,2,0:0:0:0:
200,308,194687,1,4,0:0:0:0:
200,308,194849,1,2,0:0:0:0:
256,204,195008,1,0,0:0:0:0:
264,208,195089,1,0,0:0:0:0:
268,208,195170,1,0,0:0:0:0:
272,208,195251,1,0,0:0:0:0:
200,308,195334,1,2,0:0:0:0:
256,200,195415,1,2,0:0:0:0:
256,200,195496,1,2,0:0:0:0:
256,200,195577,1,2,0:0:0:0:
224,208,195658,1,4,0:0:0:0:
224,208,195738,1,2,0:0:0:0:
228,208,195819,1,2,0:0:0:0:
228,208,195900,1,2,0:0:0:0:
228,208,195981,1,4,0:0:0:0:
280,132,196062,1,2,0:0:0:0:
228,208,196143,1,2,0:0:0:0:
228,208,196224,1,2,0:0:0:0:
272,168,196305,1,4,0:0:0:0:
268,168,196386,1,2,0:0:0:0:
268,168,196467,1,2,0:0:0:0:
308,80,196547,1,2,0:0:0:0:
232,168,196628,1,4,0:0:0:0:
336,104,196709,1,2,0:0:0:0:
268,104,196790,1,2,0:0:0:0:
268,104,196871,1,2,0:0:0:0:
268,104,196952,1,4,0:0:0:0:
268,104,197033,1,2,0:0:0:0:
268,104,197114,1,2,0:0:0:0:
268,104,197195,1,2,0:0:0:0:
256,112,197276,1,0,0:0:0:0:
248,120,197437,1,2,0:0:0:0:
248,120,197599,1,0,0:0:0:0:
248,120,197761,1,2,0:0:0:0:
308,136,197841,1,2,0:0:0:0:
260,188,197923,1,4,0:0:0:0:
260,188,198004,1,4,0:0:0:0:
260,188,198084,1,2,0:0:0:0:
260,188,198165,1,2,0:0:0:0:
220,200,198246,1,4,0:0:0:0:
220,200,198327,1,4,0:0:0:0:
220,200,198408,1,2,0:0:0:0:
220,200,198489,1,2,0:0:0:0:
212,200,198569,1,4,0:0:0:0:
324,160,198650,1,4,0:0:0:0:
212,200,198732,1,2,0:0:0:0:
212,200,198813,1,2,0:0:0:0:
376,168,198892,1,4,0:0:0:0:
320,180,198973,1,4,0:0:0:0:
364,128,199055,1,2,0:0:0:0:
264,88,199136,1,2,0:0:0:0:
196,168,199217,1,0,0:0:0:0:
232,116,199379,1,2,0:0:0:0:
216,168,199541,1,0,0:0:0:0:
236,184,199702,1,2,0:0:0:0:
200,232,199864,1,0,0:0:0:0:
240,164,200026,1,2,0:0:0:0:
216,196,200188,1,0,0:0:0:0:
216,196,200350,1,2,0:0:0:0:
264,172,200430,1,2,0:0:0:0:
212,200,200510,1,4,0:0:0:0:
212,204,200591,1,4,0:0:0:0:
260,44,200673,1,2,0:0:0:0:
260,44,200754,1,2,0:0:0:0:
212,96,200834,1,4,0:0:0:0:
212,40,200915,1,4,0:0:0:0:
212,96,200997,1,2,0:0:0:0:
208,48,201078,1,2,0:0:0:0:
192,72,201158,1,4,0:0:0:0:
180,76,201239,1,4,0:0:0:0:
228,32,201320,1,2,0:0:0:0:
228,32,201401,1,2,0:0:0:0:
176,88,201481,1,4,0:0:0:0:
176,88,201562,1,4,0:0:0:0:
224,40,201644,1,2,0:0:0:0:
212,40,201725,1,2,0:0:0:0:
128,84,201805,1,4,0:0:0:0:
232,60,201887,1,4,0:0:0:0:
224,80,201968,1,2,0:0:0:0:
224,80,202049,1,2,0:0:0:0:
232,48,202129,1,4,0:0:0:0:
232,48,202210,1,4,0:0:0:0:
232,48,202291,1,2,0:0:0:0:
232,52,202372,1,2,0:0:0:0:
228,52,202453,1,0,0:0:0:0:
224,52,202615,1,2,0:0:0:0:
264,180,202777,1,0,0:0:0:0:
240,60,202938,1,2,0:0:0:0:
216,124,203100,1,0,0:0:0:0:
216,124,203181,1,2,0:0:0:0:
216,124,203262,1,2,0:0:0:0:
216,124,203343,1,2,0:0:0:0:
176,148,203424,1,4,0:0:0:0:
176,148,203505,1,2,0:0:0:0:
176,148,203586,1,2,0:0:0:0:
176,148,203666,1,2,0:0:0:0:
168,152,203745,1,4,0:0:0:0:
160,156,203828,1,2,0:0:0:0:
160,156,203909,1,2,0:0:0:0:
160,156,203990,1,2,0:0:0:0:
144,164,204069,1,4,0:0:0:0:
140,168,204152,1,2,0:0:0:0:
140,168,204233,1,2,0:0:0:0:
136,168,204314,1,2,0:0:0:0:
136,168,204395,1,0,0:0:0:0:
264,76,204556,1,2,0:0:0:0:
228,120,204718,1,0,0:0:0:0:
224,128,204880,1,2,0:0:0:0:
208,136,205042,1,0,0:0:0:0:
260,160,205201,1,2,0:0:0:0:
260,160,205363,1,0,0:0:0:0:
260,160,205444,1,0,0:0:0:0:
260,160,205525,1,0,0:0:0:0:
260,160,205606,1,0,0:0:0:0:
260,160,205686,1,2,0:0:0:0:
260,160,205767,1,2,0:0:0:0:
260,160,205848,1,2,0:0:0:0:
260,160,205929,1,2,0:0:0:0:
260,160,206008,1,4,0:0:0:0:
320,84,206091,1,2,0:0:0:0:
320,84,206172,1,2,0:0:0:0:
320,84,206253,1,2,0:0:0:0:
272,96,206332,1,4,0:0:0:0:
304,84,206415,1,2,0:0:0:0:
304,84,206495,1,2,0:0:0:0:
336,88,206576,1,2,0:0:0:0:
244,156,206655,1,4,0:0:0:0:
320,80,206738,1,2,0:0:0:0:
312,80,206819,1,2,0:0:0:0:
312,80,206900,1,2,0:0:0:0:
208,112,206981,1,4,0:0:0:0:
296,100,207062,1,2,0:0:0:0:
296,104,207143,1,2,0:0:0:0:
296,104,207224,1,2,0:0:0:0:
228,148,207304,1,4,0:0:0:0:
224,152,207385,1,2,0:0:0:0:
224,148,207466,1,2,0:0:0:0:
304,84,207547,1,2,0:0:0:0:
244,156,207628,1,4,0:0:0:0:
244,156,207709,1,2,0:0:0:0:
228,140,207790,1,2,0:0:0:0:
228,148,207871,1,2,0:0:0:0:
252,108,207952,1,0,0:0:0:0:
236,168,208115,1,2,0:0:0:0:
288,100,208275,1,0,0:0:0:0:
236,176,208356,1,2,0:0:0:0:
224,168,208437,1,2,0:0:0:0:
224,168,208518,1,2,0:0:0:0:
276,196,208599,1,4,0:0:0:0:
276,196,208680,1,2,0:0:0:0:
276,196,208761,1,2,0:0:0:0:
276,196,208841,1,2,0:0:0:0:
228,208,208922,1,4,0:0:0:0:
284,148,209003,1,2,0:0:0:0:
284,148,209084,1,2,0:0:0:0:
284,148,209165,1,2,0:0:0:0:
256,200,209246,1,4,0:0:0:0:
248,200,209327,1,2,0:0:0:0:
248,200,209408,1,2,0:0:0:0:
248,200,209489,1,2,0:0:0:0:
192,216,209570,1,0,0:0:0:0:
272,80,209731,1,2,0:0:0:0:
256,144,209893,1,0,0:0:0:0:
248,176,210055,1,2,0:0:0:0:
224,208,210217,1,0,0:0:0:0:
268,120,210379,1,2,0:0:0:0:
248,216,210540,1,0,0:0:0:0:
248,216,210621,1,0,0:0:0:0:
248,216,210702,1,0,0:0:0:0:
248,216,210783,1,0,0:0:0:0:
248,224,210864,1,2,0:0:0:0:
248,224,210945,1,2,0:0:0:0:
248,224,211026,1,2,0:0:0:0:
248,224,211107,1,2,0:0:0:0:
264,128,211188,1,4,0:0:0:0:
264,128,211268,1,2,0:0:0:0:
268,128,211349,1,2,0:0:0:0:
268,128,211430,1,2,0:0:0:0:
228,160,211511,1,4,0:0:0:0:
228,168,211592,1,2,0:0:0:0:
228,168,211673,1,2,0:0:0:0:
228,168,211754,1,2,0:0:0:0:
200,184,211835,1,4,0:0:0:0:
188,184,211916,1,2,0:0:0:0:
180,180,211997,1,2,0:0:0:0:
324,96,212077,1,2,0:0:0:0:
164,184,212158,1,4,0:0:0:0:
312,108,212239,1,2,0:0:0:0:
312,108,212320,1,2,0:0:0:0:
312,108,212401,1,2,0:0:0:0:
236,156,212482,1,4,0:0:0:0:
236,156,212563,1,2,0:0:0:0:
236,156,212644,1,2,0:0:0:0:
236,156,212725,1,2,0:0:0:0:
256,116,212805,1,0,0:0:0:0:
256,116,212967,1,2,0:0:0:0:
248,120,213131,1,0,0:0:0:0:
248,128,213291,1,2,0:0:0:0:
396,240,213374,1,2,0:0:0:0:
276,60,213453,1,4,0:0:0:0:
276,60,213534,1,4,0:0:0:0:
276,60,213614,1,2,0:0:0:0:
276,60,213695,1,2,0:0:0:0:
264,72,213776,1,4,0:0:0:0:
260,72,213857,1,4,0:0:0:0:
260,72,213938,1,2,0:0:0:0:
260,72,214019,1,2,0:0:0:0:
320,84,214100,1,4,0:0:0:0:
320,84,214181,1,4,0:0:0:0:
320,84,214262,1,2,0:0:0:0:
320,84,214343,1,2,0:0:0:0:
276,120,214423,1,4,0:0:0:0:
272,124,214504,1,4,0:0:0:0:
272,124,214585,1,2,0:0:0:0:
272,124,214666,1,2,0:0:0:0:
248,140,214747,1,0,0:0:0:0:
328,104,214909,1,0,0:0:0:0:
328,104,215071,1,2,0:0:0:0:
328,104,215232,1,2,0:0:0:0:
284,168,215394,1,0,0:0:0:0:
252,220,216043,1,4,0:0:0:0:
408,188,221221,5,4,0:0:0:0:
272,148,221275,2,4,L|376:144,20,93.3333333333333
404,188,222515,1,6,0:0:0:0:
272,148,222569,2,4,L|376:144,20,93.3333333333333
400,180,223810,1,4,0:0:0:0:
272,148,223864,2,4,L|376:144,20,93.3333333333333
400,180,225104,1,6,0:0:0:0:
272,148,225158,2,4,L|376:144,20,93.3333333333333
396,180,226398,1,4,0:0:0:0:
232,168,226452,2,4,L|352:160,8,93.3333333333333
396,180,227046,1,6,0:0:0:0:
232,168,227100,2,4,L|352:160,8,93.3333333333333
396,180,227693,1,4,0:0:0:0:
308,152,227747,2,4,L|500:116,1,186.666666666667
396,180,228016,1,6,0:0:0:0:
308,152,228070,2,4,L|500:116,1,186.666666666667
396,180,228340,1,4,0:0:0:0:
308,152,228394,2,4,L|500:116,1,186.666666666667
396,180,228664,1,6,0:0:0:0:
308,152,228717,2,4,L|500:116,1,186.666666666667
396,180,228987,1,6,0:0:0:0:
308,172,229634,1,6,0:0:0:0:
296,168,229715,1,6,0:0:0:0:
328,176,230282,1,6,0:0:0:0:
328,176,230362,1,6,0:0:0:0:
328,176,230444,1,6,0:0:0:0:
328,176,230524,1,6,0:0:0:0:
328,176,230605,1,6,0:0:0:0:
328,176,230687,1,6,0:0:0:0:
328,176,230767,1,6,0:0:0:0:
328,176,230848,1,6,0:0:0:0:
328,176,230929,1,6,0:0:0:0:
284,104,231576,1,4,0:0:0:0:
256,192,232211,12,0,232231,0:0:0:0:
256,192,232244,12,0,232264,0:0:0:0:
256,192,232264,12,0,232284,0:0:0:0:
256,192,232284,12,0,232304,0:0:0:0:
256,192,232304,12,0,232325,0:0:0:0:
256,192,232325,12,0,232345,0:0:0:0:
256,192,232345,12,0,232365,0:0:0:0:
256,192,232365,12,0,232385,0:0:0:0:
256,192,232385,12,0,232406,0:0:0:0:
256,192,232406,12,0,232426,0:0:0:0:
256,192,232426,12,0,232446,0:0:0:0:
256,192,232446,12,0,232466,0:0:0:0:
256,192,232466,12,0,232486,0:0:0:0:
256,192,232486,12,0,232507,0:0:0:0:
256,192,232506,12,0,232526,0:0:0:0:
256,192,232507,12,0,232527,0:0:0:0:
256,192,232526,12,0,232546,0:0:0:0:
256,192,232527,12,0,232547,0:0:0:0:
256,192,232546,12,0,232566,0:0:0:0:
256,192,232547,12,0,232567,0:0:0:0:
256,192,232566,12,0,232587,0:0:0:0:
256,192,232566,12,0,232587,0:0:0:0:
256,192,232567,12,0,232587,0:0:0:0:
256,192,232587,12,0,232607,0:0:0:0:
256,192,232627,12,0,232647,0:0:0:0:
256,192,232627,12,0,232647,0:0:0:0:
256,192,232627,12,0,232647,0:0:0:0:
256,192,232647,12,0,232668,0:0:0:0:
256,192,232647,12,0,232667,0:0:0:0:
256,192,232648,12,0,232668,0:0:0:0:
256,192,232667,12,0,232688,0:0:0:0:
256,192,232668,12,0,232688,0:0:0:0:
256,192,232668,12,0,232688,0:0:0:0:
256,192,232688,12,0,232708,0:0:0:0:
256,192,232688,12,0,232708,0:0:0:0:
256,192,232708,12,0,232728,0:0:0:0:
256,192,232708,12,0,232729,0:0:0:0:
256,192,232748,12,0,232769,0:0:0:0:
256,192,232749,12,0,232769,0:0:0:0:
256,192,232749,12,0,232769,0:0:0:0:
256,192,232769,12,0,232789,0:0:0:0:
256,192,232769,12,0,232789,0:0:0:0:
256,192,232789,12,0,232809,0:0:0:0:
256,192,232789,12,0,232809,0:0:0:0:
256,192,232809,12,0,232829,0:0:0:0:
256,192,232809,12,0,232829,0:0:0:0:
256,192,232810,12,0,232830,0:0:0:0:
256,192,232829,12,0,232850,0:0:0:0:
256,192,232829,12,0,232849,0:0:0:0:
204,164,233193,6,4,L|240:164,8,35
256,192,234165,12,0,234185,0:0:0:0:
256,192,234185,12,0,234205,0:0:0:0:
256,192,234205,12,0,234225,0:0:0:0:
256,192,234225,12,0,234245,0:0:0:0:
256,192,234245,12,0,234266,0:0:0:0:
256,192,234266,12,0,234286,0:0:0:0:
256,192,234286,12,0,234306,0:0:0:0:
256,192,234306,12,0,234326,0:0:0:0:
256,192,234326,12,0,234347,0:0:0:0:
256,192,234347,12,0,234367,0:0:0:0:
256,192,234367,12,0,234387,0:0:0:0:
256,192,234387,12,0,234407,0:0:0:0:
256,192,234407,12,0,234427,0:0:0:0:
256,192,234427,12,0,234448,0:0:0:0:
256,192,234448,12,0,234468,0:0:0:0:
256,192,234468,12,0,234488,0:0:0:0:
256,192,234489,12,0,234509,0:0:0:0:
256,192,234509,12,0,234529,0:0:0:0:
256,192,234529,12,0,234549,0:0:0:0:
256,192,234549,12,0,234569,0:0:0:0:
256,192,234569,12,0,234590,0:0:0:0:
256,192,234590,12,0,234610,0:0:0:0:
256,192,234610,12,0,234630,0:0:0:0:
256,192,234630,12,0,234650,0:0:0:0:
256,192,234650,12,0,234671,0:0:0:0:
256,192,234671,12,0,234691,0:0:0:0:
256,192,234691,12,0,234711,0:0:0:0:
256,192,234711,12,0,234731,0:0:0:0:
256,192,234731,12,0,234751,0:0:0:0:
256,192,234751,12,0,234772,0:0:0:0:
256,192,234772,12,0,234792,0:0:0:0:
256,192,234792,12,0,234812,0:0:0:0:
256,192,234812,12,0,234832,0:0:0:0:
256,192,234832,12,0,234852,0:0:0:0:
256,192,234852,12,0,234872,0:0:0:0:
256,192,234872,12,0,234892,0:0:0:0:
256,192,234892,12,0,234913,0:0:0:0:
256,192,234913,12,0,234933,0:0:0:0:
256,192,234933,12,0,234953,0:0:0:0:
256,192,234953,12,0,234973,0:0:0:0:
256,192,234973,12,0,234994,0:0:0:0:
256,192,234994,12,0,235014,0:0:0:0:
256,192,235014,12,0,235034,0:0:0:0:
256,192,235034,12,0,235054,0:0:0:0:
256,192,235054,12,0,235074,0:0:0:0:
256,192,235074,12,0,235095,0:0:0:0:
256,192,235095,12,0,235115,0:0:0:0:
256,192,235115,12,0,235135,0:0:0:0:
256,192,235136,12,0,235156,0:0:0:0:
256,192,235156,12,0,235176,0:0:0:0:
256,192,235176,12,0,235196,0:0:0:0:
256,192,235196,12,0,235216,0:0:0:0:
256,192,235216,12,0,235237,0:0:0:0:
256,192,235237,12,0,235257,0:0:0:0:
256,192,235257,12,0,235277,0:0:0:0:
256,192,235277,12,0,235297,0:0:0:0:
256,192,235297,12,0,235318,0:0:0:0:
256,192,235318,12,0,235338,0:0:0:0:
256,192,235338,12,0,235358,0:0:0:0:
256,192,235358,12,0,235378,0:0:0:0:
256,192,235378,12,0,235398,0:0:0:0:
256,192,235398,12,0,235419,0:0:0:0:
256,192,235419,12,0,235439,0:0:0:0:
256,192,235439,12,0,235459,0:0:0:0:
256,192,235460,12,0,235480,0:0:0:0:
256,192,235480,12,0,235500,0:0:0:0:
256,192,235500,12,0,235520,0:0:0:0:
256,192,235520,12,0,235540,0:0:0:0:
256,192,235540,12,0,235561,0:0:0:0:
256,192,235561,12,0,235581,0:0:0:0:
256,192,235581,12,0,235601,0:0:0:0:
256,192,235601,12,0,235621,0:0:0:0:
256,192,235621,12,0,235642,0:0:0:0:
256,192,235642,12,0,235662,0:0:0:0:
256,192,235662,12,0,235682,0:0:0:0:
256,192,235682,12,0,235702,0:0:0:0:
256,192,235702,12,0,235722,0:0:0:0:
256,192,235722,12,0,235743,0:0:0:0:
256,192,235743,12,0,235763,0:0:0:0:
256,192,235763,12,0,235783,0:0:0:0:
256,192,235783,12,0,235803,0:0:0:0:
256,192,235803,12,0,235823,0:0:0:0:
256,192,235823,12,0,235843,0:0:0:0:
256,192,235843,12,0,235863,0:0:0:0:
256,192,235863,12,0,235884,0:0:0:0:
256,192,235884,12,0,235904,0:0:0:0:
256,192,235904,12,0,235924,0:0:0:0:
256,192,235924,12,0,235944,0:0:0:0:
256,192,235944,12,0,235965,0:0:0:0:
256,192,235965,12,0,235985,0:0:0:0:
256,192,235985,12,0,236005,0:0:0:0:
256,192,236005,12,0,236025,0:0:0:0:
256,192,236025,12,0,236045,0:0:0:0:
256,192,236045,12,0,236066,0:0:0:0:
328,184,236753,5,0,0:0:0:0:
328,184,236834,1,0,0:0:0:0:
328,184,236915,1,0,0:0:0:0:
328,184,236996,1,0,0:0:0:0:
320,144,237077,5,6,0:0:0:0:
336,136,237401,1,0,0:0:0:0:
336,136,237481,1,0,0:0:0:0:
336,136,237562,1,0,0:0:0:0:
336,136,237643,1,0,0:0:0:0:
336,136,237724,1,6,0:0:0:0:
336,136,237804,1,6,0:0:0:0:
324,128,238048,1,6,0:0:0:0:
324,128,238129,1,6,0:0:0:0:
324,128,238210,1,6,0:0:0:0:
324,128,238290,1,6,0:0:0:0:
324,128,238371,1,6,0:0:0:0:
324,128,238452,1,6,0:0:0:0:
324,128,238533,1,6,0:0:0:0:
324,128,238614,1,6,0:0:0:0:
320,128,238695,1,6,0:0:0:0:
272,252,238862,1,0,0:0:0:0:
272,252,238943,1,0,0:0:0:0:
272,252,239024,1,0,0:0:0:0:
272,252,239105,1,0,0:0:0:0:
272,252,239186,1,0,0:0:0:0:
272,252,239267,1,0,0:0:0:0:
204,128,239341,5,6,0:0:0:0:
256,192,239341,12,0,240635,0:0:0:0:
272,196,239502,5,0,0:0:0:0:
272,196,239583,1,0,0:0:0:0:
272,196,239664,1,2,0:0:0:0:
244,212,239826,1,0,0:0:0:0:
244,212,239906,1,2,0:0:0:0:
240,48,239988,1,0,0:0:0:0:
280,24,240068,1,2,0:0:0:0:
180,116,240149,1,0,0:0:0:0:
352,208,240230,1,0,0:0:0:0:
280,40,240311,1,2,0:0:0:0:
280,40,240392,1,2,0:0:0:0:
208,240,240473,1,0,0:0:0:0:
208,240,240554,1,0,0:0:0:0:
208,240,240635,1,2,0:0:0:0:
232,128,240796,1,6,0:0:0:0:
232,128,240958,1,6,0:0:0:0:
232,128,241120,1,6,0:0:0:0:
232,128,241282,1,6,0:0:0:0:
256,112,241444,1,0,0:0:0:0:
256,112,241524,1,0,0:0:0:0:
272,152,241605,1,0,0:0:0:0:
272,152,241686,1,0,0:0:0:0:
272,152,241767,1,0,0:0:0:0:
272,152,241848,1,0,0:0:0:0:
272,152,241929,5,6,0:0:0:0:
256,192,241929,12,0,243224,0:0:0:0:
200,80,242091,5,0,0:0:0:0:
204,84,242172,1,0,0:0:0:0:
204,84,242252,1,2,0:0:0:0:
204,84,242414,1,2,0:0:0:0:
272,192,242496,1,0,0:0:0:0:
260,200,242576,1,2,0:0:0:0:
104,148,242657,1,0,0:0:0:0:
104,148,242738,1,2,0:0:0:0:
280,144,242819,1,2,0:0:0:0:
264,100,242900,1,0,0:0:0:0:
104,148,242981,1,0,0:0:0:0:
260,108,243061,1,2,0:0:0:0:
260,108,243142,1,2,0:0:0:0:
188,148,243223,1,0,0:0:0:0:
296,160,243385,1,6,0:0:0:0:
296,160,243466,1,6,0:0:0:0:
284,200,243547,1,6,0:0:0:0:
284,200,243628,1,6,0:0:0:0:
284,200,243709,1,6,0:0:0:0:
264,224,243790,1,6,0:0:0:0:
264,224,243870,1,6,0:0:0:0:
240,236,244194,1,6,0:0:0:0:
216,268,244518,1,4,0:0:0:0:
128,144,244841,1,2,0:0:0:0:
132,148,245003,1,2,0:0:0:0:
340,216,245084,1,0,0:0:0:0:
132,148,245165,1,2,0:0:0:0:
300,188,245327,1,2,0:0:0:0:
264,136,245488,1,0,0:0:0:0:
264,136,245650,1,2,0:0:0:0:
264,136,245731,1,0,0:0:0:0:
260,64,245974,1,2,0:0:0:0:
320,128,246055,1,2,0:0:0:0:
260,64,246136,1,2,0:0:0:0:
176,172,246297,1,0,0:0:0:0:
232,64,246459,1,2,0:0:0:0:
344,160,246540,1,0,0:0:0:0:
264,32,246621,1,2,0:0:0:0:
264,32,246702,1,2,0:0:0:0:
220,64,246783,1,0,0:0:0:0:
212,28,246864,1,0,0:0:0:0:
220,64,246945,1,2,0:0:0:0:
216,20,247106,1,2,0:0:0:0:
216,20,247187,1,2,0:0:0:0:
216,20,247268,1,2,0:0:0:0:
216,20,247349,1,2,0:0:0:0:
160,88,247430,1,0,0:0:0:0:
160,88,247511,1,0,0:0:0:0:
256,68,247592,1,2,0:0:0:0:
256,68,247673,1,2,0:0:0:0:
200,104,247754,1,0,0:0:0:0:
200,108,247834,1,0,0:0:0:0:
200,108,247915,1,0,0:0:0:0:
200,108,247996,1,0,0:0:0:0:
196,108,248077,1,2,0:0:0:0:
228,32,248158,1,2,0:0:0:0:
168,128,248239,1,0,0:0:0:0:
220,64,248320,1,0,0:0:0:0:
104,136,248401,1,6,0:0:0:0:
220,64,248724,1,6,0:0:0:0:
204,96,249048,1,6,0:0:0:0:
248,184,249210,1,0,0:0:0:0:
248,184,249291,1,0,0:0:0:0:
248,184,249372,1,0,0:0:0:0:
248,184,249452,1,0,0:0:0:0:
248,184,249533,1,0,0:0:0:0:
248,184,249614,1,0,0:0:0:0:
248,184,249695,5,6,0:0:0:0:
256,192,249695,12,0,250990,0:0:0:0:
272,196,249857,5,0,0:0:0:0:
272,196,249938,1,0,0:0:0:0:
272,196,250019,1,2,0:0:0:0:
244,212,250181,1,0,0:0:0:0:
244,212,250261,1,2,0:0:0:0:
240,48,250342,1,0,0:0:0:0:
280,24,250423,1,2,0:0:0:0:
180,116,250504,1,0,0:0:0:0:
236,96,250585,1,0,0:0:0:0:
208,156,250666,1,2,0:0:0:0:
208,156,250747,1,0,0:0:0:0:
280,64,250828,1,2,0:0:0:0:
280,64,250909,1,2,0:0:0:0:
188,104,250990,1,0,0:0:0:0:
232,128,251151,1,6,0:0:0:0:
232,128,251313,1,6,0:0:0:0:
232,128,251475,1,6,0:0:0:0:
232,128,251637,1,6,0:0:0:0:
256,112,251799,1,0,0:0:0:0:
256,112,251879,1,0,0:0:0:0:
252,40,251960,1,2,0:0:0:0:
272,152,252041,1,0,0:0:0:0:
272,152,252122,1,0,0:0:0:0:
272,152,252203,1,0,0:0:0:0:
272,152,252284,5,6,0:0:0:0:
256,192,252284,12,0,253579,0:0:0:0:
200,80,252446,5,0,0:0:0:0:
204,84,252527,1,0,0:0:0:0:
204,84,252607,1,2,0:0:0:0:
204,84,252769,1,2,0:0:0:0:
300,196,252851,1,0,0:0:0:0:
288,196,252931,1,2,0:0:0:0:
104,148,253012,1,0,0:0:0:0:
104,148,253093,1,2,0:0:0:0:
104,148,253174,1,2,0:0:0:0:
264,100,253255,1,0,0:0:0:0:
316,120,253336,1,0,0:0:0:0:
260,108,253416,1,2,0:0:0:0:
260,108,253497,1,2,0:0:0:0:
188,148,253578,1,0,0:0:0:0:
296,160,253740,1,6,0:0:0:0:
296,160,253821,1,6,0:0:0:0:
284,200,253902,1,6,0:0:0:0:
284,200,253983,1,6,0:0:0:0:
284,200,254064,1,6,0:0:0:0:
264,224,254145,1,6,0:0:0:0:
264,224,254225,1,6,0:0:0:0:
240,236,254549,1,4,0:0:0:0:
216,268,254873,1,6,0:0:0:0:
128,144,255196,1,2,0:0:0:0:
132,148,255358,1,2,0:0:0:0:
340,216,255439,1,0,0:0:0:0:
132,148,255520,1,2,0:0:0:0:
300,188,255682,1,2,0:0:0:0:
264,136,255843,1,0,0:0:0:0:
264,136,256005,1,2,0:0:0:0:
240,64,256086,1,2,0:0:0:0:
240,64,256167,1,2,0:0:0:0:
260,64,256329,1,2,0:0:0:0:
320,128,256410,1,2,0:0:0:0:
260,64,256491,1,2,0:0:0:0:
176,172,256652,1,0,0:0:0:0:
316,184,256733,1,0,0:0:0:0:
232,64,256814,1,2,0:0:0:0:
288,76,256895,1,2,0:0:0:0:
264,32,256976,1,2,0:0:0:0:
264,32,257057,1,2,0:0:0:0:
220,64,257138,1,0,0:0:0:0:
212,28,257219,1,0,0:0:0:0:
220,64,257300,1,2,0:0:0:0:
216,20,257461,1,2,0:0:0:0:
216,20,257542,1,2,0:0:0:0:
216,20,257623,1,2,0:0:0:0:
216,20,257704,1,2,0:0:0:0:
160,88,257785,1,0,0:0:0:0:
160,88,257866,1,0,0:0:0:0:
256,68,257947,1,2,0:0:0:0:
256,68,258028,1,2,0:0:0:0:
200,104,258109,1,0,0:0:0:0:
200,108,258189,1,0,0:0:0:0:
200,108,258270,1,2,0:0:0:0:
200,108,258351,1,2,0:0:0:0:
196,108,258432,1,0,0:0:0:0:
228,32,258513,1,0,0:0:0:0:
168,128,258594,1,2,0:0:0:0:
220,64,258675,1,2,0:0:0:0:
260,208,258756,1,0,0:0:0:0:
272,216,258918,1,0,0:0:0:0:
272,216,258999,1,0,0:0:0:0:
272,216,259080,1,2,0:0:0:0:
272,216,259241,1,2,0:0:0:0:
292,240,259403,1,0,0:0:0:0:
292,240,259565,1,0,0:0:0:0:
292,240,259727,1,2,0:0:0:0:
320,208,260049,1,0,0:0:0:0:
280,52,260129,1,0,0:0:0:0:
320,208,260210,1,2,0:0:0:0:
280,52,260291,1,2,0:0:0:0:
256,192,260372,2,0,L,1,0.01
256,192,260453,2,0,L,1,0.01
288,72,260534,1,0,0:0:0:0:
288,72,260615,1,0,0:0:0:0:
292,72,260696,1,2,0:0:0:0:
292,76,260777,1,2,0:0:0:0:
256,192,260857,2,0,L,1,0.01
256,192,260938,2,0,L,1,0.01
224,112,261019,1,0,0:0:0:0:
224,112,261100,1,0,0:0:0:0:
224,112,261181,1,2,0:0:0:0:
224,112,261262,1,2,0:0:0:0:
256,192,261343,2,0,L,1,0.01
256,192,261424,2,0,L,1,0.01
240,96,261505,1,0,0:0:0:0:
240,96,261586,1,0,0:0:0:0:
240,96,261666,1,2,0:0:0:0:
240,96,261747,1,2,0:0:0:0:
240,96,261828,1,2,0:0:0:0:
284,60,261909,1,2,0:0:0:0:
256,84,261990,1,0,0:0:0:0:
256,88,262071,1,0,0:0:0:0:
256,192,262152,2,0,L,1,0.01
256,192,262233,2,0,L,1,0.01
272,144,262314,1,0,0:0:0:0:
272,144,262395,1,0,0:0:0:0:
256,192,262475,2,0,L,1,0.01
256,192,262556,2,0,L,1,0.01
272,88,262637,1,0,0:0:0:0:
272,88,262718,1,0,0:0:0:0:
276,32,262799,1,2,0:0:0:0:
276,32,262880,1,2,0:0:0:0:
256,192,262961,2,0,L,1,0.01
256,192,263042,2,0,L,1,0.01
320,144,263123,1,0,0:0:0:0:
320,152,263204,1,0,0:0:0:0:
320,152,263284,1,2,0:0:0:0:
320,152,263365,1,2,0:0:0:0:
256,192,263446,2,0,L,1,0.01
256,192,263527,2,0,L,1,0.01
324,124,263608,1,0,0:0:0:0:
324,124,263689,1,0,0:0:0:0:
328,124,263770,1,2,0:0:0:0:
328,128,263851,1,2,0:0:0:0:
256,192,263932,2,0,L,1,0.01
256,192,264013,2,0,L,1,0.01
240,196,264093,1,2,0:0:0:0:
240,196,264174,1,2,0:0:0:0:
256,192,264255,2,0,L,1,0.01
256,192,264336,2,0,L,1,0.01
332,232,264417,1,0,0:0:0:0:
332,232,264498,1,0,0:0:0:0:
304,104,264579,1,2,0:0:0:0:
304,104,264660,1,2,0:0:0:0:
256,192,264741,2,0,L,1,0.01
256,192,264821,2,0,L,1,0.01
304,104,264902,1,0,0:0:0:0:
304,104,264983,1,0,0:0:0:0:
304,104,265064,1,2,0:0:0:0:
304,104,265145,1,2,0:0:0:0:
280,212,265226,1,0,0:0:0:0:
280,212,265307,1,0,0:0:0:0:
280,212,265388,1,2,0:0:0:0:
280,212,265469,1,2,0:0:0:0:
256,192,265550,2,0,L,1,0.01
256,192,265630,2,0,L,1,0.01
216,160,265711,1,0,0:0:0:0:
216,160,265792,1,0,0:0:0:0:
220,160,265873,1,2,0:0:0:0:
220,160,265954,1,2,0:0:0:0:
256,192,266035,2,0,L,1,0.01
256,192,266116,2,0,L,1,0.01
268,176,266197,1,0,0:0:0:0:
268,176,266278,1,0,0:0:0:0:
264,172,266359,1,2,0:0:0:0:
264,172,266439,1,2,0:0:0:0:
256,192,266520,2,0,L,1,0.01
256,192,266601,2,0,L,1,0.01
264,200,266682,1,2,0:0:0:0:
264,200,266763,1,2,0:0:0:0:
256,192,266844,2,0,L,1,0.01
256,192,266925,2,0,L,1,0.01
216,228,267006,1,0,0:0:0:0:
216,228,267087,1,0,0:0:0:0:
216,228,267168,1,2,0:0:0:0:
260,208,267248,1,2,0:0:0:0:
256,192,267329,2,0,L,1,0.01
256,192,267410,2,0,L,1,0.01
256,180,267491,1,0,0:0:0:0:
256,180,267572,1,0,0:0:0:0:
276,128,267653,1,2,0:0:0:0:
240,176,267734,1,2,0:0:0:0:
312,104,267815,1,0,0:0:0:0:
312,104,267896,1,0,0:0:0:0:
312,104,267977,1,2,0:0:0:0:
312,104,268057,1,2,0:0:0:0:
256,192,268138,2,0,L,1,0.01
256,192,268219,2,0,L,1,0.01
240,144,268300,1,0,0:0:0:0:
240,144,268381,1,0,0:0:0:0:
240,144,268462,1,2,0:0:0:0:
240,144,268543,1,2,0:0:0:0:
256,192,268624,2,0,L,1,0.01
256,192,268705,2,0,L,1,0.01
256,192,268786,2,0,L,1,0.01
256,192,268866,2,0,L,1,0.01
292,104,268947,1,2,0:0:0:0:
292,104,269028,1,2,0:0:0:0:
156,128,269109,1,0,0:0:0:0:
144,140,269190,1,0,0:0:0:0:
296,72,269271,1,2,0:0:0:0:
296,72,269352,1,2,0:0:0:0:
256,192,269433,2,0,L,1,0.01
256,192,269514,2,0,L,1,0.01
272,56,269594,1,0,0:0:0:0:
272,56,269675,1,0,0:0:0:0:
264,52,269756,1,2,0:0:0:0:
264,52,269837,1,2,0:0:0:0:
256,192,269918,2,0,L,1,0.01
256,192,269999,2,0,L,1,0.01
348,180,270080,1,0,0:0:0:0:
356,180,270161,1,0,0:0:0:0:
256,192,270242,2,0,L,1,0.01
256,192,270323,2,0,L,1,0.01
312,196,270403,1,0,0:0:0:0:
312,196,270484,1,0,0:0:0:0:
228,168,270565,1,2,0:0:0:0:
256,192,270646,2,0,L,1,0.01
180,200,270727,1,2,0:0:0:0:
180,200,270808,1,2,0:0:0:0:
148,224,270889,1,0,0:0:0:0:
256,192,270970,2,0,L,1,0.01
228,172,271051,1,0,0:0:0:0:
256,192,271132,2,0,L,1,0.01
328,168,271212,1,2,0:0:0:0:
320,172,271293,1,2,0:0:0:0:
240,148,271374,1,0,0:0:0:0:
256,192,271455,2,0,L,1,0.01
232,188,271536,1,0,0:0:0:0:
232,188,271617,1,0,0:0:0:0:
228,192,271698,1,2,0:0:0:0:
256,192,271779,2,0,L,1,0.01
260,104,271860,1,0,0:0:0:0:
256,192,271941,2,0,L,1,0.01
244,140,272021,1,2,0:0:0:0:
244,140,272102,1,2,0:0:0:0:
100,180,272183,1,0,0:0:0:0:
256,192,272264,2,0,L,1,0.01
132,196,272345,1,2,0:0:0:0:
256,192,272426,2,0,L,1,0.01
276,120,272507,1,0,0:0:0:0:
292,168,272588,1,0,0:0:0:0:
288,68,272669,1,2,0:0:0:0:
256,192,272750,2,0,L,1,0.01
280,88,272830,1,0,0:0:0:0:
256,192,272911,2,0,L,1,0.01
236,164,272992,1,2,0:0:0:0:
232,80,273073,1,2,0:0:0:0:
180,88,273154,1,0,0:0:0:0:
264,60,273235,1,0,0:0:0:0:
180,88,273316,1,2,0:0:0:0:
256,192,273397,2,0,L,1,0.01
264,140,273478,1,0,0:0:0:0:
256,192,273559,2,0,L,1,0.01
264,144,273639,1,2,0:0:0:0:
256,192,273720,2,0,L,1,0.01
284,120,273801,1,0,0:0:0:0:
284,120,273882,1,0,0:0:0:0:
284,120,273963,1,2,0:0:0:0:
256,192,274044,2,0,L,1,0.01
248,152,274125,1,0,0:0:0:0:
256,192,274206,2,0,L,1,0.01
248,152,274287,1,2,0:0:0:0:
248,152,274367,1,2,0:0:0:0:
204,180,274448,1,0,0:0:0:0:
256,192,274529,2,0,L,1,0.01
248,136,274610,1,2,0:0:0:0:
256,192,274691,2,0,L,1,0.01
284,92,274772,1,2,0:0:0:0:
284,92,274853,1,2,0:0:0:0:
168,124,274934,1,0,0:0:0:0:
256,192,275015,2,0,L,1,0.01
248,104,275096,1,2,0:0:0:0:
228,72,275176,1,0,0:0:0:0:
256,104,275257,1,2,0:0:0:0:
256,192,275338,2,0,L,1,0.01
300,128,275419,1,0,0:0:0:0:
148,176,275500,1,2,0:0:0:0:
240,160,275581,1,0,0:0:0:0:
256,192,275662,2,0,L,1,0.01
316,244,275743,1,2,0:0:0:0:
256,192,275824,2,0,L,1,0.01
272,140,275905,1,0,0:0:0:0:
320,164,275985,1,0,0:0:0:0:
316,168,276066,1,2,0:0:0:0:
256,192,276147,2,0,L,1,0.01
248,176,276228,1,0,0:0:0:0:
248,184,276309,1,2,0:0:0:0:
148,200,276390,1,2,0:0:0:0:
256,192,276471,2,0,L,1,0.01
232,140,276552,1,0,0:0:0:0:
256,192,276633,2,0,L,1,0.01
232,140,276714,1,2,0:0:0:0:
256,192,276794,2,0,L,1,0.01
248,120,276875,1,2,0:0:0:0:
248,124,276956,1,0,0:0:0:0:
184,160,277037,1,0,0:0:0:0:
256,192,277118,2,0,L,1,0.01
200,68,277199,1,2,0:0:0:0:
256,192,277280,2,0,L,1,0.01
228,88,277361,1,0,0:0:0:0:
136,128,277442,1,0,0:0:0:0:
136,128,277523,1,2,0:0:0:0:
240,44,277603,1,2,0:0:0:0:
220,136,277684,1,0,0:0:0:0:
232,96,277765,1,0,0:0:0:0:
216,148,277846,1,2,0:0:0:0:
224,116,277927,1,2,0:0:0:0:
224,116,278008,1,2,0:0:0:0:
256,192,278129,2,0,L,1,0.01
348,184,278170,1,0,0:0:0:0:
256,192,278372,2,0,L,1,0.01
348,184,278413,1,2,0:0:0:0:
256,192,278615,2,0,L,1,0.01
348,184,278656,1,2,0:0:0:0:
256,192,278776,2,0,L,1,0.01
312,168,278817,1,0,0:0:0:0:
256,192,278938,2,0,L,1,0.01
312,168,278979,1,2,0:0:0:0:
256,192,279100,2,0,L,1,0.01
212,148,279141,1,0,0:0:0:0:
256,192,279262,2,0,L,1,0.01
212,148,279303,1,0,0:0:0:0:
256,192,279424,2,0,L,1,0.01
212,148,279465,1,2,0:0:0:0:
256,192,279585,2,0,L,1,0.01
212,148,279626,1,0,0:0:0:0:
256,192,279747,2,0,L,1,0.01
212,148,279788,1,2,0:0:0:0:
256,192,279909,2,0,L,1,0.01
212,148,279950,1,2,0:0:0:0:
256,192,280071,2,0,L,1,0.01
212,148,280112,1,0,0:0:0:0:
200,156,280758,1,4,0:0:0:0:
