osu file format v14

[General]
AudioFilename: audio.mp3
AudioLeadIn: 0
PreviewTime: 84289
Countdown: 0
SampleSet: Soft
StackLeniency: 0.7
Mode: 2
LetterboxInBreaks: 0
WidescreenStoryboard: 1

[Editor]
Bookmarks: 15517,26745,37973,49201,60429,73061,95517
DistanceSpacing: 0.1
BeatDivisor: 4
GridSize: 4
TimelineZoom: 1.5

[Metadata]
Title:China Express
TitleUnicode:中華急行
Artist:Ryu*
ArtistUnicode:Ryu☆
Creator:Sorcerer
Version:Salad
Source:REFLEC BEAT limelight
Tags:Chuuka Kyuukou konami bemani game electronic hardcore original soundtrack jbh hyperion jbhyperion
BeatmapID:1543179
BeatmapSetID:731247

[Difficulty]
HPDrainRate:4
CircleSize:2.9
OverallDifficulty:6.8
ApproachRate:6.8
SliderMultiplier:1.4
SliderTickRate:2

[Events]
//Background and Video events
0,0,"chinaexpressbg.jpg",0,0
//Break Periods
2,60629,65114
//Storyboard Layer 0 (Background)
//Storyboard Layer 1 (Fail)
//Storyboard Layer 2 (Pass)
//Storyboard Layer 3 (Foreground)
//Storyboard Layer 4 (Overlay)
//Storyboard Sound Samples

[TimingPoints]
1482,350.877192982456,4,2,0,5,1,0
1657,-100,4,2,0,10,0,0
1832,-100,4,2,0,15,0,0
2008,-100,4,2,0,20,0,0
2183,-100,4,2,0,25,0,0
2359,-100,4,2,0,30,0,0
2534,-100,4,2,0,35,0,0
2885,-100,4,2,1,50,0,0
2973,-100,4,2,1,70,0,0
8499,-100,4,2,1,50,0,0
8587,-100,4,2,1,60,0,0
14113,-100,4,2,5,60,0,0
15517,-100,4,2,2,75,0,0
15604,-100,4,2,2,60,0,0
21131,-100,4,2,2,75,0,0
21218,-100,4,2,2,60,0,0
26218,-100,4,2,3,60,0,0
26745,-100,4,2,2,75,0,0
26832,-100,4,2,2,60,0,0
32359,-100,4,2,2,75,0,0
32446,-100,4,2,2,60,0,0
37271,-100,4,2,5,60,0,0
37622,-100,4,2,1,60,0,0
37973,-100,4,2,1,75,0,0
38060,-100,4,2,5,60,0,0
43060,-100,4,2,1,75,0,0
43236,-100,4,2,2,60,0,0
43587,-100,4,2,1,75,0,0
43674,-100,4,2,2,60,0,0
45341,-100,4,2,2,60,0,0
47973,-100,4,2,1,75,0,0
48148,-100,4,2,1,70,0,0
48499,-100,4,2,1,80,0,0
48850,-100,4,2,1,60,0,0
49201,-100,4,2,2,75,0,0
49376,-100,4,2,2,60,0,0
49552,-100,4,2,2,50,0,0
54464,-100,4,2,1,75,0,0
54639,-100,4,2,2,60,0,0
57622,-100,4,2,2,50,0,0
57797,-100,4,2,2,40,0,0
57973,-100,4,2,2,45,0,0
58148,-100,4,2,2,50,0,0
58324,-100,4,2,2,55,0,0
58499,-100,4,2,2,60,0,0
58674,-100,4,2,2,65,0,0
58850,-100,4,2,2,70,0,0
59201,-100,4,2,2,50,0,0
59376,-100,4,2,2,65,0,0
59552,-100,4,2,2,60,0,0
59727,-100,4,2,2,55,0,0
59903,-100,4,2,2,50,0,0
60078,-100,4,2,2,45,0,0
71657,-100,4,2,0,35,0,0
71832,-100,4,2,0,30,0,0
72008,-100,4,2,0,28,0,0
72183,-100,4,2,0,25,0,0
72359,-100,4,2,0,22,0,0
72534,-100,4,2,0,20,0,0
72710,-100,4,2,0,18,0,0
73060,-100,4,2,2,80,0,1
75166,-100,4,2,4,80,0,1
75692,-100,4,2,2,80,0,1
77271,-100,4,2,4,90,0,1
78324,-100,4,2,4,80,0,1
78674,-100,4,2,2,80,0,1
80780,-100,4,2,4,80,0,1
81306,-100,4,2,2,80,0,1
82885,-100,4,2,4,90,0,1
83762,-100,4,2,3,90,0,1
84201,-100,4,2,2,80,0,0
84289,-100,4,2,2,80,0,1
86394,-100,4,2,4,80,0,1
87008,-100,4,2,2,80,0,1
88499,-100,4,2,4,90,0,1
89376,-100,4,2,2,80,0,1
92008,-100,4,2,4,80,0,1
92622,-100,4,2,2,80,0,1
93411,-100,4,2,2,60,0,1
93587,-100,4,2,2,65,0,1
93762,-100,4,2,2,70,0,1
93938,-100,4,2,2,75,0,1
94113,-100,4,2,1,80,0,1
94289,-100,4,2,2,80,0,1
94815,-100,4,2,1,80,0,0
95517,-100,4,2,5,80,0,0
95868,-100,4,2,0,33,0,0
96043,-100,4,2,0,31,0,0
96219,-100,4,2,0,29,0,0
96394,-100,4,2,0,27,0,0
96570,-100,4,2,0,25,0,0
96745,-100,4,2,0,23,0,0
96921,-100,4,2,0,21,0,0
97096,-100,4,2,0,19,0,0
97271,-100,4,2,0,17,0,0
97447,-100,4,2,0,15,0,0
97622,-100,4,2,0,13,0,0
97798,-100,4,2,0,11,0,0
97973,-100,4,2,0,9,0,0
98149,-100,4,2,0,7,0,0
98324,-100,4,2,0,5,0,0

[Colours]
Combo1 : 255,216,60
Combo2 : 255,70,65
Combo3 : 119,119,180

[HitObjects]
256,192,1657,12,0,2534,0:0:0:0:
312,320,2885,6,0,L|400:184,3,140,4|0|0|0,0:0|0:0|0:0|0:0,0:0:0:0:
244,256,4289,6,0,P|160:208|140:168,1,140,2|0,0:0|0:0,0:0:0:0:
280,152,4990,2,0,P|364:104|384:64,1,140
200,320,5692,6,0,L|112:184,3,140,2|0|0|0,0:0|0:0|0:0|0:0,0:0:0:0:
408,312,7096,6,0,P|444:276|404:200,1,140,2|0,0:0|0:0,0:0:0:0:
264,204,7797,1,2,0:0:0:0:
40,52,8499,6,0,L|32:204,1,140,4|0,0:0|0:0,0:0:0:0:
180,224,9201,2,0,L|28:232,1,140
204,124,9903,6,0,L|356:132,3,140,2|0|0|0,0:0|0:0|0:0|0:0,0:0:0:0:
176,276,11306,6,0,P|192:208|280:176,1,140,2|0,0:0|0:0,0:0:0:0:
392,176,12008,2,0,P|450:141|465:74,1,140
168,264,12710,6,0,P|128:204|176:176,1,140,2|2,0:0|0:0,0:0:0:0:
332,192,13411,2,0,L|352:44,1,140,2|2,0:0|0:0,0:0:0:0:
48,52,14113,1,4,0:0:0:0:
192,272,15517,6,0,L|212:116,1,140,6|2,0:0|0:0,0:0:0:0:
136,132,16043,1,0,0:0:0:0:
48,128,16218,2,0,P|20:168|56:252,1,140,2|2,0:0|0:0,0:0:0:0:
128,248,16745,1,0,0:0:0:0:
312,240,16920,6,0,L|460:240,2,140,2|2|2,0:0|0:0|0:0,0:0:0:0:
160,216,17973,2,0,L|240:200,1,70,2|0,0:0|0:0,0:0:0:0:
412,196,18324,6,0,P|451:148|408:88,1,140,2|2,0:0|0:0,0:0:0:0:
248,104,19025,2,0,L|328:104,2,70,2|0|2,0:0|0:0|0:0,0:0:0:0:
432,104,19727,6,0,P|468:144|416:208,1,140,2|2,0:0|0:0,0:0:0:0:
352,208,20253,1,8,0:0:0:0:
168,208,20429,2,0,L|68:208,1,70,8|2,0:0|0:0,0:0:0:0:
184,168,20780,2,0,L|264:168,1,70,2|2,0:0|0:0,0:0:0:0:
444,168,21131,6,0,P|480:188|432:260,1,140,4|2,0:0|0:0,0:0:0:0:
368,256,21657,1,0,0:0:0:0:
284,260,21832,2,0,L|432:260,1,140,2|2,0:0|0:0,0:0:0:0:
352,208,22359,1,0,0:0:0:0:
160,208,22534,6,0,L|12:208,2,140,2|2|2,0:0|0:0|0:0,0:0:0:0:
332,200,23587,2,0,L|408:200,1,70,2|2,0:0|0:0,0:0:0:0:
208,200,23938,6,0,L|56:200,1,140,2|2,0:0|0:0,0:0:0:0:
132,156,24464,1,0,0:0:0:0:
160,112,24639,1,2,0:0:0:0:
132,72,24815,1,0,0:0:0:0:
68,48,24990,1,2,0:0:0:0:
380,120,25341,5,10,0:0:0:0:
424,168,25517,1,8,0:0:0:0:
380,216,25692,1,10,0:0:0:0:
312,228,25867,1,8,0:0:0:0:
120,220,26043,2,0,P|88:180|124:108,1,140,10|0,0:0|0:0,0:0:0:0:
408,84,26745,6,0,P|448:108|404:168,1,140,6|8,0:0|0:0,0:0:0:0:
336,168,27271,1,0,0:0:0:0:
264,168,27446,2,0,L|432:168,1,140,2|8,0:0|0:0,0:0:0:0:
324,136,27973,1,0,0:0:0:0:
140,152,28148,6,0,L|8:104,2,140,2|8|2,0:0|0:0|0:0,0:0:0:0:
296,184,29201,2,0,L|308:104,1,70,8|0,0:0|0:0,0:0:0:0:
120,112,29552,6,0,P|88:132|136:208,1,140,2|8,0:0|0:0,0:0:0:0:
284,216,30253,2,0,L|204:216,2,70,2|0|8,0:0|0:0|0:0,0:0:0:0:
112,112,30955,6,0,P|76:152|120:224,1,140,2|8,0:0|0:0,0:0:0:0:
196,216,31481,1,0,0:0:0:0:
380,216,31657,2,0,L|480:216,1,70,2|0,0:0|0:0,0:0:0:0:
364,176,32008,2,0,L|284:176,1,70,8|2,0:0|0:0,0:0:0:0:
100,100,32359,6,0,P|60:124|104:184,1,140,6|8,0:0|0:0,0:0:0:0:
172,184,32885,1,0,0:0:0:0:
244,184,33060,2,0,L|76:184,1,140,2|8,0:0|0:0,0:0:0:0:
184,152,33587,1,0,0:0:0:0:
368,168,33762,6,0,L|500:120,2,140,6|8|2,0:0|0:0|0:0,0:0:0:0:
188,196,34815,2,0,L|112:216,1,70,8|2,0:0|0:0,0:0:0:0:
304,200,35166,6,0,L|460:156,1,140,6|8,0:0|0:0,0:0:0:0:
384,152,35692,1,8,0:0:0:0:
324,104,35867,1,2,0:0:0:0:
384,68,36043,1,2,0:0:0:0:
444,56,36218,1,2,0:0:0:0:
384,28,36394,1,2,0:0:0:0:
200,68,36569,5,10,0:0:0:0:
156,116,36745,1,8,0:0:0:0:
200,164,36920,1,10,0:0:0:0:
268,176,37096,1,8,0:0:0:0:
460,168,37271,2,0,P|492:128|456:56,1,140,2|0,0:0|0:0,0:0:0:0:
160,56,37973,6,0,P|116:84|172:140,1,140,4|2,0:0|0:0,0:0:0:0:
232,144,38499,1,0,0:0:0:0:
304,140,38674,2,0,P|324:180|256:240,1,140,2|2,0:0|0:0,0:0:0:0:
112,232,39376,5,2,0:0:0:0:
256,208,39727,2,0,L|240:112,1,70
148,140,40078,2,0,L|72:96,2,70,2|0|2,0:0|0:0|0:0,0:0:0:0:
444,88,40780,6,0,P|488:116|432:172,1,140,2|2,0:0|0:0,0:0:0:0:
372,176,41306,1,0,0:0:0:0:
300,172,41481,2,0,L|452:172,1,140,2|2,0:0|0:0,0:0:0:0:
272,192,42183,5,2,0:0:0:0:
128,196,42534,2,0,L|112:112,1,70
188,96,42885,1,0,0:0:0:0:
112,56,43060,2,0,L|32:56,2,70,4|2|2,0:0|0:0|0:0,0:0:0:0:
312,56,43587,6,0,P|384:84|408:164,1,140,4|2,0:0|0:0,0:0:0:0:
336,144,44113,1,0,0:0:0:0:
268,144,44289,2,0,L|128:228,1,140,2|2,0:0|0:0,0:0:0:0:
336,244,44990,6,0,L|412:200,1,70,2|0,0:0|0:0,0:0:0:0:
336,212,45341,2,0,P|296:140|352:104,1,140,2|2,0:0|0:0,0:0:0:0:
389,142,45867,2,0,L|313:98,1,70,0|2,0:0|0:0,0:0:0:0:
48,72,46394,6,0,P|4:100|60:156,1,140,2|2,0:0|0:0,0:0:0:0:
120,160,46920,1,0,0:0:0:0:
192,156,47096,2,0,L|36:156,1,140,2|2,0:0|0:0,0:0:0:0:
320,200,47973,6,0,L|412:200,1,70,0|2,0:0|0:0,0:0:0:0:
320,156,48324,2,0,L|236:156,2,70,0|2|0,0:0|0:0|0:0,0:0:0:0:
412,156,48850,1,2,0:0:0:0:
128,168,49201,6,0,P|96:104|156:44,1,140,4|8,0:0|0:0,0:0:0:0:
196,40,49727,1,0,0:0:0:0:
280,44,49903,2,0,L|116:44,1,140,0|8,0:0|0:0,0:0:0:0:
324,100,50604,6,0,L|400:100,1,70,2|0,0:0|0:0,0:0:0:0:
216,104,50955,2,0,P|180:172|236:212,1,140,8|2,0:0|0:0,0:0:0:0:
296,208,51481,1,0,0:0:0:0:
376,212,51657,1,8,0:0:0:0:
96,212,52008,6,0,P|56:176|116:116,1,140,2|8,0:0|0:0,0:0:0:0:
168,112,52534,1,0,0:0:0:0:
256,112,52710,2,0,L|412:112,1,140,2|8,0:0|0:0,0:0:0:0:
228,136,53411,6,0,L|152:136,1,70,2|0,0:0|0:0,0:0:0:0:
336,140,53762,2,0,P|372:208|316:248,1,140,8|2,0:0|0:0,0:0:0:0:
256,244,54289,1,0,0:0:0:0:
334,245,54464,1,2,0:0:0:0:
56,252,54815,6,0,P|40:176|48:104,1,140,4|8,0:0|0:0,0:0:0:0:
120,88,55341,1,0,0:0:0:0:
204,84,55517,2,0,P|232:116|192:204,1,140,2|8,0:0|0:0,0:0:0:0:
384,208,56218,6,0,L|468:208,1,70,2|0,0:0|0:0,0:0:0:0:
276,208,56569,2,0,L|132:208,1,140,8|2,0:0|0:0,0:0:0:0:
56,176,57096,1,0,0:0:0:0:
136,208,57271,1,8,0:0:0:0:
416,184,57622,6,0,P|456:156|408:88,1,140,2|8,0:0|0:0,0:0:0:0:
340,84,58148,1,2,0:0:0:0:
248,84,58324,2,0,L|160:84,1,70,8|2,0:0|0:0,0:0:0:0:
256,132,58674,2,0,L|344:132,1,70,8|2,0:0|0:0,0:0:0:0:
56,100,59201,5,8,0:0:0:0:
52,140,59289,1,2,0:0:0:0:
48,180,59376,1,2,0:0:0:0:
116,244,59552,1,2,0:0:0:0:
184,264,59727,1,8,0:0:0:0:
252,280,59903,1,2,0:0:0:0:
188,212,60078,1,2,0:0:0:0:
464,208,60429,1,4,0:0:0:0:
276,280,66043,5,6,0:0:0:0:
64,220,66569,1,2,0:0:0:0:
76,156,66745,1,8,0:0:0:0:
276,216,67446,5,6,0:0:0:0:
488,156,67972,1,2,0:0:0:0:
476,92,68148,1,8,0:0:0:0:
344,40,68499,1,2,0:0:0:0:
68,44,68850,6,0,L|-8:84,2,70
208,96,69552,2,0,L|284:136,2,70
488,116,70253,6,0,L|496:200,1,70
416,216,70604,2,0,L|336:228,1,70
172,232,70955,2,0,P|128:200|184:144,1,140
260,136,71481,1,0,0:0:0:0:
448,136,71657,1,4,0:0:0:0:
380,216,73060,6,0,L|464:216,2,70,6|0|2,0:0|0:0|0:0,0:0:0:0:
220,220,73762,2,0,L|120:220,2,70,2|0|2,0:0|0:0|0:0,0:0:0:0:
408,208,74464,5,2,0:0:0:0:
476,168,74639,1,0,0:0:0:0:
476,88,74815,1,2,0:0:0:0:
408,52,74990,1,2,0:0:0:0:
232,56,75166,2,0,L|80:56,1,140,10|10,0:0|0:0,0:0:0:0:
280,64,75867,6,0,L|296:148,1,70,2|0,0:0|0:0,0:0:0:0:
212,164,76218,1,2,0:0:0:0:
32,164,76569,2,0,L|16:248,1,70,2|0,0:0|0:0,0:0:0:0:
100,264,76920,1,2,0:0:0:0:
380,272,77271,5,6,0:0:0:0:
204,240,77622,1,6,0:0:0:0:
380,216,77973,1,6,0:0:0:0:
204,176,78324,2,0,L|124:176,1,70,2|2,0:0|0:0,0:0:0:0:
328,156,78674,5,6,0:0:0:0:
348,88,78850,1,0,0:0:0:0:
328,156,79025,1,8,0:0:0:0:
160,152,79376,1,0,0:0:0:0:
140,84,79552,1,0,0:0:0:0:
160,152,79727,1,8,0:0:0:0:
348,152,80078,5,0,0:0:0:0:
400,212,80253,1,0,0:0:0:0:
360,272,80429,1,8,0:0:0:0:
280,296,80604,1,0,0:0:0:0:
88,308,80780,2,0,P|48:248|112:208,1,140,10|10,0:0|0:0,0:0:0:0:
368,232,81481,5,2,0:0:0:0:
420,184,81657,1,0,0:0:0:0:
368,232,81832,1,10,0:0:0:0:
300,236,82008,1,0,0:0:0:0:
128,240,82183,1,2,0:0:0:0:
60,192,82359,1,0,0:0:0:0:
60,128,82534,1,2,0:0:0:0:
128,92,82710,1,0,0:0:0:0:
308,84,82885,5,6,0:0:0:0:
128,132,83236,1,6,0:0:0:0:
308,136,83587,1,6,0:0:0:0:
168,164,83938,1,4,0:0:0:0:
448,168,84289,6,0,P|488:120|432:60,1,140,6|2,0:0|0:0,0:0:0:0:
372,64,84815,1,0,0:0:0:0:
192,60,84990,2,0,L|40:60,1,140,2|2,0:0|0:0,0:0:0:0:
332,104,85692,5,2,0:0:0:0:
402,104,85867,1,0,0:0:0:0:
402,104,86043,1,2,0:0:0:0:
332,104,86218,1,0,0:0:0:0:
156,116,86394,2,0,P|120:156|152:232,1,140,10|10,0:0|0:0,0:0:0:0:
428,216,87096,6,0,L|504:216,2,70,2|0|2,0:0|0:0|0:0,0:0:0:0:
144,220,87797,2,0,L|68:220,2,70,2|0|2,0:0|0:0|0:0,0:0:0:0:
424,200,88499,5,6,0:0:0:0:
240,200,88850,1,6,0:0:0:0:
424,256,89201,1,6,0:0:0:0:
236,260,89552,2,0,L|164:260,1,70,2|2,0:0|0:0,0:0:0:0:
348,208,89903,5,6,0:0:0:0:
400,160,90078,1,2,0:0:0:0:
332,120,90253,1,8,0:0:0:0:
52,208,90604,1,2,0:0:0:0:
29,141,90780,1,2,0:0:0:0:
100,112,90955,1,8,0:0:0:0:
376,96,91306,5,2,0:0:0:0:
446,96,91481,1,2,0:0:0:0:
446,96,91657,1,8,0:0:0:0:
376,96,91832,1,2,0:0:0:0:
196,112,92008,2,0,L|44:112,1,140,10|10,0:0|0:0,0:0:0:0:
336,208,92710,5,2,0:0:0:0:
406,208,92885,1,2,0:0:0:0:
406,208,93060,1,2,0:0:0:0:
336,208,93236,1,2,0:0:0:0:
264,204,93411,2,0,L|196:172,1,70,2|2,0:0|0:0,0:0:0:0:
288,156,93762,2,0,L|356:124,1,70,2|2,0:0|0:0,0:0:0:0:
176,108,94113,5,4,0:0:0:0:
106,108,94289,1,2,0:0:0:0:
106,108,94464,1,8,0:0:0:0:
176,108,94639,1,2,0:0:0:0:
360,100,94815,2,0,L|516:140,1,140,4|2,0:0|0:0,0:0:0:0:
208,184,95517,5,4,0:0:0:0:
256,192,95867,12,0,98324,0:0:0:0:
