osu file format v14

[General]
AudioFilename: audio.mp3
AudioLeadIn: 0
PreviewTime: 84289
Countdown: 0
SampleSet: Soft
StackLeniency: 0.7
Mode: 2
LetterboxInBreaks: 0
WidescreenStoryboard: 1

[Editor]
Bookmarks: 4289,15517,26745,37973,49201,60429,73061,95517
DistanceSpacing: 0.1
BeatDivisor: 4
GridSize: 4
TimelineZoom: 1.5

[Metadata]
Title:China Express
TitleUnicode:中華急行
Artist:Ryu*
ArtistUnicode:Ryu☆
Creator:Sorcerer
Version:Cup
Source:REFLEC BEAT limelight
Tags:Chuuka Kyuukou konami bemani game electronic hardcore original soundtrack jbh hyperion jbhyperion
BeatmapID:1543175
BeatmapSetID:731247

[Difficulty]
HPDrainRate:3
CircleSize:2.6
OverallDifficulty:5.6
ApproachRate:5.6
SliderMultiplier:1.3
SliderTickRate:1

[Events]
//Background and Video events
0,0,"chinaexpressbg.jpg",0,0
//Break Periods
2,60629,64933
//Storyboard Layer 0 (Background)
//Storyboard Layer 1 (Fail)
//Storyboard Layer 2 (Pass)
//Storyboard Layer 3 (Foreground)
//Storyboard Layer 4 (Overlay)
//Storyboard Sound Samples

[TimingPoints]
1482,350.877192982456,4,2,0,5,1,0
1657,-100,4,2,0,10,0,0
1832,-100,4,2,0,15,0,0
2008,-100,4,2,0,20,0,0
2183,-100,4,2,0,25,0,0
2359,-100,4,2,0,30,0,0
2534,-100,4,2,0,35,0,0
2885,-100,4,2,1,50,0,0
2973,-100,4,2,1,70,0,0
8499,-100,4,2,1,50,0,0
8587,-100,4,2,1,60,0,0
14113,-100,4,2,5,60,0,0
15517,-100,4,2,2,75,0,0
15604,-100,4,2,2,60,0,0
21131,-100,4,2,2,75,0,0
21218,-100,4,2,2,60,0,0
26218,-100,4,2,3,60,0,0
26745,-100,4,2,2,75,0,0
26832,-100,4,2,2,60,0,0
32359,-100,4,2,2,75,0,0
32446,-100,4,2,2,60,0,0
37271,-100,4,2,5,60,0,0
37622,-100,4,2,1,60,0,0
37973,-100,4,2,1,75,0,0
38060,-100,4,2,5,60,0,0
43236,-100,4,2,2,60,0,0
43587,-100,4,2,1,75,0,0
43674,-100,4,2,2,60,0,0
45341,-100,4,2,2,60,0,0
47973,-100,4,2,1,75,0,0
48148,-100,4,2,1,70,0,0
48499,-100,4,2,1,80,0,0
48850,-100,4,2,1,60,0,0
49201,-100,4,2,2,75,0,0
49376,-100,4,2,2,60,0,0
49552,-100,4,2,2,50,0,0
54464,-100,4,2,1,75,0,0
54639,-100,4,2,2,60,0,0
57622,-100,4,2,2,50,0,0
57973,-100,4,2,2,45,0,0
58148,-100,4,2,2,50,0,0
58324,-100,4,2,2,55,0,0
58674,-100,4,2,2,65,0,0
59201,-100,4,2,2,50,0,0
59376,-100,4,2,2,65,0,0
59552,-100,4,2,2,60,0,0
59727,-100,4,2,2,55,0,0
59903,-100,4,2,2,50,0,0
60078,-100,4,2,2,45,0,0
71657,-100,4,2,0,35,0,0
71832,-100,4,2,0,30,0,0
72008,-100,4,2,0,28,0,0
72183,-100,4,2,0,25,0,0
72359,-100,4,2,0,22,0,0
72534,-100,4,2,0,20,0,0
72710,-100,4,2,0,18,0,0
73060,-100,4,2,2,80,0,1
75166,-100,4,2,4,80,0,1
75692,-100,4,2,2,80,0,1
77271,-100,4,2,4,90,0,1
78324,-100,4,2,4,80,0,1
78674,-100,4,2,2,80,0,1
80780,-100,4,2,4,80,0,1
81306,-100,4,2,2,80,0,1
82885,-100,4,2,4,90,0,1
83762,-100,4,2,3,90,0,1
84201,-100,4,2,2,80,0,0
84289,-100,4,2,2,80,0,1
86394,-100,4,2,4,80,0,1
87008,-100,4,2,2,80,0,1
88499,-100,4,2,4,90,0,1
89376,-100,4,2,2,80,0,1
92008,-100,4,2,4,80,0,1
92622,-100,4,2,2,80,0,1
93411,-100,4,2,2,60,0,1
93762,-100,4,2,2,70,0,1
94113,-100,4,2,1,80,0,1
94289,-100,4,2,2,80,0,1
94815,-100,4,2,1,80,0,0
95517,-100,4,2,5,80,0,0
95868,-100,4,2,0,33,0,0
96043,-100,4,2,0,31,0,0
96219,-100,4,2,0,29,0,0
96394,-100,4,2,0,27,0,0
96570,-100,4,2,0,25,0,0
96745,-100,4,2,0,23,0,0
96921,-100,4,2,0,21,0,0
97096,-100,4,2,0,19,0,0
97271,-100,4,2,0,17,0,0
97447,-100,4,2,0,15,0,0
97622,-100,4,2,0,13,0,0
97798,-100,4,2,0,11,0,0
97973,-100,4,2,0,9,0,0
98149,-100,4,2,0,7,0,0
98324,-100,4,2,0,5,0,0

[Colours]
Combo1 : 255,216,60
Combo2 : 255,70,65
Combo3 : 119,119,180

[HitObjects]
256,192,1657,12,0,2534,0:0:0:0:
312,288,2885,6,0,P|420:192|280:32,1,390,4|0,0:0|0:0,0:0:0:0:
160,288,4289,2,0,P|52:192|192:32,1,390,2|0,0:0|0:0,0:0:0:0:
308,36,5692,6,0,P|388:76|428:352,1,390,2|0,0:0|0:0,0:0:0:0:
276,36,7096,2,0,P|196:76|132:272,1,260,2|2,0:0|0:0,0:0:0:0:
372,320,8499,6,0,P|480:224|340:64,1,390,4|0,0:0|0:0,0:0:0:0:
224,36,9903,2,0,P|144:76|104:352,1,390,2|0,0:0|0:0,0:0:0:0:
240,344,11306,6,0,P|257:157|116:33,1,390,2|0,0:0|0:0,0:0:0:0:
272,40,12710,2,0,P|388:60|344:276,1,390,2|2,0:0|0:0,0:0:0:0:
172,276,14113,1,4,0:0:0:0:
124,280,15517,6,0,L|264:280,1,130,6|2,0:0|0:0,0:0:0:0:
124,172,16218,2,0,B|76:220|76:220|144:272,1,130,2|2,0:0|0:0,0:0:0:0:
280,264,16920,6,0,L|396:172,2,130,2|2|2,0:0|0:0|0:0,0:0:0:0:
156,216,17973,1,2,0:0:0:0:
308,216,18324,6,0,L|316:80,1,130,2|2,0:0|0:0,0:0:0:0:
172,112,19025,2,0,L|120:72,2,65,2|0|2,0:0|0:0|0:0,0:0:0:0:
328,176,19727,6,0,P|392:196|452:288,2,130,2|2|8,0:0|0:0|0:0,0:0:0:0:
380,152,20604,1,2,0:0:0:0:
432,136,20780,1,2,0:0:0:0:
276,136,21131,6,0,L|132:136,1,130,4|2,0:0|0:0,0:0:0:0:
276,112,21832,2,0,B|324:160|324:160|256:212,1,130,2|2,0:0|0:0,0:0:0:0:
120,192,22534,6,0,L|4:100,2,130,2|2|2,0:0|0:0|0:0,0:0:0:0:
272,192,23587,1,2,0:0:0:0:
324,184,23762,1,2,0:0:0:0:
376,180,23938,6,0,L|407:309,1,130,2|2,0:0|0:0,0:0:0:0:
264,296,24639,2,0,L|212:256,2,65,2|0|2,0:0|0:0|0:0,0:0:0:0:
420,296,25341,5,10,0:0:0:0:
462,247,25517,1,8,0:0:0:0:
475,184,25692,1,10,0:0:0:0:
457,123,25867,1,8,0:0:0:0:
408,80,26043,2,0,L|268:80,1,130,10|0,0:0|0:0,0:0:0:0:
112,88,26745,6,0,B|64:136|64:136|128:184,1,130,6|8,0:0|0:0,0:0:0:0:
256,168,27446,2,0,L|128:116,1,130,2|8,0:0|0:0,0:0:0:0:
292,112,28148,6,0,L|404:224,2,130,2|8|2,0:0|0:0|0:0,0:0:0:0:
152,304,29201,1,8,0:0:0:0:
312,300,29552,6,0,L|304:156,1,130,2|8,0:0|0:0,0:0:0:0:
160,204,30253,2,0,L|104:156,2,65,2|0|8,0:0|0:0|0:0,0:0:0:0:
316,200,30955,6,0,L|208:116,2,130,2|8|2,0:0|0:0|0:0,0:0:0:0:
376,208,31832,1,0,0:0:0:0:
436,204,32008,1,8,0:0:0:0:
264,224,32359,6,0,L|152:156,1,130,6|8,0:0|0:0,0:0:0:0:
300,168,33060,2,0,B|349:130|349:130|301:82,1,130,2|8,0:0|0:0,0:0:0:0:
128,104,33762,6,0,L|32:216,2,130,6|8|2,0:0|0:0|0:0,0:0:0:0:
272,296,34815,1,8,0:0:0:0:
432,304,35166,6,0,L|324:216,1,130,6|8,0:0|0:0,0:0:0:0:
274,194,35692,1,8,0:0:0:0:
251,135,35867,1,2,0:0:0:0:
273,76,36043,1,2,0:0:0:0:
330,48,36218,1,2,0:0:0:0:
156,48,36569,5,10,0:0:0:0:
124,72,36745,1,8,0:0:0:0:
156,96,36920,1,10,0:0:0:0:
124,128,37096,1,8,0:0:0:0:
172,152,37271,1,2,0:0:0:0:
328,148,37622,1,0,0:0:0:0:
172,312,37973,6,0,P|88:260|52:192,1,130,4|2,0:0|0:0,0:0:0:0:
56,196,38499,1,0,0:0:0:0:
71,140,38674,2,0,P|114:92|172:64,1,130,2|2,0:0|0:0,0:0:0:0:
328,140,39376,6,0,P|388:108|420:56,2,130,2|0|2,0:0|0:0|0:0,0:0:0:0:
192,164,40429,1,2,0:0:0:0:
40,308,40780,6,0,P|124:256|160:188,1,130,2|2,0:0|0:0,0:0:0:0:
156,192,41306,1,0,0:0:0:0:
141,136,41481,2,0,P|98:88|40:60,1,130,2|2,0:0|0:0,0:0:0:0:
187,57,42183,6,0,L|67:153,2,130,2|2|2,0:0|0:0|0:0,0:0:0:0:
343,57,43236,1,2,0:0:0:0:
188,80,43587,6,0,L|84:192,1,130,4|2,0:0|0:0,0:0:0:0:
84,208,44113,1,0,0:0:0:0:
100,244,44289,2,0,L|192:348,1,130,2|2,0:0|0:0,0:0:0:0:
332,136,44990,6,0,L|460:224,2,130,2|2|2,0:0|0:0|0:0,0:0:0:0:
200,140,46043,1,2,0:0:0:0:
360,76,46394,6,0,L|472:152,1,130,2|2,0:0|0:0,0:0:0:0:
492,184,46920,1,0,0:0:0:0:
468,232,47096,2,0,L|356:308,1,130,2|2,0:0|0:0,0:0:0:0:
156,256,47973,5,0,0:0:0:0:
212,232,48148,1,2,0:0:0:0:
240,180,48324,1,0,0:0:0:0:
240,136,48499,1,2,0:0:0:0:
212,88,48674,1,0,0:0:0:0:
156,68,48850,1,2,0:0:0:0:
312,192,49201,6,0,L|172:192,1,130,4|8,0:0|0:0,0:0:0:0:
132,156,49727,1,0,0:0:0:0:
180,132,49903,2,0,L|320:132,1,130,0|8,0:0|0:0,0:0:0:0:
452,64,50604,6,0,L|332:156,2,130,2|8|2,0:0|0:0|0:0,0:0:0:0:
296,60,51657,1,8,0:0:0:0:
140,64,52008,6,0,L|180:192,1,130,2|8,0:0|0:0,0:0:0:0:
236,208,52534,1,0,0:0:0:0:
292,240,52710,2,0,L|152:240,1,130,2|8,0:0|0:0,0:0:0:0:
320,200,53411,6,0,L|456:200,2,130,2|8|2,0:0|0:0|0:0,0:0:0:0:
260,200,54289,1,0,0:0:0:0:
200,200,54464,1,2,0:0:0:0:
368,204,54815,6,0,L|520:204,1,130,4|8,0:0|0:0,0:0:0:0:
436,160,55341,1,0,0:0:0:0:
368,148,55517,2,0,P|332:88|396:56,1,130,2|8,0:0|0:0,0:0:0:0:
212,76,56218,6,0,L|92:168,2,130,2|8|2,0:0|0:0|0:0,0:0:0:0:
356,72,57271,1,8,0:0:0:0:
196,72,57622,6,0,L|92:184,1,130,2|8,0:0|0:0,0:0:0:0:
172,144,58148,1,2,0:0:0:0:
236,144,58324,2,0,L|376:144,1,130,8|8,0:0|0:0,0:0:0:0:
176,192,59201,5,8,0:0:0:0:
129,147,59376,1,2,0:0:0:0:
176,192,59552,1,2,0:0:0:0:
240,192,59727,1,8,0:0:0:0:
288,147,59903,1,2,0:0:0:0:
240,192,60078,1,2,0:0:0:0:
76,188,60429,1,4,0:0:0:0:
256,280,66043,5,6,0:0:0:0:
60,220,66569,1,2,0:0:0:0:
56,156,66745,1,8,0:0:0:0:
256,216,67446,5,6,0:0:0:0:
452,156,67972,1,2,0:0:0:0:
456,92,68148,1,8,0:0:0:0:
324,40,68499,1,2,0:0:0:0:
148,44,68850,6,0,P|112:104|156:140,1,130,6|2,0:0|0:0,0:0:0:0:
292,144,69552,2,0,P|328:204|284:240,1,130,2|2,0:0|0:0,0:0:0:0:
124,296,70253,5,2,0:0:0:0:
88,256,70429,1,2,0:0:0:0:
88,204,70604,1,2,0:0:0:0:
124,172,70780,1,2,0:0:0:0:
188,168,70955,2,0,L|332:156,1,130,2|2,0:0|0:0,0:0:0:0:
140,112,71657,1,4,0:0:0:0:
264,236,73060,6,0,L|396:212,1,130,6|2,0:0|0:0,0:0:0:0:
248,192,73762,2,0,L|116:168,1,130,2|2,0:0|0:0,0:0:0:0:
276,176,74464,6,0,L|336:104,1,65,2|0,0:0|0:0,0:0:0:0:
276,176,74815,2,0,L|128:176,2,130,2|10|10,0:0|0:0|0:0,0:0:0:0:
128,268,75867,5,2,0:0:0:0:
92,232,76043,1,0,0:0:0:0:
128,200,76218,1,2,0:0:0:0:
284,208,76569,1,2,0:0:0:0:
320,172,76745,1,0,0:0:0:0:
284,140,76920,1,2,0:0:0:0:
128,120,77271,6,0,L|264:120,1,130,6|6,0:0|0:0,0:0:0:0:
412,132,77973,2,0,L|264:132,1,130,6|2,0:0|0:0,0:0:0:0:
104,228,78674,6,0,L|92:88,1,130,6|8,0:0|0:0,0:0:0:0:
240,180,79376,2,0,L|252:40,1,130,0|8,0:0|0:0,0:0:0:0:
96,80,80078,6,0,L|32:40,1,65,0|0,0:0|0:0,0:0:0:0:
96,80,80429,2,0,L|244:80,2,130,8|10|10,0:0|0:0|0:0,0:0:0:0:
256,56,81481,5,2,0:0:0:0:
308,91,81657,1,0,0:0:0:0:
330,152,81832,1,10,0:0:0:0:
312,213,82008,1,0,0:0:0:0:
256,56,82183,2,0,L|120:56,1,130,2|2,0:0|0:0,0:0:0:0:
284,120,82885,6,0,L|424:120,1,130,6|6,0:0|0:0,0:0:0:0:
252,124,83587,2,0,B|212:176|212:176|260:236,1,130,6|4,0:0|0:0,0:0:0:0:
412,240,84289,6,0,L|272:240,1,130,6|2,0:0|0:0,0:0:0:0:
240,208,84815,1,0,0:0:0:0:
282,240,84990,2,0,L|412:240,1,130,2|2,0:0|0:0,0:0:0:0:
256,180,85692,6,0,L|120:180,2,130,2|2|10,0:0|0:0|0:0,0:0:0:0:
100,168,86745,1,10,0:0:0:0:
260,172,87096,5,2,0:0:0:0:
244,136,87271,1,0,0:0:0:0:
216,108,87446,1,2,0:0:0:0:
64,124,87797,1,2,0:0:0:0:
80,88,87973,1,0,0:0:0:0:
108,60,88148,1,2,0:0:0:0:
264,64,88499,6,0,L|400:64,1,130,6|6,0:0|0:0,0:0:0:0:
240,112,89201,2,0,L|104:112,1,130,6|2,0:0|0:0,0:0:0:0:
268,168,89903,6,0,L|328:208,2,65,6|2|8,0:0|0:0|0:0,0:0:0:0:
120,176,90604,2,0,L|60:216,2,65,2|2|8,0:0|0:0|0:0,0:0:0:0:
276,176,91306,6,0,L|124:176,2,130,2|8|10,0:0|0:0|0:0,0:0:0:0:
424,192,92359,1,10,0:0:0:0:
264,200,92710,6,0,L|440:184,3,130,2|2|2|2,0:0|0:0|0:0|0:0,0:0:0:0:
216,236,94113,5,4,0:0:0:0:
158,208,94289,1,2,0:0:0:0:
135,149,94464,1,8,0:0:0:0:
158,90,94639,1,2,0:0:0:0:
216,62,94815,2,0,L|356:64,1,130,4|2,0:0|0:0,0:0:0:0:
168,176,95517,5,4,0:0:0:0:
256,192,95867,12,0,98324,0:0:0:0:
