osu file format v14

[General]
AudioFilename: 3y3s_bd_mix-GvkXNWlqLkM_fmt43-1943799486.mp3
AudioLeadIn: 0
PreviewTime: -1
Countdown: 0
SampleSet: Soft
StackLeniency: 0.7
Mode: 3
LetterboxInBreaks: 0
SpecialStyle: 0
WidescreenStoryboard: 0

[Editor]
DistanceSpacing: 1
BeatDivisor: 4
GridSize: 16
TimelineZoom: 2

[Metadata]
Title:3y3s
TitleUnicode:3y3s
Artist:Ryu
ArtistUnicode:青龍
Creator:Jepetski
Version:4y4s
Source:Beatmania IIDX 16 Empress
Tags:
BeatmapID:892885
BeatmapSetID:411515

[Difficulty]
HPDrainRate:8.5
CircleSize:4
OverallDifficulty:8
ApproachRate:5
SliderMultiplier:1.4
SliderTickRate:1

[Events]
//Background and Video events
0,0,"3y3s.jpg",0,0
//Break Periods
//Storyboard Layer 0 (Background)
//Storyboard Layer 1 (Fail)
//Storyboard Layer 2 (Pass)
//Storyboard Layer 3 (Foreground)
//Storyboard Sound Samples

[TimingPoints]
3070,314.13612565445,4,2,0,35,1,0
107363,-100,4,2,0,35,0,1
116159,-100,4,2,0,35,0,0
117415,-100,4,2,0,35,0,1
127467,-100,4,2,0,35,0,0
168933,-100,4,2,0,35,0,1
177729,-100,4,2,0,35,0,0
178986,-100,4,2,0,35,0,1
189038,-100,4,2,0,35,0,0

[HitObjects]
448,192,3060,5,0,0:0:0:0:
64,192,3060,1,0,0:0:0:0:
320,192,3060,1,0,0:0:0:0:
64,192,3227,1,0,0:0:0:0:
448,192,3227,1,0,0:0:0:0:
320,192,3384,1,0,0:0:0:0:
64,192,3384,1,0,0:0:0:0:
448,192,3541,1,0,0:0:0:0:
192,192,3541,1,0,0:0:0:0:
448,192,3855,1,0,0:0:0:0:
320,192,3855,1,0,0:0:0:0:
320,192,4012,1,0,0:0:0:0:
192,192,4012,1,0,0:0:0:0:
192,192,4169,1,0,0:0:0:0:
64,192,4169,1,0,0:0:0:0:
320,192,4326,128,0,4483:0:0:0:0:
448,192,4483,1,0,0:0:0:0:
192,192,4640,128,0,4797:0:0:0:0:
320,192,4797,1,0,0:0:0:0:
64,192,4954,128,0,5111:0:0:0:0:
192,192,5111,1,0,0:0:0:0:
448,192,5268,128,0,5426:0:0:0:0:
64,192,5426,1,0,0:0:0:0:
192,192,5583,1,0,0:0:0:0:
320,192,5583,1,0,0:0:0:0:
192,192,5740,1,0,0:0:0:0:
448,192,5740,1,0,0:0:0:0:
64,192,5897,1,0,0:0:0:0:
448,192,5897,1,0,0:0:0:0:
320,192,6054,1,0,0:0:0:0:
192,192,6054,1,0,0:0:0:0:
64,192,6211,1,0,0:0:0:0:
320,192,6368,1,0,0:0:0:0:
448,192,6368,1,0,0:0:0:0:
320,192,6525,1,0,0:0:0:0:
192,192,6525,1,0,0:0:0:0:
192,192,6682,1,0,0:0:0:0:
64,192,6682,1,0,0:0:0:0:
448,192,6839,128,0,6996:0:0:0:0:
320,192,6996,1,0,0:0:0:0:
192,192,7153,128,0,7310:0:0:0:0:
64,192,7310,1,0,0:0:0:0:
320,192,7467,128,0,7624:0:0:0:0:
192,192,7624,1,0,0:0:0:0:
64,192,7782,128,0,7939:0:0:0:0:
448,192,7939,128,0,8096:0:0:0:0:
320,192,7939,1,0,0:0:0:0:
192,192,8096,1,0,0:0:0:0:
64,192,8253,1,0,0:0:0:0:
320,192,8253,1,0,0:0:0:0:
192,192,8410,1,0,0:0:0:0:
448,192,8410,1,0,0:0:0:0:
64,192,8567,1,0,0:0:0:0:
448,192,8567,1,0,0:0:0:0:
320,192,8724,1,0,0:0:0:0:
192,192,8881,1,0,0:0:0:0:
64,192,8881,1,0,0:0:0:0:
192,192,9038,1,0,0:0:0:0:
320,192,9038,1,0,0:0:0:0:
320,192,9195,1,0,0:0:0:0:
448,192,9195,1,0,0:0:0:0:
64,192,9352,128,0,9509:0:0:0:0:
192,192,9509,1,0,0:0:0:0:
448,192,9666,128,0,9823:0:0:0:0:
320,192,9823,1,0,0:0:0:0:
192,192,9980,128,0,10138:0:0:0:0:
64,192,10138,1,0,0:0:0:0:
320,192,10295,1,0,0:0:0:0:
448,192,10295,1,0,0:0:0:0:
448,192,10452,1,0,0:0:0:0:
320,192,10452,1,0,0:0:0:0:
64,192,10609,1,0,0:0:0:0:
320,192,10766,1,0,0:0:0:0:
448,192,10923,1,0,0:0:0:0:
320,192,11080,1,0,0:0:0:0:
192,192,11080,1,0,0:0:0:0:
320,192,11237,1,0,0:0:0:0:
192,192,11237,1,0,0:0:0:0:
64,192,11394,1,0,0:0:0:0:
448,192,11551,1,0,0:0:0:0:
192,192,11708,1,0,0:0:0:0:
64,192,11708,1,0,0:0:0:0:
192,192,11865,1,0,0:0:0:0:
64,192,11865,1,0,0:0:0:0:
320,192,12022,1,0,0:0:0:0:
448,192,12179,1,0,0:0:0:0:
320,192,12337,1,0,0:0:0:0:
192,192,12494,1,0,0:0:0:0:
64,192,12494,1,0,0:0:0:0:
64,192,12651,1,0,0:0:0:0:
448,192,12651,1,0,0:0:0:0:
448,192,12808,1,0,0:0:0:0:
192,192,12808,1,0,0:0:0:0:
320,192,12965,1,0,0:0:0:0:
192,192,12965,1,0,0:0:0:0:
64,192,13122,1,0,0:0:0:0:
448,192,13122,128,0,15635:0:0:0:0:
192,192,13279,1,0,0:0:0:0:
320,192,13436,1,0,0:0:0:0:
64,192,13593,1,0,0:0:0:0:
192,192,13750,1,0,0:0:0:0:
64,192,13907,1,0,0:0:0:0:
320,192,14064,1,0,0:0:0:0:
192,192,14221,1,0,0:0:0:0:
64,192,14378,1,0,0:0:0:0:
320,192,14378,1,0,0:0:0:0:
64,192,14535,1,0,0:0:0:0:
192,192,14693,1,0,0:0:0:0:
320,192,14693,1,0,0:0:0:0:
192,192,14850,1,0,0:0:0:0:
64,192,15007,1,0,0:0:0:0:
320,192,15007,1,0,0:0:0:0:
64,192,15164,1,0,0:0:0:0:
192,192,15321,1,0,0:0:0:0:
320,192,15321,1,0,0:0:0:0:
320,192,15478,1,0,0:0:0:0:
192,192,15635,128,0,18148:0:0:0:0:
64,192,15635,1,0,0:0:0:0:
320,192,15792,1,0,0:0:0:0:
448,192,15949,1,0,0:0:0:0:
64,192,16106,1,0,0:0:0:0:
320,192,16263,1,0,0:0:0:0:
64,192,16420,1,0,0:0:0:0:
448,192,16577,1,0,0:0:0:0:
320,192,16734,1,0,0:0:0:0:
64,192,16891,1,0,0:0:0:0:
448,192,16891,1,0,0:0:0:0:
448,192,17049,1,0,0:0:0:0:
64,192,17206,1,0,0:0:0:0:
320,192,17206,1,0,0:0:0:0:
320,192,17363,1,0,0:0:0:0:
64,192,17520,1,0,0:0:0:0:
448,192,17520,1,0,0:0:0:0:
448,192,17677,1,0,0:0:0:0:
64,192,17834,1,0,0:0:0:0:
320,192,17834,1,0,0:0:0:0:
64,192,17991,1,0,0:0:0:0:
448,192,17991,1,0,0:0:0:0:
320,192,18148,128,0,20661:0:0:0:0:
448,192,18148,1,0,0:0:0:0:
64,192,18305,1,0,0:0:0:0:
192,192,18462,1,0,0:0:0:0:
64,192,18619,1,0,0:0:0:0:
448,192,18776,1,0,0:0:0:0:
192,192,18933,1,0,0:0:0:0:
64,192,19090,1,0,0:0:0:0:
192,192,19248,1,0,0:0:0:0:
64,192,19405,1,0,0:0:0:0:
448,192,19405,1,0,0:0:0:0:
448,192,19562,1,0,0:0:0:0:
192,192,19719,1,0,0:0:0:0:
64,192,19719,1,0,0:0:0:0:
64,192,19876,1,0,0:0:0:0:
192,192,20033,1,0,0:0:0:0:
448,192,20033,1,0,0:0:0:0:
448,192,20190,1,0,0:0:0:0:
192,192,20347,1,0,0:0:0:0:
64,192,20347,1,0,0:0:0:0:
192,192,20504,1,0,0:0:0:0:
448,192,20504,1,0,0:0:0:0:
64,192,20661,128,0,23174:0:0:0:0:
448,192,20661,1,0,0:0:0:0:
192,192,20818,1,0,0:0:0:0:
320,192,20975,1,0,0:0:0:0:
448,192,21132,1,0,0:0:0:0:
192,192,21132,1,0,0:0:0:0:
448,192,21289,1,0,0:0:0:0:
320,192,21289,1,0,0:0:0:0:
192,192,21446,1,0,0:0:0:0:
320,192,21604,1,0,0:0:0:0:
192,192,21761,1,0,0:0:0:0:
448,192,21761,1,0,0:0:0:0:
320,192,21918,1,0,0:0:0:0:
192,192,21918,1,0,0:0:0:0:
448,192,22075,1,0,0:0:0:0:
320,192,22232,1,0,0:0:0:0:
192,192,22389,1,0,0:0:0:0:
448,192,22546,1,0,0:0:0:0:
320,192,22546,1,0,0:0:0:0:
192,192,22703,1,0,0:0:0:0:
448,192,22703,1,0,0:0:0:0:
320,192,22860,1,0,0:0:0:0:
192,192,22860,1,0,0:0:0:0:
320,192,23017,1,0,0:0:0:0:
448,192,23017,1,0,0:0:0:0:
192,192,24431,1,0,0:0:0:0:
64,192,24431,1,0,0:0:0:0:
448,192,24431,1,0,0:0:0:0:
320,192,24509,1,0,0:0:0:0:
192,192,24588,1,0,0:0:0:0:
64,192,24666,1,0,0:0:0:0:
320,192,24745,1,0,0:0:0:0:
448,192,24745,1,0,0:0:0:0:
192,192,24823,1,0,0:0:0:0:
320,192,24902,1,0,0:0:0:0:
448,192,24980,1,0,0:0:0:0:
192,192,25059,1,0,0:0:0:0:
320,192,25059,1,0,0:0:0:0:
64,192,25138,1,0,0:0:0:0:
192,192,25216,1,0,0:0:0:0:
320,192,25295,1,0,0:0:0:0:
192,192,25373,1,0,0:0:0:0:
64,192,25373,1,0,0:0:0:0:
448,192,25452,1,0,0:0:0:0:
64,192,25530,1,0,0:0:0:0:
192,192,25609,1,0,0:0:0:0:
320,192,25687,1,0,0:0:0:0:
448,192,25687,1,0,0:0:0:0:
64,192,25766,1,0,0:0:0:0:
320,192,25844,1,0,0:0:0:0:
192,192,25923,1,0,0:0:0:0:
64,192,26001,1,0,0:0:0:0:
448,192,26001,1,0,0:0:0:0:
320,192,26080,1,0,0:0:0:0:
192,192,26159,1,0,0:0:0:0:
448,192,26237,1,0,0:0:0:0:
320,192,26316,1,0,0:0:0:0:
64,192,26316,1,0,0:0:0:0:
192,192,26394,1,0,0:0:0:0:
64,192,26473,1,0,0:0:0:0:
320,192,26551,1,0,0:0:0:0:
192,192,26630,1,0,0:0:0:0:
448,192,26630,1,0,0:0:0:0:
64,192,26708,1,0,0:0:0:0:
320,192,26787,1,0,0:0:0:0:
192,192,26865,1,0,0:0:0:0:
320,192,26944,1,0,0:0:0:0:
448,192,26944,1,0,0:0:0:0:
64,192,27022,1,0,0:0:0:0:
192,192,27101,1,0,0:0:0:0:
320,192,27179,1,0,0:0:0:0:
64,192,27258,1,0,0:0:0:0:
448,192,27258,1,0,0:0:0:0:
192,192,27337,1,0,0:0:0:0:
320,192,27415,1,0,0:0:0:0:
448,192,27494,1,0,0:0:0:0:
192,192,27572,1,0,0:0:0:0:
64,192,27572,1,0,0:0:0:0:
320,192,27651,1,0,0:0:0:0:
448,192,27729,1,0,0:0:0:0:
64,192,27808,1,0,0:0:0:0:
192,192,27886,1,0,0:0:0:0:
320,192,27886,1,0,0:0:0:0:
448,192,27965,1,0,0:0:0:0:
320,192,28043,1,0,0:0:0:0:
192,192,28122,1,0,0:0:0:0:
64,192,28200,1,0,0:0:0:0:
448,192,28200,1,0,0:0:0:0:
320,192,28279,1,0,0:0:0:0:
192,192,28357,1,0,0:0:0:0:
320,192,28436,1,0,0:0:0:0:
64,192,28515,1,0,0:0:0:0:
448,192,28515,1,0,0:0:0:0:
192,192,28593,1,0,0:0:0:0:
64,192,28672,1,0,0:0:0:0:
448,192,28750,1,0,0:0:0:0:
320,192,28829,1,0,0:0:0:0:
192,192,28829,1,0,0:0:0:0:
64,192,28907,1,0,0:0:0:0:
448,192,28986,1,0,0:0:0:0:
320,192,29064,1,0,0:0:0:0:
192,192,29143,1,0,0:0:0:0:
64,192,29143,1,0,0:0:0:0:
320,192,29221,1,0,0:0:0:0:
448,192,29300,1,0,0:0:0:0:
64,192,29378,1,0,0:0:0:0:
192,192,29457,1,0,0:0:0:0:
320,192,29457,1,0,0:0:0:0:
448,192,29535,1,0,0:0:0:0:
192,192,29614,1,0,0:0:0:0:
64,192,29614,1,0,0:0:0:0:
320,192,29693,1,0,0:0:0:0:
64,192,29771,1,0,0:0:0:0:
448,192,29771,1,0,0:0:0:0:
192,192,29850,1,0,0:0:0:0:
320,192,29928,1,0,0:0:0:0:
448,192,29928,1,0,0:0:0:0:
64,192,30007,1,0,0:0:0:0:
192,192,30085,1,0,0:0:0:0:
448,192,30085,1,0,0:0:0:0:
320,192,30164,1,0,0:0:0:0:
64,192,30242,1,0,0:0:0:0:
192,192,30242,1,0,0:0:0:0:
448,192,30321,1,0,0:0:0:0:
192,192,30399,1,0,0:0:0:0:
64,192,30399,1,0,0:0:0:0:
320,192,30478,1,0,0:0:0:0:
64,192,30556,1,0,0:0:0:0:
448,192,30556,1,0,0:0:0:0:
192,192,30635,1,0,0:0:0:0:
320,192,30713,1,0,0:0:0:0:
64,192,30713,1,0,0:0:0:0:
448,192,30792,1,0,0:0:0:0:
192,192,30871,1,0,0:0:0:0:
320,192,30871,1,0,0:0:0:0:
64,192,30949,1,0,0:0:0:0:
192,192,31028,1,0,0:0:0:0:
448,192,31028,1,0,0:0:0:0:
320,192,31106,1,0,0:0:0:0:
64,192,31185,1,0,0:0:0:0:
448,192,31185,1,0,0:0:0:0:
192,192,31263,1,0,0:0:0:0:
320,192,31342,1,0,0:0:0:0:
448,192,31342,1,0,0:0:0:0:
64,192,31420,1,0,0:0:0:0:
320,192,31499,1,0,0:0:0:0:
192,192,31499,1,0,0:0:0:0:
448,192,31577,1,0,0:0:0:0:
192,192,31656,1,0,0:0:0:0:
64,192,31656,1,0,0:0:0:0:
448,192,31734,1,0,0:0:0:0:
320,192,31813,1,0,0:0:0:0:
192,192,31813,1,0,0:0:0:0:
64,192,31891,1,0,0:0:0:0:
320,192,31970,1,0,0:0:0:0:
448,192,31970,1,0,0:0:0:0:
192,192,32049,1,0,0:0:0:0:
64,192,32127,1,0,0:0:0:0:
448,192,32127,1,0,0:0:0:0:
192,192,32206,1,0,0:0:0:0:
320,192,32284,1,0,0:0:0:0:
64,192,32284,1,0,0:0:0:0:
192,192,32363,1,0,0:0:0:0:
320,192,32441,1,0,0:0:0:0:
448,192,32441,1,0,0:0:0:0:
64,192,32520,1,0,0:0:0:0:
448,192,32598,1,0,0:0:0:0:
192,192,32598,1,0,0:0:0:0:
320,192,32677,1,0,0:0:0:0:
64,192,32755,1,0,0:0:0:0:
192,192,32755,1,0,0:0:0:0:
448,192,32834,1,0,0:0:0:0:
320,192,32912,1,0,0:0:0:0:
64,192,32912,1,0,0:0:0:0:
192,192,32991,1,0,0:0:0:0:
64,192,33069,1,0,0:0:0:0:
448,192,33069,1,0,0:0:0:0:
320,192,33148,1,0,0:0:0:0:
192,192,33227,1,0,0:0:0:0:
64,192,33227,1,0,0:0:0:0:
448,192,33227,1,0,0:0:0:0:
320,192,33305,1,0,0:0:0:0:
192,192,33384,1,0,0:0:0:0:
64,192,33462,1,0,0:0:0:0:
320,192,33541,1,0,0:0:0:0:
448,192,33541,1,0,0:0:0:0:
64,192,33619,1,0,0:0:0:0:
192,192,33698,1,0,0:0:0:0:
64,192,33776,1,0,0:0:0:0:
320,192,33855,1,0,0:0:0:0:
448,192,33855,1,0,0:0:0:0:
192,192,33933,1,0,0:0:0:0:
64,192,34012,1,0,0:0:0:0:
192,192,34090,1,0,0:0:0:0:
320,192,34169,1,0,0:0:0:0:
448,192,34169,1,0,0:0:0:0:
64,192,34248,1,0,0:0:0:0:
192,192,34326,1,0,0:0:0:0:
320,192,34405,1,0,0:0:0:0:
192,192,34483,1,0,0:0:0:0:
64,192,34483,1,0,0:0:0:0:
448,192,34483,1,0,0:0:0:0:
320,192,34562,1,0,0:0:0:0:
64,192,34640,1,0,0:0:0:0:
448,192,34640,1,0,0:0:0:0:
192,192,34719,1,0,0:0:0:0:
320,192,34797,1,0,0:0:0:0:
448,192,34797,1,0,0:0:0:0:
192,192,34876,1,0,0:0:0:0:
320,192,34954,1,0,0:0:0:0:
64,192,34954,1,0,0:0:0:0:
448,192,35033,1,0,0:0:0:0:
192,192,35111,1,0,0:0:0:0:
64,192,35111,1,0,0:0:0:0:
448,192,35190,1,0,0:0:0:0:
320,192,35268,1,0,0:0:0:0:
64,192,35268,1,0,0:0:0:0:
192,192,35347,1,0,0:0:0:0:
64,192,35426,1,0,0:0:0:0:
448,192,35426,1,0,0:0:0:0:
320,192,35504,1,0,0:0:0:0:
192,192,35583,1,0,0:0:0:0:
64,192,35583,1,0,0:0:0:0:
320,192,35661,1,0,0:0:0:0:
64,192,35740,1,0,0:0:0:0:
448,192,35740,1,0,0:0:0:0:
192,192,35818,1,0,0:0:0:0:
320,192,35897,1,0,0:0:0:0:
448,192,35897,1,0,0:0:0:0:
64,192,35975,1,0,0:0:0:0:
192,192,36054,1,0,0:0:0:0:
320,192,36054,1,0,0:0:0:0:
448,192,36132,1,0,0:0:0:0:
192,192,36211,1,0,0:0:0:0:
64,192,36211,1,0,0:0:0:0:
320,192,36289,1,0,0:0:0:0:
192,192,36368,1,0,0:0:0:0:
448,192,36368,1,0,0:0:0:0:
64,192,36446,1,0,0:0:0:0:
320,192,36525,1,0,0:0:0:0:
448,192,36525,1,0,0:0:0:0:
192,192,36604,1,0,0:0:0:0:
64,192,36682,1,0,0:0:0:0:
320,192,36682,1,0,0:0:0:0:
192,192,36761,1,0,0:0:0:0:
64,192,36839,1,0,0:0:0:0:
448,192,36839,1,0,0:0:0:0:
320,192,36918,1,0,0:0:0:0:
192,192,36996,1,0,0:0:0:0:
448,192,36996,1,0,0:0:0:0:
320,192,37075,1,0,0:0:0:0:
192,192,37153,1,0,0:0:0:0:
64,192,37153,1,0,0:0:0:0:
448,192,37232,1,0,0:0:0:0:
320,192,37310,1,0,0:0:0:0:
192,192,37310,1,0,0:0:0:0:
64,192,37389,1,0,0:0:0:0:
320,192,37467,1,0,0:0:0:0:
448,192,37467,1,0,0:0:0:0:
64,192,37546,1,0,0:0:0:0:
192,192,37624,1,0,0:0:0:0:
320,192,37624,1,0,0:0:0:0:
448,192,37703,1,0,0:0:0:0:
320,192,37782,1,0,0:0:0:0:
64,192,37782,1,0,0:0:0:0:
192,192,37860,1,0,0:0:0:0:
320,192,37939,1,0,0:0:0:0:
448,192,37939,1,0,0:0:0:0:
64,192,38017,1,0,0:0:0:0:
192,192,38096,1,0,0:0:0:0:
448,192,38096,1,0,0:0:0:0:
320,192,38174,1,0,0:0:0:0:
64,192,38253,1,0,0:0:0:0:
448,192,38253,1,0,0:0:0:0:
320,192,38331,1,0,0:0:0:0:
192,192,38410,1,0,0:0:0:0:
64,192,38410,1,0,0:0:0:0:
448,192,38488,1,0,0:0:0:0:
320,192,38567,1,0,0:0:0:0:
192,192,38567,1,0,0:0:0:0:
64,192,38645,1,0,0:0:0:0:
320,192,38724,1,0,0:0:0:0:
448,192,38724,1,0,0:0:0:0:
192,192,38802,1,0,0:0:0:0:
64,192,38881,1,0,0:0:0:0:
448,192,38881,1,0,0:0:0:0:
320,192,38960,1,0,0:0:0:0:
192,192,39038,1,0,0:0:0:0:
448,192,39038,1,0,0:0:0:0:
64,192,39117,1,0,0:0:0:0:
192,192,39195,1,0,0:0:0:0:
448,192,39195,1,0,0:0:0:0:
320,192,39274,1,0,0:0:0:0:
192,192,39352,1,0,0:0:0:0:
64,192,39352,1,0,0:0:0:0:
320,192,39431,1,0,0:0:0:0:
64,192,39509,1,0,0:0:0:0:
448,192,39509,1,0,0:0:0:0:
192,192,39588,1,0,0:0:0:0:
320,192,39666,1,0,0:0:0:0:
448,192,39666,1,0,0:0:0:0:
192,192,39745,1,0,0:0:0:0:
64,192,39823,1,0,0:0:0:0:
320,192,39823,1,0,0:0:0:0:
448,192,39902,1,0,0:0:0:0:
192,192,39980,1,0,0:0:0:0:
64,192,39980,1,0,0:0:0:0:
320,192,40059,1,0,0:0:0:0:
64,192,40138,1,0,0:0:0:0:
448,192,40138,1,0,0:0:0:0:
320,192,40216,1,0,0:0:0:0:
448,192,40295,1,0,0:0:0:0:
64,192,40295,1,0,0:0:0:0:
192,192,40373,1,0,0:0:0:0:
320,192,40452,1,0,0:0:0:0:
448,192,40452,1,0,0:0:0:0:
192,192,40530,1,0,0:0:0:0:
64,192,40609,1,0,0:0:0:0:
448,192,40609,1,0,0:0:0:0:
320,192,40687,1,0,0:0:0:0:
192,192,40766,1,0,0:0:0:0:
64,192,40766,1,0,0:0:0:0:
448,192,40766,1,0,0:0:0:0:
320,192,40844,1,0,0:0:0:0:
192,192,40923,1,0,0:0:0:0:
64,192,40923,1,0,0:0:0:0:
448,192,41001,1,0,0:0:0:0:
320,192,41080,1,0,0:0:0:0:
192,192,41080,1,0,0:0:0:0:
64,192,41159,1,0,0:0:0:0:
320,192,41237,1,0,0:0:0:0:
448,192,41237,1,0,0:0:0:0:
64,192,41316,1,0,0:0:0:0:
192,192,41394,1,0,0:0:0:0:
320,192,41394,1,0,0:0:0:0:
448,192,41473,1,0,0:0:0:0:
320,192,41551,1,0,0:0:0:0:
64,192,41551,1,0,0:0:0:0:
192,192,41630,1,0,0:0:0:0:
64,192,41708,1,0,0:0:0:0:
448,192,41708,1,0,0:0:0:0:
192,192,41787,1,0,0:0:0:0:
320,192,41865,1,0,0:0:0:0:
448,192,41865,1,0,0:0:0:0:
64,192,41944,1,0,0:0:0:0:
448,192,42022,1,0,0:0:0:0:
320,192,42022,1,0,0:0:0:0:
192,192,42022,1,0,0:0:0:0:
64,192,42101,1,0,0:0:0:0:
192,192,42179,1,0,0:0:0:0:
320,192,42179,1,0,0:0:0:0:
448,192,42258,1,0,0:0:0:0:
64,192,42337,1,0,0:0:0:0:
192,192,42337,1,0,0:0:0:0:
448,192,42415,1,0,0:0:0:0:
320,192,42494,1,0,0:0:0:0:
64,192,42494,1,0,0:0:0:0:
192,192,42572,1,0,0:0:0:0:
64,192,42651,1,0,0:0:0:0:
320,192,42651,1,0,0:0:0:0:
448,192,42651,1,0,0:0:0:0:
192,192,42729,1,0,0:0:0:0:
64,192,42808,1,0,0:0:0:0:
448,192,42808,1,0,0:0:0:0:
320,192,42886,1,0,0:0:0:0:
448,192,42965,1,0,0:0:0:0:
192,192,42965,1,0,0:0:0:0:
64,192,42965,1,0,0:0:0:0:
320,192,43043,1,0,0:0:0:0:
448,192,43122,1,0,0:0:0:0:
64,192,43122,1,0,0:0:0:0:
192,192,43200,1,0,0:0:0:0:
64,192,43279,1,0,0:0:0:0:
448,192,43279,1,0,0:0:0:0:
320,192,43279,1,0,0:0:0:0:
192,192,43357,1,0,0:0:0:0:
320,192,43436,1,0,0:0:0:0:
448,192,43515,1,0,0:0:0:0:
192,192,43593,1,0,0:0:0:0:
64,192,43593,1,0,0:0:0:0:
320,192,43672,1,0,0:0:0:0:
448,192,43750,1,0,0:0:0:0:
320,192,43829,1,0,0:0:0:0:
192,192,43907,1,0,0:0:0:0:
64,192,43907,1,0,0:0:0:0:
448,192,43986,1,0,0:0:0:0:
320,192,44064,1,0,0:0:0:0:
448,192,44143,1,0,0:0:0:0:
64,192,44221,1,0,0:0:0:0:
192,192,44221,1,0,0:0:0:0:
320,192,44300,1,0,0:0:0:0:
64,192,44378,1,0,0:0:0:0:
192,192,44457,1,0,0:0:0:0:
64,192,44535,1,0,0:0:0:0:
448,192,44535,1,0,0:0:0:0:
320,192,44693,1,0,0:0:0:0:
192,192,44771,1,0,0:0:0:0:
448,192,45007,1,0,0:0:0:0:
320,192,45085,1,0,0:0:0:0:
64,192,45321,1,0,0:0:0:0:
192,192,45399,1,0,0:0:0:0:
320,192,45478,1,0,0:0:0:0:
448,192,45478,1,0,0:0:0:0:
64,192,45556,1,0,0:0:0:0:
320,192,45635,1,0,0:0:0:0:
448,192,45635,1,0,0:0:0:0:
192,192,45713,1,0,0:0:0:0:
64,192,45792,1,0,0:0:0:0:
448,192,45871,1,0,0:0:0:0:
320,192,45949,1,0,0:0:0:0:
64,192,46028,1,0,0:0:0:0:
192,192,46106,1,0,0:0:0:0:
448,192,46185,1,0,0:0:0:0:
192,192,46263,1,0,0:0:0:0:
320,192,46342,1,0,0:0:0:0:
64,192,46420,1,0,0:0:0:0:
192,192,46499,1,0,0:0:0:0:
320,192,46577,1,0,0:0:0:0:
448,192,46656,1,0,0:0:0:0:
192,192,46734,1,0,0:0:0:0:
64,192,46734,1,0,0:0:0:0:
320,192,46813,1,0,0:0:0:0:
192,192,46891,1,0,0:0:0:0:
64,192,46891,1,0,0:0:0:0:
448,192,46970,1,0,0:0:0:0:
192,192,47049,1,0,0:0:0:0:
320,192,47049,1,0,0:0:0:0:
64,192,47049,1,0,0:0:0:0:
448,192,47127,1,0,0:0:0:0:
320,192,47206,1,0,0:0:0:0:
64,192,47284,1,0,0:0:0:0:
448,192,47363,1,0,0:0:0:0:
192,192,47441,1,0,0:0:0:0:
320,192,47520,1,0,0:0:0:0:
64,192,47598,1,0,0:0:0:0:
192,192,47677,1,0,0:0:0:0:
448,192,47755,1,0,0:0:0:0:
64,192,47834,1,0,0:0:0:0:
192,192,47912,1,0,0:0:0:0:
448,192,47991,1,0,0:0:0:0:
320,192,47991,1,0,0:0:0:0:
64,192,48069,1,0,0:0:0:0:
320,192,48148,1,0,0:0:0:0:
448,192,48148,1,0,0:0:0:0:
192,192,48227,1,0,0:0:0:0:
320,192,48305,1,0,0:0:0:0:
448,192,48384,1,0,0:0:0:0:
64,192,48462,1,0,0:0:0:0:
320,192,48541,1,0,0:0:0:0:
192,192,48619,1,0,0:0:0:0:
448,192,48698,1,0,0:0:0:0:
64,192,48776,1,0,0:0:0:0:
320,192,48855,1,0,0:0:0:0:
448,192,48933,1,0,0:0:0:0:
64,192,49012,1,0,0:0:0:0:
192,192,49090,1,0,0:0:0:0:
320,192,49169,1,0,0:0:0:0:
64,192,49248,1,0,0:0:0:0:
448,192,49248,1,0,0:0:0:0:
192,192,49326,1,0,0:0:0:0:
64,192,49405,1,0,0:0:0:0:
448,192,49405,1,0,0:0:0:0:
320,192,49483,1,0,0:0:0:0:
64,192,49562,1,0,0:0:0:0:
192,192,49562,1,0,0:0:0:0:
448,192,49562,1,0,0:0:0:0:
320,192,49640,1,0,0:0:0:0:
192,192,49719,1,0,0:0:0:0:
64,192,49797,1,0,0:0:0:0:
448,192,49876,1,0,0:0:0:0:
320,192,49876,1,0,0:0:0:0:
192,192,49954,1,0,0:0:0:0:
320,192,50033,1,0,0:0:0:0:
448,192,50111,1,0,0:0:0:0:
64,192,50190,1,0,0:0:0:0:
192,192,50268,1,0,0:0:0:0:
64,192,50347,1,0,0:0:0:0:
448,192,50426,1,0,0:0:0:0:
320,192,50504,1,0,0:0:0:0:
192,192,50504,1,0,0:0:0:0:
448,192,50583,1,0,0:0:0:0:
64,192,50661,1,0,0:0:0:0:
192,192,50740,1,0,0:0:0:0:
64,192,50818,1,0,0:0:0:0:
320,192,50818,1,0,0:0:0:0:
448,192,50818,1,0,0:0:0:0:
192,192,50897,1,0,0:0:0:0:
448,192,50975,1,0,0:0:0:0:
320,192,51054,1,0,0:0:0:0:
192,192,51132,1,0,0:0:0:0:
64,192,51132,1,0,0:0:0:0:
448,192,51211,1,0,0:0:0:0:
320,192,51289,1,0,0:0:0:0:
448,192,51368,1,0,0:0:0:0:
64,192,51446,1,0,0:0:0:0:
192,192,51525,1,0,0:0:0:0:
320,192,51604,1,0,0:0:0:0:
64,192,51682,1,0,0:0:0:0:
192,192,51761,1,0,0:0:0:0:
448,192,51761,1,0,0:0:0:0:
320,192,51839,1,0,0:0:0:0:
448,192,51918,1,0,0:0:0:0:
320,192,51996,1,0,0:0:0:0:
192,192,52075,1,0,0:0:0:0:
448,192,52075,1,0,0:0:0:0:
64,192,52075,1,0,0:0:0:0:
320,192,52153,1,0,0:0:0:0:
192,192,52232,1,0,0:0:0:0:
64,192,52310,1,0,0:0:0:0:
192,192,52389,1,0,0:0:0:0:
320,192,52389,1,0,0:0:0:0:
448,192,52389,1,0,0:0:0:0:
64,192,52467,1,0,0:0:0:0:
320,192,52546,1,0,0:0:0:0:
192,192,52624,1,0,0:0:0:0:
64,192,52703,1,0,0:0:0:0:
320,192,52703,1,0,0:0:0:0:
448,192,52703,1,0,0:0:0:0:
192,192,52782,1,0,0:0:0:0:
64,192,52860,1,0,0:0:0:0:
320,192,52939,1,0,0:0:0:0:
192,192,53017,1,0,0:0:0:0:
64,192,53017,1,0,0:0:0:0:
448,192,53017,1,0,0:0:0:0:
320,192,53096,1,0,0:0:0:0:
448,192,53174,1,0,0:0:0:0:
192,192,53253,1,0,0:0:0:0:
320,192,53331,1,0,0:0:0:0:
64,192,53331,1,0,0:0:0:0:
448,192,53331,1,0,0:0:0:0:
192,192,53488,128,0,53567:0:0:0:0:
64,192,53567,128,0,53645:0:0:0:0:
320,192,53645,1,0,0:0:0:0:
448,192,53645,1,0,0:0:0:0:
192,192,53802,128,0,53881:0:0:0:0:
320,192,53881,128,0,53960:0:0:0:0:
64,192,53960,1,0,0:0:0:0:
448,192,53960,1,0,0:0:0:0:
192,192,54117,1,0,0:0:0:0:
320,192,54274,1,0,0:0:0:0:
192,192,54352,1,0,0:0:0:0:
320,192,54431,1,0,0:0:0:0:
192,192,54509,1,0,0:0:0:0:
64,192,54588,1,0,0:0:0:0:
320,192,54588,1,0,0:0:0:0:
448,192,54588,1,0,0:0:0:0:
192,192,54666,1,0,0:0:0:0:
64,192,54745,1,0,0:0:0:0:
320,192,54823,1,0,0:0:0:0:
192,192,54902,1,0,0:0:0:0:
448,192,54902,1,0,0:0:0:0:
64,192,54980,1,0,0:0:0:0:
320,192,55059,1,0,0:0:0:0:
192,192,55138,1,0,0:0:0:0:
64,192,55216,1,0,0:0:0:0:
448,192,55216,1,0,0:0:0:0:
192,192,55295,1,0,0:0:0:0:
320,192,55373,1,0,0:0:0:0:
448,192,55373,1,0,0:0:0:0:
64,192,55452,1,0,0:0:0:0:
192,192,55530,1,0,0:0:0:0:
320,192,55530,1,0,0:0:0:0:
448,192,55609,1,0,0:0:0:0:
192,192,55687,1,0,0:0:0:0:
64,192,55687,1,0,0:0:0:0:
320,192,55766,1,0,0:0:0:0:
64,192,55844,1,0,0:0:0:0:
448,192,55844,1,0,0:0:0:0:
192,192,55923,1,0,0:0:0:0:
320,192,56001,1,0,0:0:0:0:
448,192,56080,1,0,0:0:0:0:
192,192,56159,1,0,0:0:0:0:
320,192,56159,1,0,0:0:0:0:
64,192,56237,1,0,0:0:0:0:
192,192,56316,1,0,0:0:0:0:
320,192,56394,1,0,0:0:0:0:
64,192,56473,1,0,0:0:0:0:
448,192,56473,1,0,0:0:0:0:
192,192,56551,1,0,0:0:0:0:
448,192,56630,1,0,0:0:0:0:
320,192,56630,1,0,0:0:0:0:
192,192,56708,1,0,0:0:0:0:
64,192,56787,1,0,0:0:0:0:
448,192,56787,1,0,0:0:0:0:
320,192,56865,1,0,0:0:0:0:
448,192,56944,1,0,0:0:0:0:
320,192,57022,1,0,0:0:0:0:
64,192,57101,1,0,0:0:0:0:
192,192,57101,1,0,0:0:0:0:
320,192,57179,1,0,0:0:0:0:
64,192,57258,1,0,0:0:0:0:
192,192,57337,1,0,0:0:0:0:
64,192,57415,1,0,0:0:0:0:
320,192,57415,1,0,0:0:0:0:
448,192,57494,1,0,0:0:0:0:
320,192,57572,1,0,0:0:0:0:
192,192,57651,1,0,0:0:0:0:
64,192,57729,1,0,0:0:0:0:
448,192,57729,1,0,0:0:0:0:
320,192,57808,1,0,0:0:0:0:
192,192,57886,1,0,0:0:0:0:
64,192,57886,1,0,0:0:0:0:
448,192,57965,1,0,0:0:0:0:
320,192,58043,1,0,0:0:0:0:
192,192,58043,1,0,0:0:0:0:
64,192,58122,1,0,0:0:0:0:
448,192,58200,1,0,0:0:0:0:
320,192,58200,1,0,0:0:0:0:
192,192,58279,1,0,0:0:0:0:
64,192,58357,1,0,0:0:0:0:
448,192,58357,1,0,0:0:0:0:
320,192,58436,1,0,0:0:0:0:
64,192,58515,1,0,0:0:0:0:
192,192,58515,1,0,0:0:0:0:
320,192,58593,1,0,0:0:0:0:
448,192,58672,1,0,0:0:0:0:
64,192,58672,1,0,0:0:0:0:
192,192,58750,1,0,0:0:0:0:
320,192,58829,1,0,0:0:0:0:
448,192,58829,1,0,0:0:0:0:
64,192,58907,1,0,0:0:0:0:
320,192,58986,1,0,0:0:0:0:
448,192,58986,1,0,0:0:0:0:
192,192,59064,1,0,0:0:0:0:
448,192,59143,1,0,0:0:0:0:
320,192,59143,1,0,0:0:0:0:
64,192,59221,1,0,0:0:0:0:
448,192,59300,1,0,0:0:0:0:
192,192,59300,1,0,0:0:0:0:
320,192,59378,1,0,0:0:0:0:
64,192,59457,1,0,0:0:0:0:
192,192,59535,1,0,0:0:0:0:
320,192,59614,1,0,0:0:0:0:
448,192,59614,1,0,0:0:0:0:
192,192,59693,1,0,0:0:0:0:
320,192,59771,1,0,0:0:0:0:
448,192,59850,1,0,0:0:0:0:
192,192,59928,1,0,0:0:0:0:
64,192,59928,1,0,0:0:0:0:
320,192,60007,1,0,0:0:0:0:
64,192,60085,1,0,0:0:0:0:
448,192,60164,1,0,0:0:0:0:
320,192,60242,1,0,0:0:0:0:
192,192,60242,1,0,0:0:0:0:
64,192,60321,1,0,0:0:0:0:
320,192,60399,1,0,0:0:0:0:
448,192,60399,1,0,0:0:0:0:
64,192,60478,1,0,0:0:0:0:
192,192,60556,1,0,0:0:0:0:
320,192,60556,1,0,0:0:0:0:
448,192,60635,1,0,0:0:0:0:
192,192,60713,1,0,0:0:0:0:
64,192,60713,1,0,0:0:0:0:
320,192,60792,1,0,0:0:0:0:
64,192,60871,1,0,0:0:0:0:
448,192,60871,1,0,0:0:0:0:
192,192,60949,1,0,0:0:0:0:
320,192,61028,1,0,0:0:0:0:
192,192,61106,1,0,0:0:0:0:
64,192,61185,1,0,0:0:0:0:
448,192,61185,1,0,0:0:0:0:
320,192,61263,1,0,0:0:0:0:
448,192,61342,1,0,0:0:0:0:
192,192,61420,1,0,0:0:0:0:
64,192,61499,1,0,0:0:0:0:
320,192,61499,1,0,0:0:0:0:
448,192,61577,1,0,0:0:0:0:
320,192,61656,1,0,0:0:0:0:
64,192,61656,1,0,0:0:0:0:
192,192,61734,1,0,0:0:0:0:
320,192,61813,1,0,0:0:0:0:
448,192,61813,1,0,0:0:0:0:
64,192,61891,1,0,0:0:0:0:
192,192,61970,1,0,0:0:0:0:
320,192,62049,1,0,0:0:0:0:
64,192,62127,1,0,0:0:0:0:
448,192,62127,1,0,0:0:0:0:
192,192,62206,1,0,0:0:0:0:
320,192,62284,1,0,0:0:0:0:
448,192,62363,1,0,0:0:0:0:
320,192,62441,1,0,0:0:0:0:
192,192,62441,1,0,0:0:0:0:
64,192,62520,1,0,0:0:0:0:
192,192,62598,1,0,0:0:0:0:
320,192,62677,1,0,0:0:0:0:
64,192,62755,1,0,0:0:0:0:
448,192,62755,1,0,0:0:0:0:
192,192,62834,1,0,0:0:0:0:
320,192,62912,1,0,0:0:0:0:
448,192,62912,1,0,0:0:0:0:
64,192,62991,1,0,0:0:0:0:
192,192,63069,1,0,0:0:0:0:
320,192,63069,1,0,0:0:0:0:
448,192,63148,1,0,0:0:0:0:
192,192,63227,1,0,0:0:0:0:
64,192,63227,1,0,0:0:0:0:
320,192,63305,1,0,0:0:0:0:
64,192,63384,1,0,0:0:0:0:
448,192,63384,1,0,0:0:0:0:
192,192,63384,1,0,0:0:0:0:
320,192,63462,1,0,0:0:0:0:
64,192,63541,128,0,63619:0:0:0:0:
192,192,63619,128,0,63698:0:0:0:0:
320,192,63698,1,0,0:0:0:0:
448,192,63698,1,0,0:0:0:0:
64,192,63776,1,0,0:0:0:0:
448,192,63855,128,0,63933:0:0:0:0:
320,192,63933,128,0,64012:0:0:0:0:
192,192,64012,1,0,0:0:0:0:
64,192,64012,1,0,0:0:0:0:
448,192,64090,1,0,0:0:0:0:
320,192,64169,1,0,0:0:0:0:
192,192,64248,1,0,0:0:0:0:
320,192,64326,1,0,0:0:0:0:
448,192,64326,1,0,0:0:0:0:
192,192,64405,1,0,0:0:0:0:
64,192,64405,1,0,0:0:0:0:
320,192,64483,1,0,0:0:0:0:
448,192,64483,1,0,0:0:0:0:
192,192,64562,1,0,0:0:0:0:
64,192,64562,1,0,0:0:0:0:
320,192,64640,1,0,0:0:0:0:
448,192,64640,1,0,0:0:0:0:
192,192,64719,1,0,0:0:0:0:
64,192,64797,1,0,0:0:0:0:
448,192,64797,1,0,0:0:0:0:
320,192,64876,1,0,0:0:0:0:
192,192,64954,1,0,0:0:0:0:
64,192,64954,1,0,0:0:0:0:
448,192,65033,1,0,0:0:0:0:
320,192,65111,1,0,0:0:0:0:
64,192,65111,1,0,0:0:0:0:
192,192,65190,1,0,0:0:0:0:
448,192,65268,1,0,0:0:0:0:
64,192,65347,1,0,0:0:0:0:
320,192,65426,1,0,0:0:0:0:
448,192,65426,1,0,0:0:0:0:
192,192,65504,1,0,0:0:0:0:
64,192,65583,1,0,0:0:0:0:
320,192,65583,1,0,0:0:0:0:
192,192,65661,1,0,0:0:0:0:
64,192,65740,1,0,0:0:0:0:
448,192,65740,1,0,0:0:0:0:
320,192,65818,1,0,0:0:0:0:
192,192,65897,1,0,0:0:0:0:
64,192,65897,1,0,0:0:0:0:
448,192,65975,1,0,0:0:0:0:
320,192,66054,128,0,66132:0:0:0:0:
192,192,66132,128,0,66211:0:0:0:0:
64,192,66211,1,0,0:0:0:0:
448,192,66211,1,0,0:0:0:0:
320,192,66289,1,0,0:0:0:0:
192,192,66368,128,0,66446:0:0:0:0:
64,192,66446,128,0,66525:0:0:0:0:
320,192,66525,1,0,0:0:0:0:
448,192,66525,1,0,0:0:0:0:
192,192,66604,1,0,0:0:0:0:
64,192,66682,1,0,0:0:0:0:
448,192,66682,1,0,0:0:0:0:
320,192,66761,1,0,0:0:0:0:
192,192,66839,1,0,0:0:0:0:
64,192,66839,1,0,0:0:0:0:
448,192,66918,1,0,0:0:0:0:
320,192,66996,1,0,0:0:0:0:
192,192,67075,1,0,0:0:0:0:
64,192,67153,1,0,0:0:0:0:
448,192,67153,1,0,0:0:0:0:
192,192,67232,1,0,0:0:0:0:
320,192,67310,1,0,0:0:0:0:
448,192,67310,1,0,0:0:0:0:
64,192,67389,1,0,0:0:0:0:
192,192,67467,1,0,0:0:0:0:
448,192,67467,1,0,0:0:0:0:
320,192,67546,1,0,0:0:0:0:
192,192,67624,1,0,0:0:0:0:
64,192,67624,1,0,0:0:0:0:
448,192,67703,1,0,0:0:0:0:
320,192,67782,1,0,0:0:0:0:
192,192,67782,1,0,0:0:0:0:
64,192,67860,1,0,0:0:0:0:
320,192,67939,1,0,0:0:0:0:
448,192,67939,1,0,0:0:0:0:
192,192,68017,1,0,0:0:0:0:
64,192,68096,1,0,0:0:0:0:
320,192,68096,1,0,0:0:0:0:
448,192,68174,1,0,0:0:0:0:
192,192,68253,1,0,0:0:0:0:
64,192,68253,1,0,0:0:0:0:
320,192,68331,1,0,0:0:0:0:
192,192,68410,1,0,0:0:0:0:
448,192,68410,1,0,0:0:0:0:
64,192,68488,1,0,0:0:0:0:
320,192,68567,128,0,68645:0:0:0:0:
192,192,68645,128,0,68724:0:0:0:0:
64,192,68724,1,0,0:0:0:0:
448,192,68724,1,0,0:0:0:0:
320,192,68802,1,0,0:0:0:0:
192,192,68881,128,0,68960:0:0:0:0:
448,192,68960,128,0,69038:0:0:0:0:
320,192,69038,1,0,0:0:0:0:
64,192,69038,1,0,0:0:0:0:
192,192,69117,1,0,0:0:0:0:
448,192,69195,1,0,0:0:0:0:
64,192,69195,1,0,0:0:0:0:
320,192,69274,1,0,0:0:0:0:
192,192,69352,1,0,0:0:0:0:
64,192,69352,1,0,0:0:0:0:
448,192,69431,1,0,0:0:0:0:
320,192,69431,1,0,0:0:0:0:
192,192,69509,1,0,0:0:0:0:
64,192,69509,1,0,0:0:0:0:
448,192,69588,1,0,0:0:0:0:
320,192,69588,1,0,0:0:0:0:
192,192,69666,1,0,0:0:0:0:
64,192,69666,1,0,0:0:0:0:
192,192,69745,1,0,0:0:0:0:
64,192,69745,1,0,0:0:0:0:
320,192,69902,1,0,0:0:0:0:
448,192,69902,1,0,0:0:0:0:
448,192,69980,1,0,0:0:0:0:
320,192,69980,1,0,0:0:0:0:
192,192,70138,1,0,0:0:0:0:
320,192,70138,1,0,0:0:0:0:
192,192,70216,1,0,0:0:0:0:
320,192,70216,1,0,0:0:0:0:
64,192,70373,1,0,0:0:0:0:
448,192,70373,1,0,0:0:0:0:
448,192,70452,1,0,0:0:0:0:
64,192,70452,1,0,0:0:0:0:
64,192,70609,1,0,0:0:0:0:
448,192,70609,1,0,0:0:0:0:
320,192,70766,1,0,0:0:0:0:
192,192,70766,1,0,0:0:0:0:
64,192,70923,1,0,0:0:0:0:
320,192,70923,1,0,0:0:0:0:
448,192,70923,1,0,0:0:0:0:
448,192,71001,1,0,0:0:0:0:
320,192,71001,1,0,0:0:0:0:
64,192,71001,1,0,0:0:0:0:
64,192,71159,1,0,0:0:0:0:
192,192,71159,1,0,0:0:0:0:
448,192,71159,1,0,0:0:0:0:
192,192,71237,1,0,0:0:0:0:
64,192,71237,1,0,0:0:0:0:
448,192,71237,1,0,0:0:0:0:
192,192,71394,1,0,0:0:0:0:
320,192,71394,1,0,0:0:0:0:
448,192,71394,1,0,0:0:0:0:
448,192,71473,1,0,0:0:0:0:
320,192,71473,1,0,0:0:0:0:
192,192,71473,1,0,0:0:0:0:
320,192,71630,1,0,0:0:0:0:
192,192,71630,1,0,0:0:0:0:
64,192,71630,1,0,0:0:0:0:
64,192,71708,1,0,0:0:0:0:
192,192,71708,1,0,0:0:0:0:
320,192,71708,1,0,0:0:0:0:
320,192,71865,1,0,0:0:0:0:
192,192,71865,1,0,0:0:0:0:
64,192,71865,1,0,0:0:0:0:
192,192,72022,1,0,0:0:0:0:
320,192,72022,1,0,0:0:0:0:
448,192,72022,1,0,0:0:0:0:
64,192,72179,1,0,0:0:0:0:
192,192,72258,1,0,0:0:0:0:
320,192,72337,1,0,0:0:0:0:
448,192,72415,1,0,0:0:0:0:
64,192,72494,1,0,0:0:0:0:
192,192,72494,1,0,0:0:0:0:
320,192,72572,1,0,0:0:0:0:
448,192,72572,1,0,0:0:0:0:
64,192,72651,1,0,0:0:0:0:
192,192,72651,1,0,0:0:0:0:
320,192,72729,1,0,0:0:0:0:
64,192,72808,1,0,0:0:0:0:
448,192,72808,1,0,0:0:0:0:
320,192,72886,1,0,0:0:0:0:
192,192,72886,1,0,0:0:0:0:
64,192,72965,1,0,0:0:0:0:
448,192,72965,1,0,0:0:0:0:
192,192,73043,1,0,0:0:0:0:
320,192,73122,1,0,0:0:0:0:
448,192,73122,1,0,0:0:0:0:
192,192,73200,1,0,0:0:0:0:
64,192,73200,1,0,0:0:0:0:
320,192,73279,1,0,0:0:0:0:
448,192,73279,1,0,0:0:0:0:
192,192,73357,1,0,0:0:0:0:
64,192,73357,1,0,0:0:0:0:
320,192,73436,1,0,0:0:0:0:
448,192,73436,1,0,0:0:0:0:
192,192,73515,1,0,0:0:0:0:
64,192,73593,1,0,0:0:0:0:
448,192,73672,1,0,0:0:0:0:
320,192,73750,1,0,0:0:0:0:
448,192,73829,1,0,0:0:0:0:
192,192,73907,1,0,0:0:0:0:
320,192,73986,1,0,0:0:0:0:
64,192,74064,1,0,0:0:0:0:
192,192,74143,1,0,0:0:0:0:
64,192,74221,1,0,0:0:0:0:
448,192,74300,1,0,0:0:0:0:
192,192,74378,1,0,0:0:0:0:
320,192,74457,1,0,0:0:0:0:
64,192,74535,1,0,0:0:0:0:
320,192,74614,1,0,0:0:0:0:
192,192,74693,1,0,0:0:0:0:
448,192,74771,1,0,0:0:0:0:
64,192,74850,1,0,0:0:0:0:
192,192,74928,1,0,0:0:0:0:
320,192,75007,1,0,0:0:0:0:
64,192,75085,1,0,0:0:0:0:
448,192,75164,1,0,0:0:0:0:
192,192,75242,1,0,0:0:0:0:
320,192,75321,1,0,0:0:0:0:
448,192,75399,1,0,0:0:0:0:
192,192,75478,1,0,0:0:0:0:
64,192,75556,1,0,0:0:0:0:
320,192,75635,1,0,0:0:0:0:
192,192,75713,1,0,0:0:0:0:
448,192,75792,1,0,0:0:0:0:
64,192,75871,1,0,0:0:0:0:
448,192,78619,1,0,0:0:0:0:
320,192,78619,1,0,0:0:0:0:
448,192,78933,1,0,0:0:0:0:
320,192,78933,1,0,0:0:0:0:
320,192,79090,1,0,0:0:0:0:
192,192,79090,1,0,0:0:0:0:
192,192,79248,1,0,0:0:0:0:
64,192,79248,1,0,0:0:0:0:
448,192,79405,128,0,79483:0:0:0:0:
64,192,79405,128,0,79562:0:0:0:0:
320,192,79483,128,0,79719:0:0:0:0:
192,192,79562,128,0,79719:0:0:0:0:
64,192,79719,1,0,0:0:0:0:
448,192,79719,1,0,0:0:0:0:
192,192,79876,1,0,0:0:0:0:
320,192,79876,1,0,0:0:0:0:
448,192,80033,1,0,0:0:0:0:
320,192,80033,1,0,0:0:0:0:
64,192,80190,1,0,0:0:0:0:
448,192,80190,1,0,0:0:0:0:
192,192,80347,1,0,0:0:0:0:
320,192,80504,1,0,0:0:0:0:
448,192,80504,1,0,0:0:0:0:
64,192,80661,1,0,0:0:0:0:
448,192,80661,1,0,0:0:0:0:
192,192,80818,1,0,0:0:0:0:
64,192,80818,1,0,0:0:0:0:
320,192,80975,128,0,81132:0:0:0:0:
192,192,81132,1,0,0:0:0:0:
448,192,81289,128,0,81446:0:0:0:0:
320,192,81446,1,0,0:0:0:0:
192,192,81604,128,0,81761:0:0:0:0:
448,192,81761,1,0,0:0:0:0:
64,192,81918,128,0,82075:0:0:0:0:
320,192,82075,1,0,0:0:0:0:
192,192,82232,1,0,0:0:0:0:
448,192,82232,1,0,0:0:0:0:
64,192,82389,1,0,0:0:0:0:
448,192,82389,1,0,0:0:0:0:
320,192,82546,1,0,0:0:0:0:
64,192,82546,1,0,0:0:0:0:
192,192,82703,1,0,0:0:0:0:
448,192,82703,1,0,0:0:0:0:
320,192,82860,1,0,0:0:0:0:
64,192,83017,1,0,0:0:0:0:
192,192,83017,1,0,0:0:0:0:
192,192,83174,1,0,0:0:0:0:
320,192,83174,1,0,0:0:0:0:
320,192,83331,1,0,0:0:0:0:
448,192,83331,1,0,0:0:0:0:
64,192,83488,128,0,83645:0:0:0:0:
320,192,83645,1,0,0:0:0:0:
192,192,83802,128,0,83960:0:0:0:0:
448,192,83960,1,0,0:0:0:0:
320,192,84117,128,0,84274:0:0:0:0:
64,192,84274,1,0,0:0:0:0:
448,192,84431,128,0,84588:0:0:0:0:
192,192,84588,128,0,84745:0:0:0:0:
320,192,84588,1,0,0:0:0:0:
64,192,84745,1,0,0:0:0:0:
320,192,84902,1,0,0:0:0:0:
448,192,84902,1,0,0:0:0:0:
320,192,85059,1,0,0:0:0:0:
192,192,85059,1,0,0:0:0:0:
192,192,85216,1,0,0:0:0:0:
64,192,85216,1,0,0:0:0:0:
448,192,85373,1,0,0:0:0:0:
192,192,85530,1,0,0:0:0:0:
64,192,85530,1,0,0:0:0:0:
192,192,85687,1,0,0:0:0:0:
448,192,85687,1,0,0:0:0:0:
64,192,85844,1,0,0:0:0:0:
320,192,85844,1,0,0:0:0:0:
192,192,86001,128,0,86159:0:0:0:0:
320,192,86159,1,0,0:0:0:0:
64,192,86316,128,0,86473:0:0:0:0:
192,192,86473,1,0,0:0:0:0:
320,192,86630,128,0,86787:0:0:0:0:
64,192,86787,1,0,0:0:0:0:
192,192,86944,1,0,0:0:0:0:
448,192,86944,1,0,0:0:0:0:
192,192,87101,1,0,0:0:0:0:
448,192,87101,1,0,0:0:0:0:
320,192,87258,1,0,0:0:0:0:
64,192,87415,1,0,0:0:0:0:
192,192,87572,1,0,0:0:0:0:
320,192,87729,1,0,0:0:0:0:
448,192,87729,1,0,0:0:0:0:
448,192,87886,1,0,0:0:0:0:
320,192,87886,1,0,0:0:0:0:
64,192,88043,1,0,0:0:0:0:
448,192,88200,1,0,0:0:0:0:
192,192,88357,1,0,0:0:0:0:
64,192,88357,1,0,0:0:0:0:
192,192,88515,1,0,0:0:0:0:
64,192,88515,1,0,0:0:0:0:
448,192,88672,1,0,0:0:0:0:
192,192,88829,1,0,0:0:0:0:
320,192,88986,1,0,0:0:0:0:
64,192,89143,1,0,0:0:0:0:
448,192,89143,1,0,0:0:0:0:
192,192,89300,1,0,0:0:0:0:
64,192,89300,1,0,0:0:0:0:
320,192,89457,1,0,0:0:0:0:
192,192,89457,1,0,0:0:0:0:
448,192,89614,1,0,0:0:0:0:
320,192,89614,1,0,0:0:0:0:
192,192,89771,1,0,0:0:0:0:
64,192,89771,1,0,0:0:0:0:
64,192,89928,1,0,0:0:0:0:
320,192,89928,1,0,0:0:0:0:
320,192,90085,1,0,0:0:0:0:
448,192,90085,1,0,0:0:0:0:
448,192,90242,1,0,0:0:0:0:
192,192,90242,1,0,0:0:0:0:
64,192,90399,1,0,0:0:0:0:
320,192,90556,1,0,0:0:0:0:
192,192,90556,1,0,0:0:0:0:
192,192,90713,1,0,0:0:0:0:
448,192,90713,1,0,0:0:0:0:
64,192,90871,1,0,0:0:0:0:
448,192,90871,1,0,0:0:0:0:
320,192,91028,128,0,91185:0:0:0:0:
192,192,91185,1,0,0:0:0:0:
448,192,91342,128,0,91499:0:0:0:0:
64,192,91499,1,0,0:0:0:0:
192,192,91656,128,0,91813:0:0:0:0:
320,192,91813,1,0,0:0:0:0:
64,192,91970,128,0,92127:0:0:0:0:
448,192,91970,1,0,0:0:0:0:
448,192,92127,1,0,0:0:0:0:
320,192,92284,1,0,0:0:0:0:
192,192,92284,1,0,0:0:0:0:
192,192,92441,1,0,0:0:0:0:
64,192,92441,1,0,0:0:0:0:
320,192,92598,1,0,0:0:0:0:
448,192,92598,1,0,0:0:0:0:
64,192,92755,1,0,0:0:0:0:
448,192,92755,1,0,0:0:0:0:
192,192,92912,1,0,0:0:0:0:
320,192,93069,1,0,0:0:0:0:
448,192,93069,1,0,0:0:0:0:
320,192,93227,1,0,0:0:0:0:
192,192,93227,1,0,0:0:0:0:
192,192,93384,1,0,0:0:0:0:
64,192,93384,1,0,0:0:0:0:
320,192,93541,128,0,93698:0:0:0:0:
448,192,93698,1,0,0:0:0:0:
192,192,93855,128,0,94012:0:0:0:0:
320,192,94012,1,0,0:0:0:0:
64,192,94169,128,0,94326:0:0:0:0:
192,192,94326,1,0,0:0:0:0:
448,192,94483,128,0,94640:0:0:0:0:
320,192,94640,1,0,0:0:0:0:
192,192,94640,128,0,94797:0:0:0:0:
64,192,94797,1,0,0:0:0:0:
448,192,94797,1,0,0:0:0:0:
320,192,94954,1,0,0:0:0:0:
448,192,94954,1,0,0:0:0:0:
64,192,95111,1,0,0:0:0:0:
320,192,95111,1,0,0:0:0:0:
192,192,95268,1,0,0:0:0:0:
448,192,95268,1,0,0:0:0:0:
320,192,95426,1,0,0:0:0:0:
192,192,95583,1,0,0:0:0:0:
64,192,95583,1,0,0:0:0:0:
320,192,95740,1,0,0:0:0:0:
448,192,95740,1,0,0:0:0:0:
320,192,95897,1,0,0:0:0:0:
192,192,95897,1,0,0:0:0:0:
192,192,96054,1,0,0:0:0:0:
448,192,96054,1,0,0:0:0:0:
64,192,96054,128,0,96211:0:0:0:0:
320,192,96211,1,0,0:0:0:0:
192,192,96368,128,0,96525:0:0:0:0:
448,192,96525,1,0,0:0:0:0:
320,192,96682,128,0,96839:0:0:0:0:
64,192,96839,1,0,0:0:0:0:
192,192,96996,1,0,0:0:0:0:
448,192,96996,1,0,0:0:0:0:
448,192,97153,1,0,0:0:0:0:
192,192,97153,1,0,0:0:0:0:
320,192,97310,1,0,0:0:0:0:
448,192,97310,1,0,0:0:0:0:
64,192,97310,1,0,0:0:0:0:
320,192,97467,1,0,0:0:0:0:
192,192,97624,1,0,0:0:0:0:
448,192,97624,1,0,0:0:0:0:
64,192,97624,1,0,0:0:0:0:
320,192,97782,1,0,0:0:0:0:
192,192,97782,1,0,0:0:0:0:
448,192,97939,1,0,0:0:0:0:
320,192,97939,1,0,0:0:0:0:
192,192,97939,1,0,0:0:0:0:
448,192,98096,1,0,0:0:0:0:
320,192,98253,1,0,0:0:0:0:
192,192,98253,1,0,0:0:0:0:
64,192,98253,1,0,0:0:0:0:
64,192,98410,1,0,0:0:0:0:
192,192,98410,1,0,0:0:0:0:
192,192,98567,1,0,0:0:0:0:
64,192,98567,1,0,0:0:0:0:
448,192,98567,1,0,0:0:0:0:
448,192,98724,1,0,0:0:0:0:
320,192,98881,1,0,0:0:0:0:
192,192,98881,1,0,0:0:0:0:
64,192,98881,1,0,0:0:0:0:
64,192,99038,1,0,0:0:0:0:
192,192,99195,1,0,0:0:0:0:
320,192,99195,1,0,0:0:0:0:
448,192,99195,1,0,0:0:0:0:
320,192,99352,1,0,0:0:0:0:
64,192,99352,1,0,0:0:0:0:
192,192,99509,1,0,0:0:0:0:
64,192,99509,1,0,0:0:0:0:
448,192,99509,1,0,0:0:0:0:
320,192,99666,1,0,0:0:0:0:
448,192,99666,1,0,0:0:0:0:
320,192,99823,1,0,0:0:0:0:
192,192,99823,1,0,0:0:0:0:
64,192,99823,1,0,0:0:0:0:
192,192,99980,1,0,0:0:0:0:
320,192,100138,1,0,0:0:0:0:
448,192,100138,1,0,0:0:0:0:
64,192,100138,1,0,0:0:0:0:
192,192,100295,1,0,0:0:0:0:
64,192,100295,1,0,0:0:0:0:
192,192,100452,1,0,0:0:0:0:
64,192,100452,1,0,0:0:0:0:
448,192,100452,1,0,0:0:0:0:
320,192,100609,1,0,0:0:0:0:
192,192,100766,1,0,0:0:0:0:
320,192,100766,1,0,0:0:0:0:
448,192,100766,1,0,0:0:0:0:
64,192,100923,1,0,0:0:0:0:
448,192,100923,1,0,0:0:0:0:
320,192,101080,1,0,0:0:0:0:
192,192,101080,1,0,0:0:0:0:
64,192,101080,1,0,0:0:0:0:
320,192,101237,1,0,0:0:0:0:
192,192,101394,1,0,0:0:0:0:
64,192,101394,1,0,0:0:0:0:
448,192,101394,1,0,0:0:0:0:
64,192,101551,1,0,0:0:0:0:
320,192,101551,1,0,0:0:0:0:
192,192,101708,1,0,0:0:0:0:
320,192,101708,1,0,0:0:0:0:
448,192,101708,1,0,0:0:0:0:
192,192,101865,1,0,0:0:0:0:
64,192,102022,1,0,0:0:0:0:
320,192,102022,1,0,0:0:0:0:
448,192,102022,1,0,0:0:0:0:
320,192,102179,1,0,0:0:0:0:
192,192,102337,1,0,0:0:0:0:
448,192,102337,1,0,0:0:0:0:
64,192,102337,128,0,103593:0:0:0:0:
320,192,102494,1,0,0:0:0:0:
192,192,102651,1,0,0:0:0:0:
448,192,102808,1,0,0:0:0:0:
448,192,102965,1,0,0:0:0:0:
320,192,103122,1,0,0:0:0:0:
192,192,103279,1,0,0:0:0:0:
448,192,103357,1,0,0:0:0:0:
320,192,103436,1,0,0:0:0:0:
192,192,103515,1,0,0:0:0:0:
320,192,103593,1,0,0:0:0:0:
448,192,103593,1,0,0:0:0:0:
64,192,103672,1,0,0:0:0:0:
192,192,103672,1,0,0:0:0:0:
320,192,103750,1,0,0:0:0:0:
448,192,103750,1,0,0:0:0:0:
192,192,103829,1,0,0:0:0:0:
64,192,103829,1,0,0:0:0:0:
320,192,103907,1,0,0:0:0:0:
448,192,103907,1,0,0:0:0:0:
192,192,103986,1,0,0:0:0:0:
64,192,103986,1,0,0:0:0:0:
320,192,104064,1,0,0:0:0:0:
448,192,104064,1,0,0:0:0:0:
192,192,104143,1,0,0:0:0:0:
64,192,104143,1,0,0:0:0:0:
320,192,104221,1,0,0:0:0:0:
448,192,104221,1,0,0:0:0:0:
192,192,104300,1,0,0:0:0:0:
64,192,104300,1,0,0:0:0:0:
320,192,104378,1,0,0:0:0:0:
448,192,104378,1,0,0:0:0:0:
192,192,104457,1,0,0:0:0:0:
64,192,104457,1,0,0:0:0:0:
320,192,104535,1,0,0:0:0:0:
448,192,104535,1,0,0:0:0:0:
192,192,104614,1,0,0:0:0:0:
64,192,104614,1,0,0:0:0:0:
320,192,104693,1,0,0:0:0:0:
448,192,104693,1,0,0:0:0:0:
192,192,104771,1,0,0:0:0:0:
64,192,104771,1,0,0:0:0:0:
320,192,106420,128,0,107363:0:0:0:0:
192,192,107363,1,0,0:0:0:0:
64,192,107363,1,0,0:0:0:0:
448,192,107363,1,0,0:0:0:0:
192,192,107520,1,0,0:0:0:0:
320,192,107520,1,0,0:0:0:0:
64,192,107677,1,0,0:0:0:0:
320,192,107677,1,0,0:0:0:0:
448,192,107677,1,0,0:0:0:0:
192,192,107834,1,0,0:0:0:0:
448,192,107834,1,0,0:0:0:0:
320,192,107991,1,0,0:0:0:0:
192,192,107991,1,0,0:0:0:0:
64,192,107991,1,0,0:0:0:0:
64,192,108148,1,0,0:0:0:0:
448,192,108148,1,0,0:0:0:0:
192,192,108305,1,0,0:0:0:0:
320,192,108305,1,0,0:0:0:0:
448,192,108305,1,0,0:0:0:0:
192,192,108462,1,0,0:0:0:0:
64,192,108462,1,0,0:0:0:0:
64,192,108619,1,0,0:0:0:0:
320,192,108619,1,0,0:0:0:0:
448,192,108619,1,0,0:0:0:0:
192,192,108776,1,0,0:0:0:0:
448,192,108776,1,0,0:0:0:0:
320,192,108933,1,0,0:0:0:0:
192,192,108933,1,0,0:0:0:0:
64,192,108933,1,0,0:0:0:0:
320,192,109090,1,0,0:0:0:0:
448,192,109090,1,0,0:0:0:0:
192,192,109248,1,0,0:0:0:0:
64,192,109248,1,0,0:0:0:0:
448,192,109248,1,0,0:0:0:0:
320,192,109405,1,0,0:0:0:0:
192,192,109405,1,0,0:0:0:0:
64,192,109562,1,0,0:0:0:0:
320,192,109562,1,0,0:0:0:0:
448,192,109562,1,0,0:0:0:0:
192,192,109719,1,0,0:0:0:0:
448,192,109719,1,0,0:0:0:0:
320,192,109876,1,0,0:0:0:0:
192,192,109876,1,0,0:0:0:0:
64,192,109876,1,0,0:0:0:0:
64,192,110033,1,0,0:0:0:0:
448,192,110033,1,0,0:0:0:0:
192,192,110190,1,0,0:0:0:0:
320,192,110190,1,0,0:0:0:0:
448,192,110190,1,0,0:0:0:0:
320,192,110347,1,0,0:0:0:0:
64,192,110347,1,0,0:0:0:0:
192,192,110504,1,0,0:0:0:0:
64,192,110504,1,0,0:0:0:0:
448,192,110504,1,0,0:0:0:0:
320,192,110661,1,0,0:0:0:0:
448,192,110661,1,0,0:0:0:0:
320,192,110818,1,0,0:0:0:0:
192,192,110818,1,0,0:0:0:0:
64,192,110818,1,0,0:0:0:0:
192,192,110975,1,0,0:0:0:0:
448,192,110975,1,0,0:0:0:0:
320,192,111132,1,0,0:0:0:0:
448,192,111132,1,0,0:0:0:0:
64,192,111132,1,0,0:0:0:0:
192,192,111289,1,0,0:0:0:0:
320,192,111289,1,0,0:0:0:0:
192,192,111446,1,0,0:0:0:0:
64,192,111446,1,0,0:0:0:0:
448,192,111446,1,0,0:0:0:0:
320,192,111604,1,0,0:0:0:0:
64,192,111604,1,0,0:0:0:0:
192,192,111761,1,0,0:0:0:0:
320,192,111761,1,0,0:0:0:0:
448,192,111761,1,0,0:0:0:0:
192,192,111918,1,0,0:0:0:0:
64,192,111918,1,0,0:0:0:0:
64,192,112075,1,0,0:0:0:0:
320,192,112075,1,0,0:0:0:0:
448,192,112075,1,0,0:0:0:0:
192,192,112232,1,0,0:0:0:0:
448,192,112232,1,0,0:0:0:0:
320,192,112389,1,0,0:0:0:0:
192,192,112389,1,0,0:0:0:0:
64,192,112389,1,0,0:0:0:0:
320,192,112546,1,0,0:0:0:0:
448,192,112546,1,0,0:0:0:0:
64,192,112703,1,0,0:0:0:0:
192,192,112703,1,0,0:0:0:0:
448,192,112703,1,0,0:0:0:0:
320,192,112860,1,0,0:0:0:0:
192,192,112860,1,0,0:0:0:0:
64,192,113017,1,0,0:0:0:0:
320,192,113017,1,0,0:0:0:0:
448,192,113017,1,0,0:0:0:0:
192,192,113174,1,0,0:0:0:0:
448,192,113174,1,0,0:0:0:0:
320,192,113331,1,0,0:0:0:0:
192,192,113331,1,0,0:0:0:0:
64,192,113331,1,0,0:0:0:0:
320,192,113488,1,0,0:0:0:0:
448,192,113488,1,0,0:0:0:0:
192,192,113645,1,0,0:0:0:0:
64,192,113645,1,0,0:0:0:0:
448,192,113645,1,0,0:0:0:0:
192,192,113802,1,0,0:0:0:0:
64,192,113802,1,0,0:0:0:0:
64,192,113960,1,0,0:0:0:0:
320,192,113960,1,0,0:0:0:0:
448,192,113960,1,0,0:0:0:0:
320,192,114117,1,0,0:0:0:0:
448,192,114117,1,0,0:0:0:0:
192,192,114274,1,0,0:0:0:0:
64,192,114274,1,0,0:0:0:0:
448,192,114274,1,0,0:0:0:0:
192,192,114431,1,0,0:0:0:0:
64,192,114431,1,0,0:0:0:0:
192,192,114588,1,0,0:0:0:0:
320,192,114588,1,0,0:0:0:0:
448,192,114588,1,0,0:0:0:0:
320,192,114745,1,0,0:0:0:0:
448,192,114745,1,0,0:0:0:0:
320,192,114902,1,0,0:0:0:0:
192,192,114902,1,0,0:0:0:0:
64,192,114902,1,0,0:0:0:0:
192,192,115059,1,0,0:0:0:0:
64,192,115216,1,0,0:0:0:0:
320,192,115216,1,0,0:0:0:0:
448,192,115216,1,0,0:0:0:0:
320,192,115373,1,0,0:0:0:0:
192,192,115373,1,0,0:0:0:0:
192,192,115530,1,0,0:0:0:0:
64,192,115530,1,0,0:0:0:0:
448,192,115530,1,0,0:0:0:0:
64,192,115687,1,0,0:0:0:0:
192,192,115844,1,0,0:0:0:0:
320,192,115844,1,0,0:0:0:0:
448,192,115844,1,0,0:0:0:0:
64,192,116001,1,0,0:0:0:0:
448,192,116001,1,0,0:0:0:0:
192,192,116159,1,0,0:0:0:0:
64,192,116159,1,0,0:0:0:0:
320,192,116159,128,0,116316:0:0:0:0:
64,192,116316,128,0,116473:0:0:0:0:
192,192,116473,1,0,0:0:0:0:
448,192,116473,128,0,116630:0:0:0:0:
320,192,116630,128,0,116787:0:0:0:0:
64,192,116787,128,0,116944:0:0:0:0:
192,192,116787,1,0,0:0:0:0:
192,192,116944,128,0,117101:0:0:0:0:
320,192,117101,1,0,0:0:0:0:
448,192,117101,128,0,117258:0:0:0:0:
64,192,117258,128,0,117415:0:0:0:0:
192,192,117415,1,0,0:0:0:0:
320,192,117415,1,0,0:0:0:0:
448,192,117415,1,0,0:0:0:0:
192,192,117572,1,0,0:0:0:0:
64,192,117572,1,0,0:0:0:0:
64,192,117729,1,0,0:0:0:0:
320,192,117729,1,0,0:0:0:0:
448,192,117729,1,0,0:0:0:0:
192,192,117886,1,0,0:0:0:0:
320,192,117886,1,0,0:0:0:0:
192,192,118043,1,0,0:0:0:0:
64,192,118043,1,0,0:0:0:0:
448,192,118043,1,0,0:0:0:0:
320,192,118200,1,0,0:0:0:0:
448,192,118200,1,0,0:0:0:0:
320,192,118357,1,0,0:0:0:0:
192,192,118357,1,0,0:0:0:0:
64,192,118357,1,0,0:0:0:0:
448,192,118515,1,0,0:0:0:0:
192,192,118515,1,0,0:0:0:0:
64,192,118672,1,0,0:0:0:0:
320,192,118672,1,0,0:0:0:0:
448,192,118672,1,0,0:0:0:0:
320,192,118829,1,0,0:0:0:0:
192,192,118829,1,0,0:0:0:0:
192,192,118986,1,0,0:0:0:0:
64,192,118986,1,0,0:0:0:0:
448,192,118986,1,0,0:0:0:0:
64,192,119143,1,0,0:0:0:0:
448,192,119143,1,0,0:0:0:0:
192,192,119300,1,0,0:0:0:0:
320,192,119300,1,0,0:0:0:0:
448,192,119300,1,0,0:0:0:0:
320,192,119457,1,0,0:0:0:0:
192,192,119457,1,0,0:0:0:0:
192,192,119614,1,0,0:0:0:0:
64,192,119614,1,0,0:0:0:0:
448,192,119614,1,0,0:0:0:0:
64,192,119771,1,0,0:0:0:0:
448,192,119771,1,0,0:0:0:0:
192,192,119928,1,0,0:0:0:0:
320,192,119928,1,0,0:0:0:0:
448,192,119928,1,0,0:0:0:0:
320,192,120085,1,0,0:0:0:0:
64,192,120085,1,0,0:0:0:0:
192,192,120242,1,0,0:0:0:0:
64,192,120242,1,0,0:0:0:0:
448,192,120242,1,0,0:0:0:0:
320,192,120399,1,0,0:0:0:0:
448,192,120399,1,0,0:0:0:0:
320,192,120556,1,0,0:0:0:0:
192,192,120556,1,0,0:0:0:0:
64,192,120556,1,0,0:0:0:0:
64,192,120713,1,0,0:0:0:0:
448,192,120713,1,0,0:0:0:0:
192,192,120871,1,0,0:0:0:0:
320,192,120871,1,0,0:0:0:0:
448,192,120871,1,0,0:0:0:0:
192,192,121028,1,0,0:0:0:0:
64,192,121028,1,0,0:0:0:0:
64,192,121185,1,0,0:0:0:0:
320,192,121185,1,0,0:0:0:0:
448,192,121185,1,0,0:0:0:0:
320,192,121342,1,0,0:0:0:0:
448,192,121342,1,0,0:0:0:0:
192,192,121499,1,0,0:0:0:0:
64,192,121499,1,0,0:0:0:0:
448,192,121499,1,0,0:0:0:0:
64,192,121656,1,0,0:0:0:0:
192,192,121656,1,0,0:0:0:0:
192,192,121813,1,0,0:0:0:0:
320,192,121813,1,0,0:0:0:0:
448,192,121813,1,0,0:0:0:0:
320,192,121970,1,0,0:0:0:0:
448,192,121970,1,0,0:0:0:0:
192,192,122127,1,0,0:0:0:0:
64,192,122127,1,0,0:0:0:0:
448,192,122127,1,0,0:0:0:0:
64,192,122284,1,0,0:0:0:0:
320,192,122284,1,0,0:0:0:0:
320,192,122598,1,0,0:0:0:0:
448,192,122598,1,0,0:0:0:0:
320,192,122755,1,0,0:0:0:0:
192,192,122755,1,0,0:0:0:0:
192,192,122912,1,0,0:0:0:0:
64,192,122912,1,0,0:0:0:0:
448,192,123069,1,0,0:0:0:0:
64,192,123227,1,0,0:0:0:0:
192,192,123227,1,0,0:0:0:0:
64,192,123384,1,0,0:0:0:0:
448,192,123384,1,0,0:0:0:0:
320,192,123541,1,0,0:0:0:0:
448,192,123541,1,0,0:0:0:0:
320,192,123698,1,0,0:0:0:0:
64,192,123698,1,0,0:0:0:0:
64,192,123855,1,0,0:0:0:0:
192,192,124012,1,0,0:0:0:0:
320,192,124012,1,0,0:0:0:0:
320,192,124169,1,0,0:0:0:0:
192,192,124326,1,0,0:0:0:0:
448,192,124326,1,0,0:0:0:0:
448,192,124483,1,0,0:0:0:0:
64,192,124640,1,0,0:0:0:0:
192,192,124640,1,0,0:0:0:0:
320,192,124719,1,0,0:0:0:0:
192,192,124797,1,0,0:0:0:0:
64,192,124797,1,0,0:0:0:0:
448,192,124876,1,0,0:0:0:0:
192,192,124954,1,0,0:0:0:0:
64,192,124954,1,0,0:0:0:0:
320,192,125033,1,0,0:0:0:0:
448,192,125033,1,0,0:0:0:0:
192,192,125111,1,0,0:0:0:0:
64,192,125111,1,0,0:0:0:0:
320,192,125190,1,0,0:0:0:0:
448,192,125190,1,0,0:0:0:0:
192,192,125268,1,0,0:0:0:0:
64,192,125268,1,0,0:0:0:0:
320,192,125347,1,0,0:0:0:0:
448,192,125347,1,0,0:0:0:0:
64,192,125426,1,0,0:0:0:0:
192,192,125426,1,0,0:0:0:0:
320,192,125504,1,0,0:0:0:0:
448,192,125504,1,0,0:0:0:0:
192,192,125583,1,0,0:0:0:0:
64,192,125583,1,0,0:0:0:0:
320,192,125661,1,0,0:0:0:0:
448,192,125661,1,0,0:0:0:0:
192,192,125740,1,0,0:0:0:0:
64,192,125740,1,0,0:0:0:0:
448,192,125818,1,0,0:0:0:0:
320,192,125818,1,0,0:0:0:0:
192,192,125897,1,0,0:0:0:0:
64,192,125897,1,0,0:0:0:0:
320,192,125975,1,0,0:0:0:0:
448,192,125975,1,0,0:0:0:0:
192,192,126054,1,0,0:0:0:0:
64,192,126054,1,0,0:0:0:0:
320,192,126132,1,0,0:0:0:0:
448,192,126132,1,0,0:0:0:0:
64,192,126211,1,0,0:0:0:0:
192,192,126211,1,0,0:0:0:0:
320,192,126368,128,0,126525:0:0:0:0:
64,192,126525,128,0,126682:0:0:0:0:
448,192,126682,128,0,126839:0:0:0:0:
192,192,126839,128,0,126996:0:0:0:0:
64,192,126839,1,0,0:0:0:0:
320,192,126996,1,0,0:0:0:0:
448,192,126996,1,0,0:0:0:0:
320,192,127153,1,0,0:0:0:0:
64,192,127153,1,0,0:0:0:0:
64,192,127310,1,0,0:0:0:0:
448,192,127310,1,0,0:0:0:0:
192,192,127467,128,0,129038:0:0:0:0:
320,192,127467,128,0,128724:0:0:0:0:
64,192,127467,128,0,129352:0:0:0:0:
448,192,128724,1,0,0:0:0:0:
320,192,129038,1,0,0:0:0:0:
192,192,129352,1,0,0:0:0:0:
64,192,129666,1,0,0:0:0:0:
320,192,129980,1,0,0:0:0:0:
192,192,131551,1,0,0:0:0:0:
320,192,131865,1,0,0:0:0:0:
448,192,132179,1,0,0:0:0:0:
320,192,132494,1,0,0:0:0:0:
192,192,134064,1,0,0:0:0:0:
448,192,134378,1,0,0:0:0:0:
192,192,134693,1,0,0:0:0:0:
64,192,135007,1,0,0:0:0:0:
192,192,136263,1,0,0:0:0:0:
320,192,136577,1,0,0:0:0:0:
448,192,136891,1,0,0:0:0:0:
320,192,137206,1,0,0:0:0:0:
192,192,137520,1,0,0:0:0:0:
64,192,138148,1,0,0:0:0:0:
448,192,138148,1,0,0:0:0:0:
320,192,138305,1,0,0:0:0:0:
64,192,138305,1,0,0:0:0:0:
192,192,138462,1,0,0:0:0:0:
448,192,138462,1,0,0:0:0:0:
64,192,138619,1,0,0:0:0:0:
448,192,138619,1,0,0:0:0:0:
192,192,139090,1,0,0:0:0:0:
320,192,139405,1,0,0:0:0:0:
64,192,139719,1,0,0:0:0:0:
448,192,140033,1,0,0:0:0:0:
320,192,140661,1,0,0:0:0:0:
192,192,140661,1,0,0:0:0:0:
320,192,140818,1,0,0:0:0:0:
64,192,140818,1,0,0:0:0:0:
192,192,140975,1,0,0:0:0:0:
448,192,140975,1,0,0:0:0:0:
448,192,141132,1,0,0:0:0:0:
64,192,141132,1,0,0:0:0:0:
320,192,141604,1,0,0:0:0:0:
448,192,141918,1,0,0:0:0:0:
64,192,142232,1,0,0:0:0:0:
192,192,142546,1,0,0:0:0:0:
448,192,143174,1,0,0:0:0:0:
320,192,143174,1,0,0:0:0:0:
64,192,143331,1,0,0:0:0:0:
448,192,143331,1,0,0:0:0:0:
192,192,143488,1,0,0:0:0:0:
64,192,143488,1,0,0:0:0:0:
192,192,143645,1,0,0:0:0:0:
448,192,143645,1,0,0:0:0:0:
320,192,143802,1,0,0:0:0:0:
448,192,144431,1,0,0:0:0:0:
320,192,144745,1,0,0:0:0:0:
64,192,145373,1,0,0:0:0:0:
192,192,145687,1,0,0:0:0:0:
320,192,145687,1,0,0:0:0:0:
192,192,145844,1,0,0:0:0:0:
64,192,145844,1,0,0:0:0:0:
320,192,146001,1,0,0:0:0:0:
448,192,146001,1,0,0:0:0:0:
448,192,146159,1,0,0:0:0:0:
64,192,146159,1,0,0:0:0:0:
320,192,146630,1,0,0:0:0:0:
192,192,146787,128,0,147572:0:0:0:0:
320,192,147258,1,0,0:0:0:0:
64,192,147572,1,0,0:0:0:0:
448,192,147572,1,0,0:0:0:0:
320,192,147729,1,0,0:0:0:0:
64,192,147729,1,0,0:0:0:0:
192,192,147886,1,0,0:0:0:0:
320,192,147886,1,0,0:0:0:0:
192,192,148043,1,0,0:0:0:0:
448,192,148043,1,0,0:0:0:0:
64,192,148200,1,0,0:0:0:0:
320,192,148357,1,0,0:0:0:0:
448,192,148357,1,0,0:0:0:0:
320,192,148515,1,0,0:0:0:0:
192,192,148515,1,0,0:0:0:0:
192,192,148672,1,0,0:0:0:0:
64,192,148672,1,0,0:0:0:0:
448,192,148829,1,0,0:0:0:0:
448,192,149143,1,0,0:0:0:0:
448,192,149457,1,0,0:0:0:0:
448,192,149771,1,0,0:0:0:0:
448,192,149928,1,0,0:0:0:0:
192,192,150085,1,0,0:0:0:0:
64,192,150085,1,0,0:0:0:0:
64,192,150242,1,0,0:0:0:0:
448,192,150242,1,0,0:0:0:0:
192,192,150399,1,0,0:0:0:0:
448,192,150399,1,0,0:0:0:0:
320,192,150556,1,0,0:0:0:0:
64,192,150556,1,0,0:0:0:0:
448,192,150713,1,0,0:0:0:0:
192,192,150871,1,0,0:0:0:0:
320,192,150871,1,0,0:0:0:0:
320,192,151028,1,0,0:0:0:0:
448,192,151028,1,0,0:0:0:0:
192,192,151185,1,0,0:0:0:0:
64,192,151185,1,0,0:0:0:0:
448,192,151342,1,0,0:0:0:0:
448,192,151656,1,0,0:0:0:0:
448,192,151970,1,0,0:0:0:0:
448,192,152284,1,0,0:0:0:0:
448,192,152441,1,0,0:0:0:0:
320,192,152598,1,0,0:0:0:0:
192,192,152598,1,0,0:0:0:0:
64,192,152598,1,0,0:0:0:0:
64,192,152755,1,0,0:0:0:0:
320,192,152755,1,0,0:0:0:0:
192,192,152912,1,0,0:0:0:0:
448,192,152912,1,0,0:0:0:0:
64,192,153069,1,0,0:0:0:0:
448,192,153069,1,0,0:0:0:0:
320,192,153227,1,0,0:0:0:0:
192,192,153384,1,0,0:0:0:0:
448,192,153384,1,0,0:0:0:0:
64,192,153541,1,0,0:0:0:0:
448,192,153541,1,0,0:0:0:0:
320,192,153698,1,0,0:0:0:0:
64,192,153698,1,0,0:0:0:0:
192,192,153855,1,0,0:0:0:0:
320,192,153855,1,0,0:0:0:0:
448,192,153855,1,0,0:0:0:0:
64,192,154169,5,0,0:0:0:0:
64,192,154483,1,0,0:0:0:0:
64,192,154797,1,0,0:0:0:0:
448,192,155111,128,0,156368:0:0:0:0:
320,192,155111,128,0,156054:0:0:0:0:
192,192,155111,128,0,155740:0:0:0:0:
64,192,155111,128,0,155426:0:0:0:0:
192,192,156368,1,0,0:0:0:0:
64,192,156368,1,0,0:0:0:0:
320,192,156446,1,0,0:0:0:0:
448,192,156446,1,0,0:0:0:0:
192,192,156525,1,0,0:0:0:0:
64,192,156525,1,0,0:0:0:0:
320,192,156604,1,0,0:0:0:0:
448,192,156604,1,0,0:0:0:0:
192,192,156682,1,0,0:0:0:0:
64,192,156682,1,0,0:0:0:0:
320,192,156761,1,0,0:0:0:0:
448,192,156761,1,0,0:0:0:0:
192,192,156839,1,0,0:0:0:0:
64,192,156839,1,0,0:0:0:0:
320,192,156918,1,0,0:0:0:0:
448,192,156918,1,0,0:0:0:0:
192,192,156996,1,0,0:0:0:0:
64,192,156996,1,0,0:0:0:0:
320,192,157075,1,0,0:0:0:0:
448,192,157075,1,0,0:0:0:0:
192,192,157153,1,0,0:0:0:0:
64,192,157153,1,0,0:0:0:0:
320,192,157232,1,0,0:0:0:0:
448,192,157232,1,0,0:0:0:0:
192,192,157310,1,0,0:0:0:0:
64,192,157310,1,0,0:0:0:0:
320,192,157389,1,0,0:0:0:0:
448,192,157389,1,0,0:0:0:0:
192,192,157467,1,0,0:0:0:0:
64,192,157467,1,0,0:0:0:0:
320,192,157546,1,0,0:0:0:0:
64,192,157624,1,0,0:0:0:0:
448,192,157624,1,0,0:0:0:0:
320,192,157703,1,0,0:0:0:0:
192,192,157703,1,0,0:0:0:0:
64,192,157782,1,0,0:0:0:0:
448,192,157782,1,0,0:0:0:0:
320,192,157860,1,0,0:0:0:0:
192,192,157860,1,0,0:0:0:0:
64,192,157939,1,0,0:0:0:0:
448,192,157939,1,0,0:0:0:0:
192,192,158017,1,0,0:0:0:0:
320,192,158017,1,0,0:0:0:0:
448,192,158096,1,0,0:0:0:0:
64,192,158096,1,0,0:0:0:0:
192,192,158174,1,0,0:0:0:0:
320,192,158253,1,0,0:0:0:0:
448,192,158253,1,0,0:0:0:0:
192,192,158331,1,0,0:0:0:0:
64,192,158331,1,0,0:0:0:0:
448,192,158410,1,0,0:0:0:0:
320,192,158410,1,0,0:0:0:0:
192,192,158488,1,0,0:0:0:0:
64,192,158488,1,0,0:0:0:0:
448,192,158567,1,0,0:0:0:0:
320,192,158567,1,0,0:0:0:0:
192,192,158645,1,0,0:0:0:0:
64,192,158645,1,0,0:0:0:0:
448,192,158724,1,0,0:0:0:0:
320,192,158724,1,0,0:0:0:0:
64,192,158802,1,0,0:0:0:0:
192,192,158881,1,0,0:0:0:0:
320,192,158881,1,0,0:0:0:0:
448,192,158960,1,0,0:0:0:0:
64,192,158960,1,0,0:0:0:0:
192,192,159038,1,0,0:0:0:0:
320,192,159038,1,0,0:0:0:0:
448,192,159117,1,0,0:0:0:0:
64,192,159117,1,0,0:0:0:0:
192,192,159195,1,0,0:0:0:0:
320,192,159195,1,0,0:0:0:0:
448,192,159274,1,0,0:0:0:0:
64,192,159274,1,0,0:0:0:0:
192,192,159352,1,0,0:0:0:0:
320,192,159352,1,0,0:0:0:0:
448,192,159431,1,0,0:0:0:0:
192,192,159509,1,0,0:0:0:0:
64,192,159509,1,0,0:0:0:0:
320,192,159588,1,0,0:0:0:0:
448,192,159588,1,0,0:0:0:0:
192,192,159666,1,0,0:0:0:0:
64,192,159666,1,0,0:0:0:0:
320,192,159745,1,0,0:0:0:0:
448,192,159745,1,0,0:0:0:0:
192,192,159823,1,0,0:0:0:0:
64,192,159823,1,0,0:0:0:0:
320,192,159902,1,0,0:0:0:0:
448,192,159902,1,0,0:0:0:0:
192,192,159980,1,0,0:0:0:0:
64,192,159980,1,0,0:0:0:0:
320,192,160059,1,0,0:0:0:0:
448,192,160059,1,0,0:0:0:0:
64,192,160138,1,0,0:0:0:0:
192,192,160177,1,0,0:0:0:0:
320,192,160216,1,0,0:0:0:0:
448,192,160255,1,0,0:0:0:0:
64,192,160295,1,0,0:0:0:0:
192,192,160334,1,0,0:0:0:0:
320,192,160373,1,0,0:0:0:0:
448,192,160412,1,0,0:0:0:0:
192,192,160452,1,0,0:0:0:0:
64,192,160491,1,0,0:0:0:0:
448,192,160530,1,0,0:0:0:0:
320,192,160569,1,0,0:0:0:0:
192,192,160609,1,0,0:0:0:0:
64,192,160648,1,0,0:0:0:0:
448,192,160687,1,0,0:0:0:0:
320,192,160727,1,0,0:0:0:0:
192,192,160766,1,0,0:0:0:0:
64,192,160805,1,0,0:0:0:0:
448,192,160844,1,0,0:0:0:0:
320,192,160884,1,0,0:0:0:0:
64,192,160923,1,0,0:0:0:0:
192,192,160962,1,0,0:0:0:0:
320,192,161001,1,0,0:0:0:0:
448,192,161041,1,0,0:0:0:0:
64,192,161080,1,0,0:0:0:0:
192,192,161119,1,0,0:0:0:0:
320,192,161159,1,0,0:0:0:0:
448,192,161198,1,0,0:0:0:0:
192,192,161237,1,0,0:0:0:0:
64,192,161276,1,0,0:0:0:0:
448,192,161316,1,0,0:0:0:0:
320,192,161355,1,0,0:0:0:0:
192,192,161394,1,0,0:0:0:0:
64,192,161433,1,0,0:0:0:0:
448,192,161473,1,0,0:0:0:0:
320,192,161512,1,0,0:0:0:0:
192,192,161551,1,0,0:0:0:0:
64,192,161590,1,0,0:0:0:0:
320,192,161630,1,0,0:0:0:0:
448,192,161669,1,0,0:0:0:0:
64,192,161708,1,0,0:0:0:0:
192,192,161748,1,0,0:0:0:0:
320,192,161787,1,0,0:0:0:0:
448,192,161826,1,0,0:0:0:0:
64,192,161865,1,0,0:0:0:0:
192,192,161905,1,0,0:0:0:0:
448,192,161944,1,0,0:0:0:0:
320,192,161983,1,0,0:0:0:0:
64,192,162022,1,0,0:0:0:0:
192,192,162062,1,0,0:0:0:0:
448,192,162101,1,0,0:0:0:0:
320,192,162140,1,0,0:0:0:0:
64,192,162179,1,0,0:0:0:0:
192,192,162219,1,0,0:0:0:0:
448,192,162258,1,0,0:0:0:0:
320,192,162297,1,0,0:0:0:0:
192,192,162337,1,0,0:0:0:0:
64,192,162337,1,0,0:0:0:0:
448,192,162651,128,0,165164:0:0:0:0:
448,192,166577,1,0,0:0:0:0:
320,192,166577,1,0,0:0:0:0:
448,192,166891,1,0,0:0:0:0:
320,192,166891,1,0,0:0:0:0:
448,192,167206,1,0,0:0:0:0:
320,192,167206,1,0,0:0:0:0:
448,192,167520,1,0,0:0:0:0:
320,192,167520,1,0,0:0:0:0:
448,192,167834,1,0,0:0:0:0:
320,192,167834,1,0,0:0:0:0:
448,192,168148,1,0,0:0:0:0:
192,192,168148,1,0,0:0:0:0:
320,192,168305,1,0,0:0:0:0:
64,192,168305,1,0,0:0:0:0:
64,192,168462,1,0,0:0:0:0:
448,192,168462,1,0,0:0:0:0:
320,192,168619,1,0,0:0:0:0:
448,192,168619,1,0,0:0:0:0:
192,192,168698,1,0,0:0:0:0:
64,192,168698,1,0,0:0:0:0:
320,192,168776,1,0,0:0:0:0:
448,192,168776,1,0,0:0:0:0:
320,192,168933,1,0,0:0:0:0:
192,192,168933,1,0,0:0:0:0:
64,192,168933,1,0,0:0:0:0:
64,192,169090,1,0,0:0:0:0:
448,192,169090,1,0,0:0:0:0:
192,192,169248,1,0,0:0:0:0:
320,192,169248,1,0,0:0:0:0:
448,192,169248,1,0,0:0:0:0:
192,192,169405,1,0,0:0:0:0:
64,192,169405,1,0,0:0:0:0:
64,192,169562,1,0,0:0:0:0:
320,192,169562,1,0,0:0:0:0:
448,192,169562,1,0,0:0:0:0:
192,192,169719,1,0,0:0:0:0:
448,192,169719,1,0,0:0:0:0:
320,192,169876,1,0,0:0:0:0:
192,192,169876,1,0,0:0:0:0:
64,192,169876,1,0,0:0:0:0:
320,192,170033,1,0,0:0:0:0:
448,192,170033,1,0,0:0:0:0:
192,192,170190,1,0,0:0:0:0:
64,192,170190,1,0,0:0:0:0:
448,192,170190,128,0,170229:0:0:0:0:
320,192,170347,1,0,0:0:0:0:
192,192,170347,128,0,170386:0:0:0:0:
320,192,170504,1,0,0:0:0:0:
448,192,170504,1,0,0:0:0:0:
64,192,170504,128,0,170543:0:0:0:0:
192,192,170661,1,0,0:0:0:0:
448,192,170661,128,0,170700:0:0:0:0:
192,192,170818,1,0,0:0:0:0:
320,192,170818,1,0,0:0:0:0:
64,192,170818,1,0,0:0:0:0:
64,192,170975,128,0,171015:0:0:0:0:
448,192,170975,1,0,0:0:0:0:
448,192,171132,128,0,171172:0:0:0:0:
192,192,171132,1,0,0:0:0:0:
320,192,171132,1,0,0:0:0:0:
192,192,171289,128,0,171329:0:0:0:0:
64,192,171289,1,0,0:0:0:0:
320,192,171446,128,0,171486:0:0:0:0:
64,192,171446,1,0,0:0:0:0:
448,192,171446,1,0,0:0:0:0:
192,192,171604,1,0,0:0:0:0:
448,192,171604,1,0,0:0:0:0:
320,192,171761,1,0,0:0:0:0:
192,192,171761,1,0,0:0:0:0:
64,192,171761,1,0,0:0:0:0:
320,192,171918,1,0,0:0:0:0:
448,192,171918,1,0,0:0:0:0:
192,192,172075,1,0,0:0:0:0:
64,192,172075,1,0,0:0:0:0:
448,192,172075,1,0,0:0:0:0:
64,192,172232,1,0,0:0:0:0:
320,192,172232,1,0,0:0:0:0:
192,192,172389,1,0,0:0:0:0:
320,192,172389,1,0,0:0:0:0:
448,192,172389,1,0,0:0:0:0:
192,192,172546,1,0,0:0:0:0:
64,192,172546,1,0,0:0:0:0:
64,192,172703,1,0,0:0:0:0:
320,192,172703,1,0,0:0:0:0:
448,192,172703,128,0,172742:0:0:0:0:
192,192,172860,128,0,172899:0:0:0:0:
448,192,172860,1,0,0:0:0:0:
320,192,173017,128,0,173056:0:0:0:0:
192,192,173017,1,0,0:0:0:0:
64,192,173017,1,0,0:0:0:0:
64,192,173174,128,0,173213:0:0:0:0:
448,192,173174,1,0,0:0:0:0:
192,192,173331,1,0,0:0:0:0:
320,192,173331,1,0,0:0:0:0:
448,192,173331,1,0,0:0:0:0:
192,192,173488,128,0,173528:0:0:0:0:
64,192,173488,1,0,0:0:0:0:
64,192,173645,1,0,0:0:0:0:
320,192,173645,128,0,173685:0:0:0:0:
448,192,173645,1,0,0:0:0:0:
192,192,173802,1,0,0:0:0:0:
448,192,173802,128,0,173842:0:0:0:0:
320,192,173960,1,0,0:0:0:0:
64,192,173960,1,0,0:0:0:0:
192,192,173960,128,0,173999:0:0:0:0:
320,192,174117,1,0,0:0:0:0:
448,192,174117,1,0,0:0:0:0:
192,192,174274,1,0,0:0:0:0:
64,192,174274,1,0,0:0:0:0:
448,192,174274,1,0,0:0:0:0:
320,192,174431,1,0,0:0:0:0:
64,192,174431,1,0,0:0:0:0:
192,192,174588,1,0,0:0:0:0:
320,192,174588,1,0,0:0:0:0:
448,192,174588,1,0,0:0:0:0:
64,192,174745,1,0,0:0:0:0:
448,192,174745,1,0,0:0:0:0:
320,192,174902,1,0,0:0:0:0:
192,192,174902,1,0,0:0:0:0:
64,192,174902,1,0,0:0:0:0:
320,192,175059,1,0,0:0:0:0:
448,192,175059,1,0,0:0:0:0:
192,192,175216,1,0,0:0:0:0:
448,192,175216,1,0,0:0:0:0:
64,192,175216,1,0,0:0:0:0:
64,192,175373,1,0,0:0:0:0:
192,192,175373,1,0,0:0:0:0:
192,192,175530,1,0,0:0:0:0:
320,192,175530,1,0,0:0:0:0:
448,192,175530,1,0,0:0:0:0:
320,192,175687,1,0,0:0:0:0:
448,192,175687,1,0,0:0:0:0:
64,192,175844,1,0,0:0:0:0:
320,192,175844,1,0,0:0:0:0:
192,192,175844,1,0,0:0:0:0:
192,192,176001,1,0,0:0:0:0:
64,192,176001,1,0,0:0:0:0:
64,192,176159,1,0,0:0:0:0:
320,192,176159,1,0,0:0:0:0:
448,192,176159,1,0,0:0:0:0:
192,192,176316,1,0,0:0:0:0:
448,192,176316,1,0,0:0:0:0:
320,192,176473,1,0,0:0:0:0:
192,192,176473,1,0,0:0:0:0:
64,192,176473,1,0,0:0:0:0:
320,192,176630,1,0,0:0:0:0:
448,192,176630,1,0,0:0:0:0:
192,192,176787,1,0,0:0:0:0:
64,192,176787,1,0,0:0:0:0:
448,192,176787,1,0,0:0:0:0:
320,192,176944,1,0,0:0:0:0:
64,192,176944,1,0,0:0:0:0:
192,192,177101,1,0,0:0:0:0:
320,192,177101,1,0,0:0:0:0:
64,192,177101,1,0,0:0:0:0:
448,192,177258,1,0,0:0:0:0:
192,192,177258,1,0,0:0:0:0:
320,192,177415,1,0,0:0:0:0:
64,192,177415,1,0,0:0:0:0:
448,192,177415,1,0,0:0:0:0:
320,192,177572,1,0,0:0:0:0:
192,192,177572,1,0,0:0:0:0:
448,192,177729,1,0,0:0:0:0:
192,192,177729,1,0,0:0:0:0:
320,192,178043,1,0,0:0:0:0:
64,192,178043,1,0,0:0:0:0:
448,192,178357,1,0,0:0:0:0:
192,192,178357,128,0,178515:0:0:0:0:
64,192,178357,1,0,0:0:0:0:
320,192,178515,128,0,178672:0:0:0:0:
64,192,178672,1,0,0:0:0:0:
448,192,178672,128,0,178829:0:0:0:0:
64,192,178829,128,0,178986:0:0:0:0:
192,192,178986,1,0,0:0:0:0:
320,192,178986,1,0,0:0:0:0:
448,192,178986,1,0,0:0:0:0:
192,192,179143,1,0,0:0:0:0:
64,192,179143,1,0,0:0:0:0:
64,192,179300,1,0,0:0:0:0:
320,192,179300,1,0,0:0:0:0:
448,192,179300,1,0,0:0:0:0:
192,192,179457,1,0,0:0:0:0:
448,192,179457,1,0,0:0:0:0:
320,192,179614,1,0,0:0:0:0:
192,192,179614,1,0,0:0:0:0:
64,192,179614,1,0,0:0:0:0:
320,192,179771,1,0,0:0:0:0:
448,192,179771,1,0,0:0:0:0:
192,192,179928,1,0,0:0:0:0:
64,192,179928,1,0,0:0:0:0:
448,192,179928,1,0,0:0:0:0:
320,192,180085,1,0,0:0:0:0:
64,192,180085,1,0,0:0:0:0:
192,192,180242,1,0,0:0:0:0:
320,192,180242,1,0,0:0:0:0:
448,192,180242,128,0,180282:0:0:0:0:
64,192,180399,1,0,0:0:0:0:
192,192,180399,128,0,180439:0:0:0:0:
64,192,180556,1,0,0:0:0:0:
320,192,180556,128,0,180596:0:0:0:0:
448,192,180556,1,0,0:0:0:0:
192,192,180713,128,0,180753:0:0:0:0:
448,192,180713,1,0,0:0:0:0:
320,192,180871,1,0,0:0:0:0:
192,192,180871,1,0,0:0:0:0:
64,192,180871,1,0,0:0:0:0:
320,192,181028,128,0,181067:0:0:0:0:
448,192,181028,1,0,0:0:0:0:
192,192,181185,128,0,181224:0:0:0:0:
64,192,181185,1,0,0:0:0:0:
448,192,181185,1,0,0:0:0:0:
64,192,181342,128,0,181381:0:0:0:0:
320,192,181342,1,0,0:0:0:0:
192,192,181499,128,0,181538:0:0:0:0:
320,192,181499,1,0,0:0:0:0:
448,192,181499,1,0,0:0:0:0:
64,192,181656,1,0,0:0:0:0:
448,192,181656,1,0,0:0:0:0:
320,192,181813,1,0,0:0:0:0:
192,192,181813,1,0,0:0:0:0:
64,192,181813,1,0,0:0:0:0:
320,192,181970,1,0,0:0:0:0:
448,192,181970,1,0,0:0:0:0:
192,192,182127,1,0,0:0:0:0:
64,192,182127,1,0,0:0:0:0:
448,192,182127,1,0,0:0:0:0:
320,192,182284,1,0,0:0:0:0:
64,192,182284,1,0,0:0:0:0:
192,192,182441,1,0,0:0:0:0:
320,192,182441,1,0,0:0:0:0:
448,192,182441,1,0,0:0:0:0:
64,192,182598,1,0,0:0:0:0:
192,192,182598,1,0,0:0:0:0:
64,192,182755,1,0,0:0:0:0:
320,192,182755,1,0,0:0:0:0:
448,192,182755,128,0,182795:0:0:0:0:
192,192,182912,1,0,0:0:0:0:
320,192,182912,128,0,182952:0:0:0:0:
192,192,183069,128,0,183109:0:0:0:0:
64,192,183069,1,0,0:0:0:0:
448,192,183069,1,0,0:0:0:0:
64,192,183227,128,0,183266:0:0:0:0:
320,192,183227,1,0,0:0:0:0:
192,192,183384,1,0,0:0:0:0:
320,192,183384,1,0,0:0:0:0:
448,192,183384,1,0,0:0:0:0:
192,192,183541,128,0,183580:0:0:0:0:
64,192,183541,1,0,0:0:0:0:
64,192,183698,1,0,0:0:0:0:
448,192,183698,128,0,183737:0:0:0:0:
320,192,183698,1,0,0:0:0:0:
192,192,183855,128,0,183894:0:0:0:0:
448,192,183855,1,0,0:0:0:0:
192,192,184012,1,0,0:0:0:0:
64,192,184012,1,0,0:0:0:0:
320,192,184012,128,0,184051:0:0:0:0:
64,192,184169,1,0,0:0:0:0:
448,192,184169,1,0,0:0:0:0:
192,192,184326,1,0,0:0:0:0:
320,192,184326,1,0,0:0:0:0:
448,192,184326,1,0,0:0:0:0:
192,192,184483,1,0,0:0:0:0:
64,192,184483,1,0,0:0:0:0:
64,192,184640,1,0,0:0:0:0:
320,192,184640,1,0,0:0:0:0:
448,192,184640,1,0,0:0:0:0:
192,192,184797,1,0,0:0:0:0:
448,192,184797,1,0,0:0:0:0:
320,192,184954,1,0,0:0:0:0:
192,192,184954,1,0,0:0:0:0:
64,192,184954,1,0,0:0:0:0:
448,192,185111,1,0,0:0:0:0:
320,192,185111,1,0,0:0:0:0:
192,192,185268,1,0,0:0:0:0:
64,192,185268,1,0,0:0:0:0:
448,192,185268,1,0,0:0:0:0:
192,192,185426,1,0,0:0:0:0:
64,192,185426,1,0,0:0:0:0:
64,192,185583,1,0,0:0:0:0:
320,192,185583,1,0,0:0:0:0:
448,192,185583,1,0,0:0:0:0:
320,192,185740,1,0,0:0:0:0:
448,192,185740,1,0,0:0:0:0:
320,192,185897,1,0,0:0:0:0:
192,192,185897,1,0,0:0:0:0:
64,192,185897,1,0,0:0:0:0:
192,192,186054,1,0,0:0:0:0:
64,192,186054,1,0,0:0:0:0:
64,192,186211,1,0,0:0:0:0:
320,192,186211,1,0,0:0:0:0:
448,192,186211,1,0,0:0:0:0:
448,192,186368,1,0,0:0:0:0:
320,192,186368,1,0,0:0:0:0:
192,192,186525,1,0,0:0:0:0:
64,192,186525,1,0,0:0:0:0:
448,192,186525,1,0,0:0:0:0:
320,192,186682,1,0,0:0:0:0:
64,192,186682,1,0,0:0:0:0:
192,192,186839,1,0,0:0:0:0:
320,192,186839,1,0,0:0:0:0:
448,192,186839,1,0,0:0:0:0:
192,192,186996,1,0,0:0:0:0:
64,192,186996,1,0,0:0:0:0:
192,192,187153,1,0,0:0:0:0:
64,192,187153,1,0,0:0:0:0:
448,192,187153,1,0,0:0:0:0:
320,192,187310,1,0,0:0:0:0:
192,192,187310,1,0,0:0:0:0:
64,192,187467,1,0,0:0:0:0:
320,192,187467,1,0,0:0:0:0:
448,192,187467,1,0,0:0:0:0:
192,192,187624,1,0,0:0:0:0:
448,192,187624,1,0,0:0:0:0:
320,192,187782,1,0,0:0:0:0:
448,192,187782,1,0,0:0:0:0:
192,192,187782,1,0,0:0:0:0:
64,192,187939,1,0,0:0:0:0:
64,192,188253,1,0,0:0:0:0:
448,192,188410,128,0,188567:0:0:0:0:
64,192,188567,128,0,188724:0:0:0:0:
320,192,188724,128,0,188881:0:0:0:0:
192,192,188881,128,0,189038:0:0:0:0:
320,192,189038,1,0,0:0:0:0:
448,192,189038,1,0,0:0:0:0:
64,192,189038,1,0,0:0:0:0:
192,192,189117,1,0,0:0:0:0:
320,192,189195,1,0,0:0:0:0:
448,192,189274,1,0,0:0:0:0:
192,192,189352,1,0,0:0:0:0:
64,192,189352,1,0,0:0:0:0:
320,192,189431,1,0,0:0:0:0:
448,192,189509,1,0,0:0:0:0:
192,192,189588,1,0,0:0:0:0:
448,192,189666,1,0,0:0:0:0:
64,192,189666,1,0,0:0:0:0:
320,192,189745,1,0,0:0:0:0:
192,192,189823,1,0,0:0:0:0:
64,192,189902,1,0,0:0:0:0:
448,192,189980,1,0,0:0:0:0:
320,192,189980,1,0,0:0:0:0:
192,192,190059,1,0,0:0:0:0:
64,192,190138,1,0,0:0:0:0:
320,192,190216,1,0,0:0:0:0:
192,192,190295,1,0,0:0:0:0:
448,192,190295,1,0,0:0:0:0:
64,192,190373,1,0,0:0:0:0:
320,192,190452,1,0,0:0:0:0:
448,192,190452,1,0,0:0:0:0:
192,192,190530,1,0,0:0:0:0:
64,192,190609,1,0,0:0:0:0:
448,192,190609,1,0,0:0:0:0:
320,192,190687,1,0,0:0:0:0:
192,192,190766,1,0,0:0:0:0:
64,192,190766,1,0,0:0:0:0:
320,192,190844,1,0,0:0:0:0:
448,192,190923,1,0,0:0:0:0:
64,192,191001,1,0,0:0:0:0:
192,192,191080,1,0,0:0:0:0:
320,192,191080,1,0,0:0:0:0:
448,192,191159,1,0,0:0:0:0:
192,192,191237,1,0,0:0:0:0:
64,192,191237,1,0,0:0:0:0:
448,192,191316,1,0,0:0:0:0:
320,192,191394,1,0,0:0:0:0:
192,192,191394,1,0,0:0:0:0:
64,192,191473,1,0,0:0:0:0:
320,192,191551,1,0,0:0:0:0:
448,192,191551,1,0,0:0:0:0:
192,192,191630,1,0,0:0:0:0:
320,192,191708,1,0,0:0:0:0:
448,192,191787,1,0,0:0:0:0:
320,192,191865,1,0,0:0:0:0:
192,192,191865,1,0,0:0:0:0:
64,192,191944,1,0,0:0:0:0:
192,192,192022,1,0,0:0:0:0:
320,192,192101,1,0,0:0:0:0:
64,192,192179,1,0,0:0:0:0:
448,192,192179,1,0,0:0:0:0:
192,192,192258,1,0,0:0:0:0:
320,192,192337,1,0,0:0:0:0:
192,192,192415,1,0,0:0:0:0:
64,192,192494,1,0,0:0:0:0:
448,192,192494,1,0,0:0:0:0:
320,192,192572,1,0,0:0:0:0:
192,192,192651,1,0,0:0:0:0:
64,192,192729,1,0,0:0:0:0:
320,192,192808,1,0,0:0:0:0:
448,192,192808,1,0,0:0:0:0:
192,192,192886,1,0,0:0:0:0:
64,192,192965,1,0,0:0:0:0:
448,192,192965,1,0,0:0:0:0:
320,192,193043,1,0,0:0:0:0:
192,192,193122,1,0,0:0:0:0:
64,192,193122,1,0,0:0:0:0:
448,192,193200,1,0,0:0:0:0:
320,192,193279,1,0,0:0:0:0:
192,192,193279,1,0,0:0:0:0:
64,192,193357,1,0,0:0:0:0:
448,192,193436,1,0,0:0:0:0:
320,192,193515,1,0,0:0:0:0:
192,192,193593,1,0,0:0:0:0:
64,192,193593,1,0,0:0:0:0:
320,192,193672,1,0,0:0:0:0:
192,192,193750,1,0,0:0:0:0:
448,192,193750,1,0,0:0:0:0:
64,192,193829,1,0,0:0:0:0:
320,192,193907,1,0,0:0:0:0:
448,192,193907,1,0,0:0:0:0:
192,192,193986,1,0,0:0:0:0:
64,192,194064,1,0,0:0:0:0:
320,192,194064,1,0,0:0:0:0:
448,192,194143,1,0,0:0:0:0:
192,192,194221,1,0,0:0:0:0:
320,192,194300,1,0,0:0:0:0:
64,192,194378,1,0,0:0:0:0:
448,192,194378,1,0,0:0:0:0:
192,192,194457,1,0,0:0:0:0:
64,192,194535,1,0,0:0:0:0:
448,192,194614,1,0,0:0:0:0:
320,192,194693,1,0,0:0:0:0:
192,192,194693,1,0,0:0:0:0:
64,192,194771,1,0,0:0:0:0:
448,192,194850,1,0,0:0:0:0:
320,192,194928,1,0,0:0:0:0:
192,192,195007,1,0,0:0:0:0:
64,192,195007,1,0,0:0:0:0:
448,192,195085,1,0,0:0:0:0:
320,192,195164,1,0,0:0:0:0:
64,192,195164,1,0,0:0:0:0:
192,192,195242,1,0,0:0:0:0:
320,192,195321,1,0,0:0:0:0:
448,192,195399,1,0,0:0:0:0:
192,192,195478,1,0,0:0:0:0:
64,192,195478,1,0,0:0:0:0:
320,192,195556,1,0,0:0:0:0:
192,192,195635,1,0,0:0:0:0:
64,192,195635,1,0,0:0:0:0:
448,192,195713,1,0,0:0:0:0:
320,192,195792,1,0,0:0:0:0:
192,192,195792,1,0,0:0:0:0:
64,192,195871,1,0,0:0:0:0:
448,192,195949,1,0,0:0:0:0:
320,192,196028,1,0,0:0:0:0:
64,192,196106,1,0,0:0:0:0:
448,192,196106,1,0,0:0:0:0:
192,192,196185,1,0,0:0:0:0:
320,192,196263,1,0,0:0:0:0:
64,192,196263,1,0,0:0:0:0:
448,192,196342,1,0,0:0:0:0:
192,192,196420,1,0,0:0:0:0:
64,192,196420,1,0,0:0:0:0:
320,192,196499,1,0,0:0:0:0:
192,192,196577,1,0,0:0:0:0:
448,192,196577,1,0,0:0:0:0:
64,192,196656,1,0,0:0:0:0:
320,192,196734,1,0,0:0:0:0:
192,192,196813,1,0,0:0:0:0:
64,192,196891,1,0,0:0:0:0:
448,192,196891,1,0,0:0:0:0:
320,192,196970,1,0,0:0:0:0:
192,192,197049,1,0,0:0:0:0:
64,192,197049,1,0,0:0:0:0:
448,192,197127,1,0,0:0:0:0:
192,192,197206,1,0,0:0:0:0:
64,192,197206,1,0,0:0:0:0:
320,192,197284,1,0,0:0:0:0:
192,192,197363,1,0,0:0:0:0:
64,192,197441,1,0,0:0:0:0:
192,192,197520,1,0,0:0:0:0:
448,192,197520,1,0,0:0:0:0:
320,192,197598,1,0,0:0:0:0:
64,192,197677,1,0,0:0:0:0:
448,192,197677,1,0,0:0:0:0:
192,192,197755,1,0,0:0:0:0:
64,192,197834,1,0,0:0:0:0:
448,192,197834,1,0,0:0:0:0:
320,192,197834,1,0,0:0:0:0:
192,192,197991,1,0,0:0:0:0:
320,192,198069,1,0,0:0:0:0:
448,192,198148,1,0,0:0:0:0:
192,192,198305,1,0,0:0:0:0:
64,192,198384,1,0,0:0:0:0:
320,192,198462,1,0,0:0:0:0:
448,192,198619,1,0,0:0:0:0:
192,192,198619,1,0,0:0:0:0:
64,192,198776,1,0,0:0:0:0:
448,192,198776,1,0,0:0:0:0:
320,192,198933,1,0,0:0:0:0:
64,192,198933,1,0,0:0:0:0:
192,192,199090,1,0,0:0:0:0:
320,192,199090,1,0,0:0:0:0:
448,192,199090,1,0,0:0:0:0:
64,192,199169,1,0,0:0:0:0:
192,192,199248,1,0,0:0:0:0:
320,192,199326,1,0,0:0:0:0:
64,192,199405,1,0,0:0:0:0:
448,192,199405,1,0,0:0:0:0:
192,192,199483,1,0,0:0:0:0:
64,192,199562,1,0,0:0:0:0:
320,192,199640,1,0,0:0:0:0:
192,192,199719,1,0,0:0:0:0:
448,192,199719,1,0,0:0:0:0:
320,192,199797,1,0,0:0:0:0:
64,192,199876,1,0,0:0:0:0:
192,192,199954,1,0,0:0:0:0:
64,192,200033,1,0,0:0:0:0:
448,192,200033,1,0,0:0:0:0:
320,192,200111,1,0,0:0:0:0:
192,192,200190,1,0,0:0:0:0:
448,192,200268,1,0,0:0:0:0:
320,192,200347,1,0,0:0:0:0:
192,192,200347,1,0,0:0:0:0:
64,192,200426,1,0,0:0:0:0:
320,192,200504,1,0,0:0:0:0:
448,192,200504,1,0,0:0:0:0:
192,192,200583,1,0,0:0:0:0:
64,192,200661,1,0,0:0:0:0:
448,192,200661,1,0,0:0:0:0:
320,192,200740,1,0,0:0:0:0:
192,192,200818,1,0,0:0:0:0:
64,192,200818,1,0,0:0:0:0:
320,192,200897,1,0,0:0:0:0:
64,192,200975,1,0,0:0:0:0:
192,192,201054,1,0,0:0:0:0:
320,192,201132,1,0,0:0:0:0:
448,192,201132,1,0,0:0:0:0:
64,192,201211,1,0,0:0:0:0:
192,192,201289,1,0,0:0:0:0:
320,192,201289,1,0,0:0:0:0:
448,192,201368,1,0,0:0:0:0:
192,192,201446,1,0,0:0:0:0:
64,192,201446,1,0,0:0:0:0:
448,192,201525,1,0,0:0:0:0:
320,192,201604,1,0,0:0:0:0:
192,192,201604,1,0,0:0:0:0:
64,192,201682,1,0,0:0:0:0:
192,192,201761,1,0,0:0:0:0:
320,192,201839,1,0,0:0:0:0:
64,192,201918,1,0,0:0:0:0:
448,192,201918,1,0,0:0:0:0:
192,192,201996,1,0,0:0:0:0:
320,192,202075,1,0,0:0:0:0:
192,192,202153,1,0,0:0:0:0:
320,192,202232,1,0,0:0:0:0:
448,192,202232,1,0,0:0:0:0:
64,192,202310,1,0,0:0:0:0:
192,192,202389,1,0,0:0:0:0:
320,192,202467,1,0,0:0:0:0:
192,192,202546,1,0,0:0:0:0:
64,192,202546,1,0,0:0:0:0:
448,192,202624,1,0,0:0:0:0:
320,192,202703,1,0,0:0:0:0:
192,192,202782,1,0,0:0:0:0:
64,192,202860,1,0,0:0:0:0:
448,192,202860,1,0,0:0:0:0:
320,192,202939,1,0,0:0:0:0:
192,192,203017,1,0,0:0:0:0:
448,192,203017,1,0,0:0:0:0:
64,192,203096,1,0,0:0:0:0:
448,192,203174,1,0,0:0:0:0:
192,192,203174,1,0,0:0:0:0:
320,192,203253,1,0,0:0:0:0:
64,192,203331,1,0,0:0:0:0:
192,192,203331,1,0,0:0:0:0:
448,192,203410,1,0,0:0:0:0:
320,192,203488,1,0,0:0:0:0:
192,192,203567,1,0,0:0:0:0:
320,192,203645,1,0,0:0:0:0:
448,192,203645,1,0,0:0:0:0:
64,192,203724,1,0,0:0:0:0:
192,192,203802,1,0,0:0:0:0:
320,192,203802,1,0,0:0:0:0:
448,192,203881,1,0,0:0:0:0:
192,192,203960,1,0,0:0:0:0:
64,192,203960,1,0,0:0:0:0:
320,192,204038,1,0,0:0:0:0:
64,192,204117,1,0,0:0:0:0:
448,192,204117,1,0,0:0:0:0:
192,192,204274,128,0,204431:0:0:0:0:
320,192,204431,1,0,0:0:0:0:
64,192,204588,128,0,204745:0:0:0:0:
192,192,204745,1,0,0:0:0:0:
320,192,204902,128,0,205059:0:0:0:0:
64,192,205059,1,0,0:0:0:0:
192,192,205059,1,0,0:0:0:0:
320,192,205216,1,0,0:0:0:0:
448,192,205216,1,0,0:0:0:0:
192,192,205373,1,0,0:0:0:0:
64,192,205373,1,0,0:0:0:0:
64,192,205530,1,0,0:0:0:0:
448,192,205530,1,0,0:0:0:0:
192,192,205687,1,0,0:0:0:0:
448,192,205687,1,0,0:0:0:0:
320,192,205844,1,0,0:0:0:0:
64,192,205844,1,0,0:0:0:0:
192,192,206001,1,0,0:0:0:0:
320,192,206080,1,0,0:0:0:0:
448,192,206159,1,0,0:0:0:0:
192,192,206237,1,0,0:0:0:0:
64,192,206316,1,0,0:0:0:0:
320,192,206394,1,0,0:0:0:0:
192,192,206473,1,0,0:0:0:0:
64,192,206551,1,0,0:0:0:0:
320,192,206630,1,0,0:0:0:0:
448,192,206630,1,0,0:0:0:0:
192,192,206708,1,0,0:0:0:0:
64,192,206708,1,0,0:0:0:0:
320,192,206787,1,0,0:0:0:0:
448,192,206787,1,0,0:0:0:0:
192,192,206865,1,0,0:0:0:0:
64,192,206865,1,0,0:0:0:0:
320,192,206944,1,0,0:0:0:0:
448,192,206944,1,0,0:0:0:0:
192,192,207022,1,0,0:0:0:0:
64,192,207022,1,0,0:0:0:0:
320,192,207101,1,0,0:0:0:0:
448,192,207101,1,0,0:0:0:0:
192,192,207179,1,0,0:0:0:0:
64,192,207179,1,0,0:0:0:0:
320,192,207258,1,0,0:0:0:0:
448,192,207258,1,0,0:0:0:0:
192,192,207337,1,0,0:0:0:0:
64,192,207337,1,0,0:0:0:0:
320,192,207415,1,0,0:0:0:0:
448,192,207415,1,0,0:0:0:0:
192,192,207494,1,0,0:0:0:0:
64,192,207494,1,0,0:0:0:0:
320,192,207572,1,0,0:0:0:0:
448,192,207572,1,0,0:0:0:0:
192,192,207651,1,0,0:0:0:0:
64,192,207651,1,0,0:0:0:0:
320,192,207729,1,0,0:0:0:0:
448,192,207729,1,0,0:0:0:0:
192,192,207808,1,0,0:0:0:0:
64,192,207808,1,0,0:0:0:0:
320,192,207886,1,0,0:0:0:0:
448,192,207886,1,0,0:0:0:0:
192,192,208043,128,0,208200:0:0:0:0:
64,192,208357,128,0,208515:0:0:0:0:
448,192,208672,1,0,0:0:0:0:
320,192,208672,1,0,0:0:0:0:
320,192,208829,1,0,0:0:0:0:
192,192,208829,1,0,0:0:0:0:
192,192,208986,1,0,0:0:0:0:
64,192,208986,1,0,0:0:0:0:
448,192,209143,128,0,211656:0:0:0:0:
320,192,209143,128,0,210399:0:0:0:0:
