osu file format v14

[General]
AudioFilename: viva.mp3
AudioLeadIn: 0
PreviewTime: 78632
Countdown: 0
SampleSet: Normal
StackLeniency: 0.6
Mode: 0
LetterboxInBreaks: 0
WidescreenStoryboard: 0

[Editor]
Bookmarks: 7521,21743,27076,35965,50187,64409,71521,78632
DistanceSpacing: 0.9
BeatDivisor: 4
GridSize: 4
TimelineZoom: 1

[Metadata]
Title:!Viva!
TitleUnicode:¡Viva!
Artist:Ryu*
ArtistUnicode:Ryu*
Creator:Jeremayer
Version:!Joy!
Source:beatmania IIDX 24 SINOBUZ
Tags:
BeatmapID:1221343
BeatmapSetID:576970

[Difficulty]
HPDrainRate:5.5
CircleSize:4
OverallDifficulty:8
ApproachRate:9.2
SliderMultiplier:1.6
SliderTickRate:2

[Events]
//Background and Video events
0,0,"BG.png",0,0
//Break Periods
2,21943,22854
2,23721,24409
//Storyboard Layer 0 (Background)
//Storyboard Layer 1 (Fail)
//Storyboard Layer 2 (Pass)
//Storyboard Layer 3 (Foreground)
//Storyboard Sound Samples

[TimingPoints]
410,444.444444444444,4,1,1,60,1,0
410,-100,4,1,1,60,0,0
7076,-76.9230769230769,4,1,1,60,0,0
7521,-83.3333333333333,4,1,1,60,0,0
27076,-71.4285714285714,4,1,1,60,0,0
30632,-58.8235294117647,4,1,1,60,0,0
32409,-71.4285714285714,4,1,1,60,0,0
34187,-58.8235294117647,4,1,1,60,0,0
35743,-71.4285714285714,4,1,1,60,0,0
35965,-41.6666666666667,4,1,1,60,0,0
36187,-52.6315789473684,4,1,1,60,0,0
48854,-100,4,1,1,60,0,0
49743,-76.9230769230769,4,1,1,60,0,0
56632,-66.6666666666667,4,1,1,60,0,0
56965,-55.5555555555556,4,1,1,60,0,0
57743,-76.9230769230769,4,1,1,60,0,0
58187,-55.5555555555556,4,1,1,60,0,0
58632,-76.9230769230769,4,1,1,60,0,0
59076,-55.5555555555556,4,1,1,60,0,0
60409,-76.9230769230769,4,1,1,60,0,0
60854,-55.5555555555556,4,1,1,60,0,0
61298,-76.9230769230769,4,1,1,60,0,0
61743,-55.5555555555556,4,1,1,60,0,0
63743,-76.9230769230769,4,1,1,60,0,0
64409,-55.5555555555556,4,1,1,60,0,0
70187,-100,4,1,1,60,0,0
71076,-76.9230769230769,4,1,1,60,0,0
71521,-55.5555555555556,4,1,1,60,0,0
71743,-76.9230769230769,4,1,1,60,0,0
72409,-55.5555555555556,4,1,1,60,0,0
73298,-55.5555555555556,4,1,1,60,0,0
73520,-76.9230769230769,4,1,1,60,0,0
74186,-55.5555555555556,4,1,1,60,0,0
77076,-58.8235294117647,4,1,1,60,0,0
78187,-76.9230769230769,4,1,1,60,0,0
78632,-37.037037037037,4,1,1,75,0,1
91521,-66.6666666666667,4,1,1,75,0,1
92409,-76.9230769230769,4,1,1,75,0,1
92854,-37.037037037037,4,1,1,75,0,1
106632,-76.9230769230769,4,1,1,75,0,1
107076,-100,4,1,1,40,0,0

[HitObjects]
140,252,187,5,8,0:0:0:0:
404,152,410,1,12,0:0:0:0:
276,72,632,1,0,0:0:0:0:
276,72,743,1,0,0:0:0:0:
276,72,854,2,0,L|284:128,1,40
288,228,1076,1,0,0:0:0:0:
120,184,1298,2,0,P|84:145|72:96,1,80
104,84,1632,2,0,P|156:92|196:74,1,80
320,32,1965,2,0,L|348:68,1,40
472,216,2187,5,12,0:0:0:0:
344,332,2409,1,0,0:0:0:0:
344,332,2520,1,0,0:0:0:0:
344,332,2632,2,0,L|334:293,1,40
300,168,2854,2,0,L|291:206,1,40
232,340,3076,6,0,P|181:350|139:331,1,80
138,304,3409,2,0,P|164:262|163:222,1,80
64,48,3743,1,8,0:0:0:0:
304,116,3965,6,0,B|324:156|324:156|320:204,1,80,12|0,0:0|0:0,0:0:0:0:
324,216,4298,1,0,0:0:0:0:
324,216,4409,1,0,0:0:0:0:
432,140,4632,1,0,0:0:0:0:
192,236,4854,6,0,B|147:233|147:233|107:205,1,80,12|0,0:0|0:0,0:0:0:0:
116,168,5187,2,0,P|161:150|185:112,1,80
248,8,5521,1,0,0:0:0:0:
432,156,5743,5,8,0:0:0:0:
248,240,5965,1,12,0:0:0:0:
44,192,6187,6,0,B|20:172|20:172|12:132,2,53.3333333333333
180,220,6632,5,8,0:0:0:0:
252,119,6780,5,8,0:0:0:0:
129,106,6928,5,8,0:0:0:0:
296,184,7076,6,0,B|332:168|360:140|360:140|320:144,1,103.999995239258,12|0,0:0|0:0,0:0:0:0:
400,304,7521,6,0,P|374:247|324:210,1,95.9999970703126,12|0,0:0|0:0,0:0:0:0:
260,200,7854,1,0,0:0:0:0:
304,220,7965,2,0,P|356:188|380:152,1,95.9999970703126
192,52,8409,2,0,P|164:96|164:144,1,95.9999970703126
268,124,8743,2,0,L|372:132,1,95.9999970703126
448,160,9076,1,8,0:0:0:0:
476,196,9187,1,0,0:0:0:0:
484,244,9298,6,0,P|480:280|464:312,1,47.9999985351563,12|0,0:0|0:0,0:0:0:0:
260,332,9521,2,0,L|300:284,1,47.9999985351563
360,156,9743,2,0,P|344:96|312:64,1,95.9999970703126
144,200,10187,2,0,P|80:192|52:156,1,95.9999970703126
132,72,10521,2,0,L|240:128,1,95.9999970703126
292,188,10854,1,0,0:0:0:0:
312,232,10965,1,0,0:0:0:0:
308,280,11076,6,0,P|264:328|224:332,1,95.9999970703126,12|0,0:0|0:0,0:0:0:0:
172,288,11409,1,0,0:0:0:0:
220,284,11521,2,0,P|268:240|272:196,1,95.9999970703126
16,140,11965,2,0,P|68:180|116:184,1,95.9999970703126
172,112,12298,2,0,L|228:192,1,95.9999970703126
320,260,12632,1,8,0:0:0:0:
367,252,12743,1,0,0:0:0:0:
399,216,12854,6,0,P|407:180|401:142,1,47.9999985351563,12|0,0:0|0:0,0:0:0:0:
340,20,13076,2,0,L|280:68,1,47.9999985351563
168,156,13298,2,0,P|212:208|252:216,1,95.9999970703126
456,112,13743,2,0,P|484:156|488:204,1,95.9999970703126
380,192,14076,2,0,L|296:252,1,95.9999970703126
192,276,14409,1,0,0:0:0:0:
148,260,14521,1,0,0:0:0:0:
132,216,14632,6,0,P|145:158|174:128,1,95.9999970703126,12|0,0:0|0:0,0:0:0:0:
260,136,14965,1,0,0:0:0:0:
220,160,15076,2,0,P|160:144|132:96,1,95.9999970703126
364,40,15521,2,0,P|408:72|428:116,1,95.9999970703126
324,136,15854,2,0,L|228:184,1,95.9999970703126
168,260,16187,1,8,0:0:0:0:
168,308,16298,1,0,0:0:0:0:
196,344,16409,6,0,P|220:360|252:360,1,47.9999985351563,12|0,0:0|0:0,0:0:0:0:
424,316,16632,2,0,L|372:272,1,47.9999985351563
252,156,16854,2,0,P|236:96|252:60,1,95.9999970703126
408,232,17298,2,0,P|352:264|288:256,1,95.9999970703126
268,168,17632,2,0,L|180:220,1,95.9999970703126
60,236,17965,1,0,0:0:0:0:
20,208,18076,1,0,0:0:0:0:
12,160,18187,6,0,P|24:108|56:84,1,95.9999970703126,12|0,0:0|0:0,0:0:0:0:
120,148,18521,1,0,0:0:0:0:
156,180,18632,2,0,P|216:180|264:156,1,95.9999970703126
456,28,19076,2,0,P|480:76|460:140,1,95.9999970703126
372,136,19409,2,0,L|404:228,1,95.9999970703126
408,344,19743,1,8,0:0:0:0:
372,376,19854,1,0,0:0:0:0:
324,380,19965,6,0,P|296:376|264:360,1,47.9999985351563,12|0,0:0|0:0,0:0:0:0:
160,252,20187,2,0,L|212:236,1,47.9999985351563
332,120,20409,6,0,P|324:68|280:32,1,95.9999970703126
40,156,20854,2,0,P|96:172|140:156,1,95.9999970703126
152,56,21187,2,0,L|256:108,1,95.9999970703126
404,180,21521,5,8,0:0:0:0:
224,336,21743,1,12,0:0:0:0:
212,48,23521,5,12,0:0:0:0:
400,328,25076,5,8,0:0:0:0:
124,232,25298,1,12,0:0:0:0:
468,80,26187,5,12,0:0:0:0:
56,80,27076,6,8,B|24:128|24:128|28:192,1,111.999996582031
184,156,27521,6,8,L|264:152,1,74.6666643880209
380,260,27817,1,8,0:0:0:0:
380,260,27965,2,8,B|368:304|368:304|320:348,1,74.6666643880209
176,360,28261,1,8,0:0:0:0:
272,208,28409,1,12,0:0:0:0:
192,208,28854,6,8,B|240:168|240:168|256:108,1,111.999996582031
48,152,29298,6,8,L|20:240,1,74.6666643880209
128,332,29595,1,8,0:0:0:0:
244,188,29743,6,0,B|304:164|304:164|356:176,1,111.999996582031,12|8,0:0|0:0,0:0:0:0:
380,368,30187,6,8,L|296:324,1,74.6666643880209
232,208,30484,1,8,0:0:0:0:
340,108,30632,6,0,B|384:64|432:68|432:68|412:88|400:112,1,136.000002593994,4|0,0:0|0:0,0:0:0:0:
316,248,30928,6,0,B|316:280|280:304|280:304|252:276|260:240,1,136.000002593994,4|0,0:0|0:0,0:0:0:0:
208,84,31224,6,0,B|189:42|189:42|142:58|145:117,1,136.000002593994,4|0,0:0|0:0,0:0:0:0:
100,264,31521,6,0,P|48:288|52:228,1,136.000002593994,4|0,0:0|0:0,0:0:0:0:
208,152,31817,6,0,B|252:142|289:110|289:110|302:170,1,136.000002593994,4|0,0:0|0:0,0:0:0:0:
316,312,32113,6,0,B|312:352|312:352|364:328|384:262,1,136.000002593994,4|0,0:0|0:0,0:0:0:0:
396,136,32409,5,8,0:0:0:0:
236,217,32558,1,8,0:0:0:0:
245,38,32706,1,8,0:0:0:0:
84,124,32854,2,0,B|64:184|64:184|108:252,1,111.999996582031,12|8,0:0|0:0,0:0:0:0:
408,296,33298,5,8,0:0:0:0:
273,175,33447,1,8,0:0:0:0:
235,350,33595,1,8,0:0:0:0:
90,224,33743,2,0,B|64:184|64:184|84:124,1,111.999996582031,12|8,0:0|0:0,0:0:0:0:
332,256,34187,6,8,B|384:248|384:248|424:200,1,90.6666683959961,12|8,0:0|0:0,0:0:0:0:
384,12,34484,1,8,0:0:0:0:
216,136,34632,2,12,B|196:180|196:180|208:236,1,90.6666683959961
408,192,34928,1,8,0:0:0:0:
156,88,35076,1,12,0:0:0:0:
116,100,35409,6,0,P|64:112|108:148,1,136.000002593994
152,140,35743,2,0,L|216:120,1,55.9999982910157
464,104,35965,6,0,P|480:152|464:196,1,95.9999970703126,12|0,0:0|0:0,0:0:0:0:
344,320,36187,2,0,P|334:283|346:248,1,75.9999979705811
352,96,36409,1,0,0:0:0:0:
280,52,36521,2,0,P|240:36|196:48,1,75.9999979705811
216,168,36743,2,0,P|176:184|132:172,1,75.9999979705811
84,88,36965,1,0,0:0:0:0:
24,148,37076,2,0,P|16:188|40:228,1,75.9999979705811
145,179,37298,2,0,B|176:148|176:148|225:143,2,75.9999979705811,4|0|0,0:0|0:0|0:0,0:0:0:0:
232,284,37632,1,0,0:0:0:0:
288,344,37743,6,0,B|304:360|304:360|336:344|352:308,1,75.9999979705811,12|0,0:0|0:0,0:0:0:0:
404,172,37965,2,0,P|380:205|340:212,1,75.9999979705811
176,140,38187,1,0,0:0:0:0:
204,60,38298,2,0,P|240:36|277:40,1,75.9999979705811
272,220,38521,2,0,P|292:252|316:208,1,75.9999979705811
388,76,38743,2,0,B|424:56|424:56|476:64|504:104|504:104|480:112,1,151.999995941162
480,192,39076,1,8,0:0:0:0:
400,168,39187,1,0,0:0:0:0:
368,244,39298,1,0,0:0:0:0:
292,212,39409,1,0,0:0:0:0:
252,288,39521,6,0,B|240:308|240:308|208:292|192:264,1,75.9999979705811,12|0,0:0|0:0,0:0:0:0:
224,88,39743,2,0,P|196:64|148:72,1,75.9999979705811
104,212,39965,1,0,0:0:0:0:
28,180,40076,2,0,P|8:136|20:92,1,75.9999979705811
168,128,40298,2,0,P|200:160|252:156,1,75.9999979705811
332,52,40521,1,0,0:0:0:0:
416,44,40632,2,0,P|448:68|460:108,1,75.9999979705811
372,240,40854,1,8,0:0:0:0:
368,156,40965,2,0,B|376:76|296:68|296:68|304:108,1,151.999995941162
292,308,41298,6,0,B|297:330|297:330|263:341|232:333,1,75.9999979705811,12|0,0:0|0:0,0:0:0:0:
120,232,41521,2,0,P|136:188|188:172,1,75.9999979705811
312,220,41743,1,0,0:0:0:0:
352,144,41854,2,0,P|348:100|304:72,1,75.9999979705811
164,136,42076,2,0,P|208:128|248:168,1,75.9999979705811,8|0,0:0|0:0,0:0:0:0:
228,248,42298,2,0,P|272:256|312:216,1,75.9999979705811,8|0,0:0|0:0,0:0:0:0:
444,224,42521,1,0,0:0:0:0:
408,300,42632,2,0,B|376:328|376:328|340:300|340:300|276:352|200:316,1,227.999993911743,8|0,0:0|0:0,0:0:0:0:
60,184,43076,6,0,B|38:174|38:174|51:140|77:121,1,75.9999979705811,12|0,0:0|0:0,0:0:0:0:
256,52,43298,2,0,P|256:100|220:132,1,75.9999979705811
136,212,43521,1,0,0:0:0:0:
196,272,43632,2,0,P|240:284|280:260,1,75.9999979705811
336,124,43854,2,0,P|380:112|420:136,1,75.9999979705811
384,312,44076,2,0,P|332:256|356:180,1,151.999995941162
484,68,44409,2,0,P|452:32|408:24,1,75.9999979705811,8|0,0:0|0:0,0:0:0:0:
344,12,44632,1,0,0:0:0:0:
264,32,44743,1,0,0:0:0:0:
252,116,44854,6,0,B|236:148|208:164|208:164|204:136,1,75.9999979705811,12|0,0:0|0:0,0:0:0:0:
44,40,45076,2,0,P|40:84|80:120,1,75.9999979705811
168,192,45298,1,0,0:0:0:0:
232,244,45409,2,0,P|236:288|196:324,1,75.9999979705811
76,172,45632,2,0,P|100:136|140:124,1,75.9999979705811,8|0,0:0|0:0,0:0:0:0:
308,196,45854,2,0,B|360:148|343:86|343:86|304:120,1,151.999995941162
156,176,46187,1,0,0:0:0:0:
140,96,46298,2,0,P|170:64|215:59,1,75.9999979705811,8|0,0:0|0:0,0:0:0:0:
328,168,46521,1,0,0:0:0:0:
364,244,46632,6,0,P|400:256|434:242,1,75.9999979705811,12|0,0:0|0:0,0:0:0:0:
324,96,46854,2,0,P|288:84|254:98,1,75.9999979705811
124,168,47076,6,0,B|100:128|120:92|120:92|140:116,1,101.333330627441
228,216,47409,6,0,B|208:268|138:282|138:282|168:300,1,151.999995941162
352,324,47854,5,0,0:0:0:0:
412,264,47965,2,0,P|400:224|368:200,1,75.9999979705811,8|0,0:0|0:0,0:0:0:0:
212,160,48187,2,0,P|224:200|256:224,1,75.9999979705811,8|0,0:0|0:0,0:0:0:0:
396,76,48409,5,8,0:0:0:0:
96,132,48632,1,12,0:0:0:0:
248,204,48854,6,0,B|280:193|280:193|304:160,2,53.3333333333333
106,196,49299,5,8,0:0:0:0:
264,104,49447,5,8,0:0:0:0:
104,24,49595,5,8,0:0:0:0:
248,204,49743,6,0,B|283:219|323:222|323:222|293:194,1,103.999995239258,12|0,0:0|0:0,0:0:0:0:
192,72,50187,5,0,0:0:0:0:
336,44,50409,1,0,0:0:0:0:
336,44,50632,2,0,P|392:80|400:172,1,155.999992858887
456,232,51076,5,0,0:0:0:0:
312,276,51298,1,0,0:0:0:0:
312,276,51521,2,0,P|232:316|148:256,1,155.999992858887
88,316,51965,5,0,0:0:0:0:
160,180,52187,1,0,0:0:0:0:
160,180,52409,2,0,L|316:144,1,155.999992858887
360,64,52854,5,0,0:0:0:0:
212,56,53076,1,0,0:0:0:0:
212,56,53298,2,0,L|272:204,1,155.999992858887
360,204,53743,5,0,0:0:0:0:
232,292,53965,1,0,0:0:0:0:
232,292,54187,2,0,P|132:280|104:216,1,155.999992858887
20,200,54632,5,0,0:0:0:0:
160,108,54854,1,0,0:0:0:0:
160,108,55076,2,0,P|244:112|292:48,1,155.999992858887
388,44,55521,5,0,0:0:0:0:
448,184,55743,1,0,0:0:0:0:
324,292,55965,2,0,P|256:296|248:220,1,155.999992858887
160,192,56409,5,0,0:0:0:0:
328,96,56632,2,0,P|276:52|200:56,1,120.000004577637
136,96,56965,2,0,B|172:152|236:144|236:144|217:162,1,143.999995605469
116,288,57298,6,0,L|188:268,1,71.9999978027344,12|0,0:0|0:0,0:0:0:0:
328,232,57521,1,0,0:0:0:0:
236,144,57743,2,0,B|172:152|136:96|136:96|192:92,1,155.999992858887
236,44,58187,6,0,L|308:64,1,71.9999978027344,12|0,0:0|0:0,0:0:0:0:
448,100,58410,1,0,0:0:0:0:
360,216,58632,1,0,0:0:0:0:
204,188,58854,5,0,0:0:0:0:
204,188,59076,2,0,P|181:125|223:145,2,143.999995605469,12|8|0,0:0|0:0|0:0,0:0:0:0:
276,56,59743,2,0,L|201:52,1,71.9999978027344,8|0,0:0|0:0,0:0:0:0:
57,43,59966,1,12,0:0:0:0:
136,172,60187,1,0,0:0:0:0:
300,168,60409,2,0,B|358:151|409:176|409:176|380:210,1,155.999992858887
396,288,60854,6,0,L|324:268,1,71.9999978027344,12|0,0:0|0:0,0:0:0:0:
184,232,61077,1,0,0:0:0:0:
300,168,61298,2,0,B|360:165|401:125|401:125|363:102,1,155.999992858887
292,60,61743,6,0,L|220:80,1,71.9999978027344,12|0,0:0|0:0,0:0:0:0:
80,116,61966,1,0,0:0:0:0:
164,228,62187,1,0,0:0:0:0:
308,188,62410,5,0,0:0:0:0:
308,188,62632,2,0,P|310:121|276:153,2,143.999995605469,12|8|0,0:0|0:0|0:0,0:0:0:0:
236,52,63299,2,0,L|311:48,1,71.9999978027344,8|0,0:0|0:0,0:0:0:0:
456,40,63522,1,12,0:0:0:0:
392,172,63743,1,0,0:0:0:0:
248,116,63965,2,0,L|204:160,1,51.999997619629
64,312,64187,5,8,0:0:0:0:
352,320,64409,2,0,L|344:284,24,35.9999989013672,12|0|0|0|0|0|0|0|0|0|0|0|0|0|0|0|0|0|0|0|0|0|0|0|0,0:0|0:0|0:0|0:0|0:0|0:0|0:0|0:0|0:0|0:0|0:0|0:0|0:0|0:0|0:0|0:0|0:0|0:0|0:0|0:0|0:0|0:0|0:0|0:0|0:0,0:0:0:0:
232,40,66187,5,12,0:0:0:0:
508,168,67743,5,8,0:0:0:0:
264,344,67965,1,12,0:0:0:0:
16,144,68854,5,12,0:0:0:0:
488,164,69743,5,8,0:0:0:0:
212,144,69965,1,12,0:0:0:0:
344,216,70187,6,0,B|364:200|364:200|372:173,2,53.3333333333333
204,232,70632,5,8,0:0:0:0:
112,112,70780,5,8,0:0:0:0:
272,96,70928,5,8,0:0:0:0:
80,244,71076,6,0,B|48:266|10:276|10:276|25:255,1,103.999995239258,12|0,0:0|0:0,0:0:0:0:
208,68,71521,6,0,L|277:87,1,71.9999978027344,12|0,0:0|0:0,0:0:0:0:
420,128,71743,2,0,B|448:212|384:284|384:284|380:252|364:224,1,207.999990478516
272,220,72409,6,0,L|200:240,1,71.9999978027344
60,276,72632,1,0,0:0:0:0:
60,276,73076,1,0,0:0:0:0:
208,68,73298,6,0,L|277:87,1,71.9999978027344,12|0,0:0|0:0,0:0:0:0:
420,128,73520,2,0,B|448:212|384:284|384:284|380:252|364:224,1,207.999990478516
272,220,74186,6,0,L|200:240,1,71.9999978027344
60,276,74409,1,0,0:0:0:0:
264,44,74853,5,8,0:0:0:0:
488,232,75076,6,0,L|416:212,1,71.9999978027344,12|0,0:0|0:0,0:0:0:0:
276,176,75299,1,0,0:0:0:0:
4,316,75965,6,0,L|76:296,1,71.9999978027344,12|0,0:0|0:0,0:0:0:0:
216,260,76188,1,0,0:0:0:0:
216,260,76632,1,0,0:0:0:0:
384,104,76854,5,8,0:0:0:0:
132,108,77076,6,0,B|70:117|45:158|45:158|73:154|99:158,1,136.000002593994,12|0,0:0|0:0,0:0:0:0:
280,160,77447,6,0,B|312:188|316:224|316:224|280:216,1,90.6666683959961,8|0,0:0|0:0,0:0:0:0:
140,56,77743,5,8,0:0:0:0:
348,149,77891,5,8,0:0:0:0:
175,256,78039,5,8,0:0:0:0:
392,232,78187,6,0,B|432:224|464:200|464:200|416:192,1,103.999995239258,12|0,0:0|0:0,0:0:0:0:
176,200,78632,6,0,P|64:156|24:64,1,216.000000823975,12|0,0:0|0:0,0:0:0:0:
220,76,78965,2,0,P|332:120|372:212,1,216.000000823975
240,280,79298,2,0,L|412:132,1,216.000000823975
36,188,79743,6,0,P|144:220|252:176,1,216.000000823975,12|0,0:0|0:0,0:0:0:0:
344,88,80076,2,0,P|397:179|386:285,1,216.000000823975
300,148,80409,6,0,B|352:44|468:28|468:28|460:80|412:124,2,324.000001235962,12|0|0,0:0|0:0|0:0,0:0:0:0:
184,324,81298,2,0,B|127:227|7:218|7:218|-1:154|59:123,2,324.000001235962,12|0|12,0:0|0:0|0:0,0:0:0:0:
172,68,82187,6,0,P|288:56|388:120,1,216.000000823975,12|0,0:0|0:0,0:0:0:0:
252,180,82521,2,0,P|144:236|88:320,1,216.000000823975
264,320,82854,2,0,P|380:268|432:192,1,216.000000823975
180,52,83298,6,0,P|172:168|216:272,1,216.000000823975,12|0,0:0|0:0,0:0:0:0:
304,180,83632,2,0,L|488:40,1,216.000000823975
344,65,83965,6,0,B|236:101|204:217|204:217|264:213|312:173,2,324.000001235962,12|0|0,0:0|0:0|0:0,0:0:0:0:
396,252,84854,2,0,P|298:312|185:335,1,216.000000823975,8|0,0:0|0:0,0:0:0:0:
160,248,85187,1,8,0:0:0:0:
84,312,85299,1,12,0:0:0:0:
92,148,85521,2,0,P|53:182|103:188,1,108.000000411987,8|0,0:0|0:0,0:0:0:0:
212,128,85743,6,0,P|136:44|20:48,1,216.000000823975,12|0,0:0|0:0,0:0:0:0:
92,196,86076,2,0,P|168:280|284:276,1,216.000000823975
332,184,86409,2,0,L|496:360,1,216.000000823975
360,56,86854,6,0,P|240:100|188:192,1,216.000000823975,12|0,0:0|0:0,0:0:0:0:
220,316,87187,2,0,P|100:272|48:180,1,216.000000823975
128,92,87521,6,0,B|217:8|325:57|325:57|288:100|223:121,2,324.000001235962,12|0|0,0:0|0:0|0:0,0:0:0:0:
440,344,88409,2,0,B|412:236|300:188|300:188|332:144|396:128,2,324.000001235962,12|0|12,0:0|0:0|0:0,0:0:0:0:
224,232,89298,6,0,P|116:164|80:76,1,216.000000823975,12|0,0:0|0:0,0:0:0:0:
268,88,89632,6,0,P|361:139|410:233,1,216.000000823975
252,260,89965,2,0,L|452:388,1,216.000000823975
32,268,90409,6,0,P|119:173|150:60,1,216.000000823975,12|0,0:0|0:0,0:0:0:0:
224,172,90743,2,0,P|344:144|408:60,1,216.000000823975,8|0,0:0|0:0,0:0:0:0:
248,40,91076,5,8,0:0:0:0:
160,292,91298,1,12,0:0:0:0:
340,216,91521,2,0,B|384:195|384:195|386:139,2,80.0000030517579
81,58,91965,5,8,0:0:0:0:
324,113,92113,5,8,0:0:0:0:
160,292,92261,5,8,0:0:0:0:
420,288,92409,6,0,B|479:282|511:241|511:241|478:250|449:242,1,155.999992858887,12|0,0:0|0:0,0:0:0:0:
328,164,92854,6,0,P|228:112|112:120,1,216.000000823975,12|0,0:0|0:0,0:0:0:0:
184,244,93187,2,0,P|278:294|384:292,1,216.000000823975
408,120,93521,2,0,L|256:304,1,216.000000823975
23,93,93965,6,0,P|134:55|242:82,1,216.000000823975,12|0,0:0|0:0,0:0:0:0:
152,182,94298,2,0,P|237:261|347:281,1,216.000000823975
352,140,94632,6,0,B|368:76|428:76|428:76|472:124|424:184,1,216.000000823975,12|0,0:0|0:0,0:0:0:0:
269,242,94965,6,0,B|177:225|124:195|124:195|160:192|200:200,1,216.000000823975
348,224,95298,2,0,L|228:256,1,108.000000411987,8|0,0:0|0:0,0:0:0:0:
84,300,95521,1,12,0:0:0:0:
120,48,95743,6,0,L|223:79,1,108.000000411987,8|0,0:0|0:0,0:0:0:0:
432,140,95965,1,12,0:0:0:0:
280,236,96187,2,0,P|228:208|264:176,1,108.000000411987,8|0,0:0|0:0,0:0:0:0:
392,260,96409,6,0,P|304:336|188:320,1,216.000000823975,12|0,0:0|0:0,0:0:0:0:
92,236,96743,2,0,P|188:172|220:64,1,216.000000823975
292,184,97076,2,0,L|484:296,1,216.000000823975
416,24,97521,6,0,P|320:88|288:196,1,216.000000823975,12|0,0:0|0:0,0:0:0:0:
400,264,97854,2,0,P|303:316|182:271,1,216.000000823975
164,160,98187,6,0,B|112:52|-4:40|-4:40|4:96|52:136,2,324.000001235962,12|0|0,0:0|0:0|0:0,0:0:0:0:
124,324,99076,2,0,P|228:276|260:184,1,216.000000823975,8|0,0:0|0:0,0:0:0:0:
228,92,99409,1,8,0:0:0:0:
324,104,99521,1,12,0:0:0:0:
128,188,99743,2,0,P|145:237|170:193,1,108.000000411987,8|0,0:0|0:0,0:0:0:0:
40,296,99965,6,0,P|144:344|252:300,1,216.000000823975,12|0,0:0|0:0,0:0:0:0:
248,180,100298,2,0,P|352:132|460:176,1,216.000000823975
320,288,100632,2,0,L|280:72,1,216.000000823975
448,312,101076,6,0,P|336:312|256:228,1,216.000000823975,12|0,0:0|0:0,0:0:0:0:
328,120,101409,6,0,P|216:120|136:204,1,216.000000823975
88,320,101743,6,0,B|192:368|284:280|284:280|220:232|164:264,2,324.000001235962,12|0|0,0:0|0:0|0:0,0:0:0:0:
276,104,102632,2,0,B|380:114|450:215|450:215|507:167|483:89,2,324.000001235962,12|0|8,0:0|0:0|0:0,0:0:0:0:
116,228,103521,6,0,P|28:136|20:36,1,216.000000823975,12|0,0:0|0:0,0:0:0:0:
168,80,103854,2,0,P|256:172|264:272,1,216.000000823975
110,303,104187,2,0,L|194:206,1,108.000000411987,8|0,0:0|0:0,0:0:0:0:
285,92,104409,1,12,0:0:0:0:
484,244,104632,6,0,P|392:316|272:304,1,216.000000823975
360,188,104965,2,0,P|268:116|148:128,1,216.000000823975
0,192,105298,1,12,0:0:0:0:
280,268,105521,2,0,L|205:169,1,108.000000411987
114,43,105743,1,12,0:0:0:0:
72,276,105965,2,0,L|152:184,1,108.000000411987
276,56,106187,5,8,0:0:0:0:
416,240,106335,5,8,0:0:0:0:
188,268,106484,5,8,0:0:0:0:
388,76,106632,6,0,B|424:44|461:31|461:31|456:64,1,103.999995239258,12|0,0:0|0:0,0:0:0:0:
