osu file format v14

[General]
AudioFilename: audio.mp3
AudioLeadIn: 0
PreviewTime: 53496
Countdown: 0
SampleSet: Soft
StackLeniency: 0.3
Mode: 0
LetterboxInBreaks: 0
WidescreenStoryboard: 1

[Editor]
Bookmarks: 1386,8128,29701,40487,53970,75543,91723,97117,99364
DistanceSpacing: 1.4
BeatDivisor: 4
GridSize: 8
TimelineZoom: 1.6

[Metadata]
Title:GROOVY (TV Size)
TitleUnicode:GROOVY (TV Size)
Artist:Ryota Kozuka ft. Lyn
ArtistUnicode:Ryota Kozuka ft. Lyn
Creator:DeviousPanda
Version:Insane
Source:
Tags:
BeatmapID:1775001
BeatmapSetID:846388

[Difficulty]
HPDrainRate:4
CircleSize:3.8
OverallDifficulty:7.5
ApproachRate:9
SliderMultiplier:1.4
SliderTickRate:1

[Events]
//Background and Video events
0,0,"BG.jpg",0,0
//Break Periods
//Storyboard Layer 0 (Background)
//Storyboard Layer 1 (Fail)
//Storyboard Layer 2 (Pass)
//Storyboard Layer 3 (Foreground)
//Storyboard Sound Samples

[TimingPoints]
2735,337.078651685393,4,2,1,40,1,0
8128,-57.1428571428571,4,2,1,40,0,0
10487,-133.333333333333,4,2,1,40,0,0
10824,-57.1428571428571,4,2,1,40,0,0
18577,-133.333333333333,4,2,1,40,0,0
18914,-57.1428571428571,4,2,1,40,0,0
21274,-133.333333333333,4,2,1,40,0,0
21611,-57.1428571428571,4,2,1,40,0,0
91723,-36.3636363636364,4,2,1,40,0,1
99364,-25,4,2,1,40,0,0

[Colours]
Combo1 : 215,215,0
Combo2 : 255,0,0
Combo3 : 157,157,157
Combo4 : 255,91,13

[HitObjects]
335,282,2735,6,0,L|407:275,2,70
264,252,3240,1,0,0:0:0:0:
224,79,3577,5,0,0:0:0:0:
240,103,3746,2,0,L|229:186,2,70
302,51,4251,1,0,0:0:0:0:
320,37,4420,2,0,P|373:33|406:180,1,210
357,193,5094,1,0,0:0:0:0:
365,204,5431,38,0,P|311:183|231:235,1,140
225,291,5937,2,0,L|211:151,2,140
332,47,7791,5,0,0:0:0:0:
333,61,8128,38,0,B|263:3|193:58|182:102|197:126|197:126|210:94|254:75,1,245.000002336502
108,205,8633,2,0,P|179:147|170:270,1,245.000002336502
137,282,9139,5,0,0:0:0:0:
312,239,9308,1,0,0:0:0:0:
247,321,9476,2,0,B|209:257|209:257|253:112,1,183.750001752377
237,107,9813,2,0,L|191:257,1,122.500001168251
312,239,10150,38,0,P|387:272|425:173,1,183.750001752377
440,125,10487,2,0,P|426:175|438:204,1,78.7500030040742
512,329,10824,6,0,B|461:293|461:293|251:315,1,245.000002336502
180,295,11330,2,0,B|362:274|362:274|291:225,1,245.000002336502
250,195,11836,1,0,0:0:0:0:
228,373,12004,1,0,0:0:0:0:
152,183,12173,2,0,P|169:129|230:98,1,122.500001168251
235,103,12426,1,0,0:0:0:0:
246,109,12510,2,0,P|317:99|343:26,1,122.500001168251
112,23,12847,38,0,L|128:285,1,245.000002336502
97,339,13352,1,0,0:0:0:0:
307,207,13521,6,0,P|291:295|353:210,1,245.000002336502
212,188,14027,2,0,P|284:66|306:206,1,367.500003504753
270,140,14701,1,0,0:0:0:0:
215,272,14869,38,0,B|45:252|45:252|114:213,1,245.000002336502
370,357,15375,2,0,B|468:301|468:301|208:271,1,367.500003504753
46,251,16049,1,0,0:0:0:0:
184,36,16218,6,0,P|180:113|257:70,1,183.750001752377
255,71,16555,1,0,0:0:0:0:
214,271,16723,2,0,P|323:271|241:343,1,245.000002336502
269,344,17145,1,0,0:0:0:0:
260,338,17229,2,0,P|303:311|376:335,1,122.500001168251
423,384,17566,1,0,0:0:0:0:
480,265,17734,38,0,L|447:10,1,245.000002336502
369,64,18240,2,0,L|394:252,1,183.750001752377
365,201,18577,6,0,L|352:111,1,78.7500030040742
273,63,18914,38,0,B|210:34|163:83|182:145|182:145|142:114|94:135,1,245.000002336502
116,257,19420,2,0,P|146:149|181:227,1,245.000002336502
182,208,19841,1,0,0:0:0:0:
178,218,19926,6,0,L|335:205,1,122.500001168251
351,151,20178,1,0,0:0:0:0:
351,151,20263,1,0,0:0:0:0:
309,294,20431,1,0,0:0:0:0:
465,170,20600,1,0,0:0:0:0:
262,97,20768,1,0,0:0:0:0:
422,256,20937,38,0,P|369:197|406:96,1,183.750001752377
362,136,21274,2,0,P|353:176|365:214,1,78.7500030040742
439,343,21611,6,0,B|505:306|505:306|326:295,1,245.000002336502
175,225,22117,2,0,B|78:278|78:278|339:295,1,367.500003504753
505,306,22791,1,0,0:0:0:0:
415,177,22959,37,0,0:0:0:0:
365,364,23128,1,0,0:0:0:0:
299,196,23296,1,0,0:0:0:0:
424,283,23465,1,0,0:0:0:0:
191,229,23633,6,0,P|197:140|270:89,1,183.750001752377
311,98,23970,2,0,P|239:112|205:150,1,122.500001168251
198,354,24308,38,0,B|276:318|276:318|80:295,1,245.000002336502
105,151,24813,2,0,B|-4:201|-4:201|271:234,1,367.500003504753
391,248,25487,1,0,0:0:0:0:
239,131,25656,6,0,P|231:41|309:109,1,245.000002336502
50,191,26161,2,0,P|43:258|116:157,1,367.500003504753
