osu file format v14

[General]
AudioFilename: audio.mp3
AudioLeadIn: 0
PreviewTime: 90575
Countdown: 0
SampleSet: Soft
StackLeniency: 0.2
Mode: 0
LetterboxInBreaks: 0
WidescreenStoryboard: 1

[Editor]
Bookmarks: 10575,13036,15498,20421,25344,30267,35344,40267,45036,49959,54882,57651,59959,64728,69805,79651,82882,85805,90575,91805,96728,101651,106575,109036,111498,116421
DistanceSpacing: 1
BeatDivisor: 4
GridSize: 4
TimelineZoom: 1.6

[Metadata]
Title:Kimi to Mita Sora no Uta
TitleUnicode:Kimi to Mita Sora no Uta
Artist:Ryota Kikuchi
ArtistUnicode:Ryota Kikuchi
Creator:R1ku
Version:Hard
Source:Voez
Tags:Japanise
BeatmapID:1120418
BeatmapSetID:486777

[Difficulty]
HPDrainRate:6
CircleSize:4
OverallDifficulty:6
ApproachRate:8
SliderMultiplier:1.4
SliderTickRate:1

[Events]
//Background and Video events
0,0,"cool-anime-trees-art-HD.jpg",0,0
//Break Periods
2,70005,78901
//Storyboard Layer 0 (Background)
//Storyboard Layer 1 (Fail)
//Storyboard Layer 2 (Pass)
//Storyboard Layer 3 (Foreground)
//Storyboard Sound Samples

[TimingPoints]
10575,307.692307692308,4,2,0,80,1,0
45036,-83.3333333333333,4,2,0,80,0,1
64728,-100,4,2,0,80,0,0
91805,-83.3333333333333,4,2,0,80,0,1
116421,-100,4,2,0,80,0,0

[HitObjects]
84,125,10575,6,0,P|140:97|216:105,1,140,0|0,3:3|3:3,3:3:0:0:
276,71,11036,2,0,P|280:123|260:159,1,70,0|0,3:3|3:3,3:3:0:0:
344,130,11344,2,0,P|325:178|292:202,1,70,0|0,3:3|3:3,3:3:0:0:
256,231,11651,1,0,3:3:0:0:
199,271,11805,6,0,P|123:263|127:210,1,140,0|0,3:3|3:3,3:3:0:0:
163,155,12267,1,0,3:3:0:0:
224,121,12421,2,0,B|297:90|364:95,1,140,0|0,3:3|3:3,3:3:0:0:
359,234,13036,5,0,3:3:0:0:
308,282,13190,1,0,3:3:0:0:
292,213,13344,1,0,3:3:0:0:
258,151,13498,2,0,P|233:122|194:112,2,70,0|0|0,3:3|3:3|3:3,3:3:0:0:
292,213,13959,1,0,3:3:0:0:
310,280,14113,1,0,3:3:0:0:
240,284,14267,6,0,P|179:280|195:215,1,140,0|0,3:3|3:3,3:3:0:0:
243,172,14728,1,0,3:3:0:0:
298,129,14882,2,0,P|321:98|235:66,1,140,0|0,3:3|3:3,3:3:0:0:
191,67,15344,1,0,3:3:0:0:
131,104,15498,6,0,P|80:193|141:274,1,210,0|0,3:3|3:3,3:3:0:0:
204,281,16113,2,0,L|279:286,1,70,0|0,3:3|3:3,3:3:0:0:
344,287,16421,1,0,3:3:0:0:
412,272,16575,1,0,3:3:0:0:
365,220,16728,6,0,P|295:133|200:93,1,210,0|0,3:3|3:3,3:3:0:0:
95,179,17498,2,0,P|107:242|173:277,1,140,0|0,3:3|3:3,3:3:0:0:
309,282,18113,1,0,3:3:0:0:
411,186,18421,2,0,P|437:152|445:122,1,70,0|0,3:3|3:3,3:3:0:0:
234,108,19036,5,0,3:3:0:0:
164,111,19190,2,0,L|80:116,1,70,0|0,3:3|3:3,3:3:0:0:
120,252,19651,5,0,3:3:0:0:
152,316,19805,2,0,P|196:298|230:276,1,70,0|0,3:3|3:3,3:3:0:0:
275,249,20113,1,0,3:3:0:0:
329,205,20267,1,0,3:3:0:0:
381,158,20421,1,0,3:3:0:0:
432,109,20575,6,0,B|451:69|451:69|363:77|274:61,1,210,0|0,3:3|3:3,3:3:0:0:
76,46,21498,1,0,3:3:0:0:
61,184,21805,2,0,P|78:245|145:276,1,140,0|0,3:3|3:3,3:3:0:0:
284,280,22421,1,0,3:3:0:0:
401,205,22728,1,0,3:3:0:0:
362,70,23036,2,0,P|318:119|171:193,1,210,0|0,3:3|3:3,3:3:0:0:
98,290,23805,5,0,3:3:0:0:
130,227,23959,1,0,3:3:0:0:
167,286,24113,1,0,3:3:0:0:
298,237,24421,5,0,3:3:0:0:
367,243,24575,2,0,L|410:260,2,35,0|0|0,3:3|3:3|3:3,3:3:0:0:
348,104,25036,2,0,B|275:98|204:144,1,140,0|0,3:3|3:3,3:3:0:0:
166,273,25651,6,0,P|205:286|262:271,1,70,0|0,3:3|3:3,3:3:0:0:
219,218,25959,2,0,P|260:216|308:183,1,70,0|0,3:3|3:3,3:3:0:0:
239,152,26267,2,0,P|277:136|311:88,1,70,0|0,3:3|3:3,3:3:0:0:
234,85,26575,6,0,B|197:57|197:57|170:129|155:158,1,140,0|0,3:3|3:3,3:3:0:0:
133,207,27036,1,0,3:3:0:0:
103,270,27190,1,0,3:3:0:0:
173,268,27344,1,0,3:3:0:0:
205,205,27498,1,0,3:3:0:0:
242,263,27651,1,0,3:3:0:0:
274,200,27805,1,0,3:3:0:0:
311,259,27959,6,0,B|355:226|345:200|346:182|342:166|325:150|310:140,1,140,0|0,3:3|3:3,3:3:0:0:
254,101,28421,2,0,L|117:43,1,140,0|0,3:3|3:3,3:3:0:0:
94,183,29036,6,0,P|120:239|190:276,1,140,0|0,3:3|3:3,3:3:0:0:
256,280,29498,1,0,3:3:0:0:
324,267,29651,2,0,P|375:243|404:211,1,70,0|0,3:3|3:3,3:3:0:0:
425,176,29959,1,0,3:3:0:0:
439,107,30113,1,0,3:3:0:0:
373,130,30267,2,0,B|356:168|356:168|311:212|243:220|243:220|183:208,1,210,0|0,3:3|3:3,3:3:0:0:
83,137,31036,5,0,3:3:0:0:
99,68,31190,1,0,3:3:0:0:
155,119,31344,1,0,3:3:0:0:
135,186,31498,2,0,B|179:200|214:170|226:146|229:129|225:108|215:83,1,140,0|0,3:3|3:3,3:3:0:0:
206,40,31959,2,0,B|224:38|246:43|270:44|285:64|292:89|294:115|291:133,1,140,0|0,3:3|3:3,3:3:0:0:
176,204,32575,6,0,P|135:216|188:235,1,140,0|0,3:3|3:3,3:3:0:0:
239,189,33036,2,0,P|270:158|305:133,1,70,0|0,3:3|3:3,3:3:0:0:
351,106,33344,1,0,3:3:0:0:
394,238,33651,6,0,P|350:271|256:278,1,140,0|0,3:3|3:3,3:3:0:0:
142,217,34267,1,0,3:3:0:0:
142,217,34344,1,0,3:3:0:0:
142,217,34421,1,0,3:3:0:0:
248,127,34728,6,0,P|272:97|302:72,1,70,0|0,3:3|3:3,3:3:0:0:
341,172,35036,2,0,P|319:199|293:222,1,70,0|0,3:3|3:3,3:3:0:0:
188,226,35344,6,0,P|116:175|128:113,1,140,0|0,3:3|3:3,3:3:0:0:
256,106,35959,2,0,P|336:69|383:110,1,140,0|0,3:3|3:3,3:3:0:0:
336,228,36575,2,0,P|327:315|268:336,1,140,0|0,3:3|3:3,3:3:0:0:
154,296,37190,1,0,3:3:0:0:
324,158,37805,6,0,P|395:209|384:271,1,140,0|0,3:3|3:3,3:3:0:0:
256,278,38420,2,0,P|176:314|129:274,1,140,0|0,3:3|3:3,3:3:0:0:
176,156,39036,2,0,P|185:69|244:48,1,140,0|0,3:3|3:3,3:3:0:0:
358,88,39651,1,0,3:3:0:0:
383,225,39959,6,0,L|245:275,1,140,0|0,3:3|3:3,3:3:0:0:
180,271,40421,1,0,3:3:0:0:
218,212,40575,1,0,3:3:0:0:
282,186,40728,1,0,3:3:0:0:
411,131,41036,5,0,3:3:0:0:
356,89,41189,1,0,3:3:0:0:
286,86,41343,1,0,3:3:0:0:
206,201,41651,5,0,3:3:0:0:
178,265,41805,1,0,3:3:0:0:
247,257,41959,1,0,3:3:0:0:
164,143,42267,6,0,P|158:98|202:77,1,70,0|0,3:3|3:3,3:3:0:0:
233,45,42575,2,0,P|317:29|376:43,1,140,0|0,3:3|3:3,3:3:0:0:
431,73,43036,6,0,L|484:102,2,35,0|0|0,3:3|3:3|3:3,3:3:0:0:
393,126,43344,1,0,3:3:0:0:
393,126,43421,1,0,3:3:0:0:
393,126,43498,1,0,3:3:0:0:
351,181,43651,2,0,L|399:213,2,35,0|0|0,3:3|3:3|3:3,3:3:0:0:
234,101,44113,1,0,3:3:0:0:
416,312,44728,5,0,3:3:0:0:
366,262,44882,1,0,3:3:0:0:
306,202,45036,6,0,P|231:139|154:104,1,167.999994873047,4|0,3:3|3:3,3:3:0:0:
83,104,45498,1,0,3:3:0:0:
131,172,45651,1,4,3:3:0:0:
214,175,45805,1,0,3:3:0:0:
264,107,45959,6,0,P|295:69|336:64,1,83.9999974365235,0|0,3:3|3:3,3:3:0:0:
412,62,46267,2,0,L|412:237,1,167.999994873047,4|0,3:3|3:3,3:3:0:0:
354,291,46728,2,0,P|302:319|264:316,1,83.9999974365235,0|4,3:3|3:3,3:3:0:0:
193,319,47036,1,0,3:3:0:0:
108,320,47190,5,0,3:3:0:0:
154,250,47344,1,0,3:3:0:0:
236,234,47498,2,0,B|335:208|335:208|335:105,1,167.999994873047,4|0,3:3|3:3,3:3:0:0:
326,58,47959,5,0,3:3:0:0:
242,52,48113,1,4,3:3:0:0:
158,62,48267,1,0,3:3:0:0:
80,94,48421,2,0,B|35:115|35:115|33:162,1,83.9999974365235,0|0,3:3|3:3,3:3:0:0:
33,233,48728,6,0,B|33:276|33:276|87:291|148:328,1,167.999994873047,4|0,3:3|3:3,3:3:0:0:
165,244,49190,1,0,3:3:0:0:
223,303,49344,1,4,3:3:0:0:
244,221,49498,1,0,3:3:0:0:
454,83,49959,5,4,3:3:0:0:
388,135,50113,2,0,B|321:168|321:168|226:168,1,167.999994873047,0|0,3:3|3:3,3:3:0:0:
143,166,50575,1,4,3:3:0:0:
77,114,50728,1,0,3:3:0:0:
113,38,50882,6,0,P|163:29|217:42,1,83.9999974365235,0|0,3:3|3:3,3:3:0:0:
278,59,51190,2,0,P|323:76|399:173,1,167.999994873047,4|0,3:3|3:3,3:3:0:0:
410,249,51651,5,2,3:3:0:0:
255,315,51959,1,2,3:3:0:0:
98,254,52267,1,2,3:3:0:0:
119,172,52421,6,0,B|231:208|255:260|255:260|347:271,1,251.999992309571,4|0,3:3|3:3,3:3:0:0:
381,196,53036,1,4,3:3:0:0:
380,111,53190,1,0,3:3:0:0:
253,213,53498,2,0,P|176:240|153:223,1,83.9999974365235,0|4,3:3|3:3,3:3:0:0:
111,195,53805,2,0,P|82:151|155:72,1,167.999994873047,0|4,3:3|3:3,3:3:0:0:
308,198,54421,2,0,P|264:262|160:146,1,251.999992309571,4|0,3:3|3:3,3:3:0:0:
356,96,55190,5,4,3:3:0:0:
364,180,55344,1,4,3:3:0:0:
308,244,55498,1,4,3:3:0:0:
228,272,55651,1,4,3:3:0:0:
144,280,55805,2,4,P|88:284|56:272,1,83.9999974365235,4|4,3:3|3:3,3:3:0:0:
56,192,56113,6,0,P|88:148|192:108,1,167.999994873047,0|4,3:3|3:3,3:3:0:0:
276,124,56575,1,4,3:3:0:0:
352,156,56728,1,4,3:3:0:0:
284,208,56882,1,4,3:3:0:0:
208,176,57035,1,4,3:3:0:0:
144,232,57190,2,4,L|228:272,1,83.9999974365235,4|2,3:3|3:3,3:3:0:0:
376,204,57651,6,0,P|416:160|416:136,1,83.9999974365235,0|4,3:3|3:3,3:3:0:0:
380,272,57959,2,0,P|438:284|458:272,1,83.9999974365235,0|0,3:3|3:3,3:3:0:0:
316,280,58267,2,0,P|276:324|276:348,1,83.9999974365235,0|4,3:3|3:3,3:3:0:0:
304,212,58575,6,0,L|152:124,1,167.999994873047,0|0,3:3|3:3,3:3:0:0:
88,84,59036,1,4,3:3:0:0:
100,168,59190,2,0,P|115:206|139:241,1,83.9999974365235,0|0,3:3|3:3,3:3:0:0:
156,124,59498,2,0,P|220:88|252:80,1,83.9999974365235,0|4,3:3|3:3,3:3:0:0:
312,68,59805,5,0,3:3:0:0:
396,60,59959,2,0,P|384:140|316:224,1,167.999994873047,0|4,3:3|3:3,3:3:0:0:
272,152,60421,2,0,P|248:196|244:244,1,83.9999974365235,0|0,3:3|3:3,3:3:0:0:
324,256,60728,2,0,P|284:308|260:320,1,83.9999974365235,0|4,3:3|3:3,3:3:0:0:
188,336,61036,5,2,3:3:0:0:
72,216,61344,1,2,3:3:0:0:
236,188,61651,1,2,3:3:0:0:
380,100,61959,5,0,3:3:0:0:
408,180,62113,1,4,3:3:0:0:
328,160,62267,2,0,P|296:116|184:104,1,167.999994873047,0|0,3:3|3:3,3:3:0:0:
116,140,62728,2,0,P|84:176|68:220,1,83.9999974365235,4|0,3:3|3:3,3:3:0:0:
72,292,63036,2,0,P|148:292|192:280,1,83.9999974365235,0|0,3:3|3:3,3:3:0:0:
180,208,63344,2,0,P|228:236|248:264,1,83.9999974365235,4|0,3:3|3:3,3:3:0:0:
404,208,63805,6,0,P|384:136|300:92,1,167.999994873047,0|0,3:3|3:3,3:3:0:0:
220,92,64267,1,0,3:3:0:0:
136,96,64421,2,0,L|64:96,2,41.9999987182618,0|0|0,3:3|3:3|3:3,3:3:0:0:
208,96,64728,6,0,B|328:128|408:216,1,210,0|0,3:3|3:3,3:3:0:0:
352,296,65498,2,0,P|300:272|272:240,1,70,0|0,3:3|3:3,3:3:0:0:
164,204,66036,6,0,L|140:176,1,35,0|0,3:3|3:3,3:3:0:0:
136,72,66344,1,0,3:3:0:0:
136,72,66421,1,0,3:3:0:0:
240,92,66651,2,0,L|276:100,1,35,0|0,3:3|3:3,3:3:0:0:
344,116,66882,6,0,L|436:140,1,70,0|0,3:3|3:3,3:3:0:0:
452,192,67190,2,0,P|412:248|264:248,1,210,0|0,3:3|3:3,3:3:0:0:
172,168,67959,2,0,P|168:124|192:88,1,70,0|0,3:3|3:3,3:3:0:0:
316,72,68421,6,0,L|400:264,1,210,0|0,3:3|3:3,3:3:0:0:
348,312,69036,2,0,P|296:328|216:296,1,140,0|0,3:3|3:3,3:3:0:0:
276,256,69498,1,0,3:3:0:0:
212,228,69651,1,0,3:3:0:0:
212,228,69728,1,0,3:3:0:0:
212,228,69805,1,0,3:3:0:0:
68,144,79651,6,0,P|164:88|344:116,1,280,0|0,3:3|3:3,3:3:0:0:
384,308,80882,2,0,B|276:256|276:256|288:216|252:160|180:200|192:244,1,280,0|0,3:3|3:3,3:3:0:0:
424,88,82113,1,0,3:3:0:0:
84,176,82882,6,0,L|140:204,1,35,0|0,3:3|3:3,3:3:0:0:
172,148,83113,2,0,L|204:164,1,35,0|0,3:3|3:3,3:3:0:0:
264,124,83344,2,0,L|296:140,1,35,0|0,3:3|3:3,3:3:0:0:
92,276,83959,6,0,P|264:256|312:160,1,280,0|0,3:3|3:3,3:3:0:0:
280,92,85805,6,0,P|344:68|368:180,1,210,0|0,3:3|3:3,3:3:0:0:
180,260,86728,1,0,3:3:0:0:
287,170,87036,2,0,P|249:146|107:227,1,210,0|0,3:3|3:3,3:3:0:0:
297,306,87959,2,0,P|371:250|352:134,1,210,0|0,3:3|3:3,3:3:0:0:
163,67,88882,6,0,P|95:100|65:173,1,140,0|0,3:3|3:3,3:3:0:0:
62,225,89344,2,0,P|69:268|85:300,1,70,0|0,3:3|3:3,3:3:0:0:
137,331,89651,1,0,3:3:0:0:
188,281,89805,2,0,L|250:242,1,70,0|0,3:3|3:3,3:3:0:0:
270,310,90113,2,0,L|347:328,1,70,0|0,3:3|3:3,3:3:0:0:
396,286,90421,1,0,3:3:0:0:
396,286,90498,1,0,3:3:0:0:
396,286,90575,1,0,3:3:0:0:
284,216,91805,6,0,P|328:200|264:184,1,167.999994873047,4|0,3:3|3:3,3:3:0:0:
220,264,92267,1,0,3:3:0:0:
140,316,92421,2,0,P|92:336|56:344,2,83.9999974365235,4|0|0,3:3|3:3|3:3,3:3:0:0:
140,316,92882,1,0,3:3:0:0:
128,216,93036,6,0,P|148:144|236:112,1,167.999994873047,4|0,3:3|3:3,3:3:0:0:
312,124,93498,1,0,3:3:0:0:
380,160,93651,2,0,P|420:196|436:224,2,83.9999974365235,4|0|0,3:3|3:3|3:3,3:3:0:0:
380,160,94113,1,0,3:3:0:0:
328,92,94267,6,0,P|264:64|156:64,1,167.999994873047,4|0,3:3|3:3,3:3:0:0:
88,92,94728,2,0,P|52:128|40:164,1,83.9999974365235,0|4,3:3|3:3,3:3:0:0:
40,244,95036,1,0,3:3:0:0:
96,308,95190,1,0,3:3:0:0:
180,316,95344,2,0,P|232:320|272:316,1,83.9999974365235,0|4,3:3|3:3,3:3:0:0:
372,188,95805,5,0,3:3:0:0:
372,188,95959,2,0,P|376:124|292:124,1,167.999994873047,4|0,3:3|3:3,3:3:0:0:
204,268,96728,1,4,3:3:0:0:
204,268,96882,2,0,P|164:216|184:120,1,167.999994873047,0|0,3:3|3:3,3:3:0:0:
248,64,97344,1,4,3:3:0:0:
248,64,97498,2,0,P|288:116|268:212,1,167.999994873047,0|0,3:3|3:3,3:3:0:0:
184,208,97959,2,0,P|198:277|295:279,1,167.999994873047,4|0,3:3|3:3,3:3:0:0:
352,240,98421,1,4,3:3:0:0:
340,72,98728,6,0,B|256:100|256:100|216:96|216:96|176:116,1,167.999994873047,4|0,3:3|3:3,3:3:0:0:
116,160,99190,2,0,B|56:248|56:248|76:288|104:292,1,167.999994873047,4|0,3:3|3:3,3:3:0:0:
180,308,99651,2,0,P|252:304|328:248,1,167.999994873047,4|2,3:3|3:3,3:3:0:0:
192,148,100421,6,0,P|176:104|268:112,1,167.999994873047,4|0,3:3|3:3,3:3:0:0:
300,172,100882,2,0,B|316:228|316:228|272:268|204:268,1,167.999994873047,4|2,3:3|3:3,3:3:0:0:
364,64,101651,6,0,L|244:192,1,167.999994873047,4|4,3:3|3:3,3:3:0:0:
184,240,102113,1,4,3:3:0:0:
116,292,102267,1,4,3:3:0:0:
100,208,102421,2,0,P|131:162|240:111,1,167.999994873047,4|2,3:3|3:3,3:3:0:0:
352,108,102882,6,0,P|364:160|360:280,1,167.999994873047,4|4,3:3|3:3,3:3:0:0:
304,336,103344,2,0,P|244:348|208:344,1,83.9999974365235,4|4,3:3|3:3,3:3:0:0:
140,320,103651,2,0,P|114:251|183:293,1,167.999994873047,4|2,3:3|3:3,3:3:0:0:
244,316,104113,2,0,B|276:348|276:348|328:312|344:216,1,167.999994873047,4|4,3:3|3:3,3:3:0:0:
360,164,104575,6,0,P|368:116|364:80,1,83.9999974365235,4|4,3:3|3:3,3:3:0:0:
284,112,104882,1,4,3:3:0:0:
284,112,104959,1,0,3:3:0:0:
284,112,105036,1,4,3:3:0:0:
208,80,105190,6,0,P|160:64|120:88,1,83.9999974365235,4|2,3:3|3:3,3:3:0:0:
64,128,105498,1,4,3:3:0:0:
108,200,105651,1,4,3:3:0:0:
44,252,105805,2,0,P|72:288|112:296,1,83.9999974365235,4|4,3:3|3:3,3:3:0:0:
192,284,106113,1,2,3:3:0:0:
410,157,106575,5,0,3:3:0:0:
360,224,106728,2,4,P|317:260|252:275,1,83.9999974365235,4|4,3:3|3:3,3:3:0:0:
207,283,107036,2,4,P|153:274|126:255,1,83.9999974365235,4|4,3:3|3:3,3:3:0:0:
68,198,107344,2,4,L|34:162,2,41.9999987182618,4|4|4,3:3|3:3|3:3,3:3:0:0:
148,222,107651,6,0,P|201:226|240:221,1,83.9999974365235,4|2,3:3|3:3,3:3:0:0:
396,190,108113,1,2,3:3:0:0:
274,73,108421,2,0,P|215:46|138:109,1,167.999994873047,2|0,3:3|3:3,3:3:0:0:
62,251,109036,5,4,3:3:0:0:
144,268,109190,1,4,3:3:0:0:
227,271,109344,2,4,P|280:270|324:261,1,83.9999974365235,4|4,3:3|3:3,3:3:0:0:
379,239,109651,1,4,3:3:0:0:
448,192,109805,1,4,3:3:0:0:
450,107,109959,2,4,L|450:53,2,41.9999987182618,4|4|4,3:3|3:3|3:3,3:3:0:0:
373,143,110267,5,2,3:3:0:0:
307,297,110575,1,2,3:3:0:0:
147,243,110882,2,0,B|74:213|74:213|75:141|91:120,1,167.999994873047,2|0,3:3|3:3,3:3:0:0:
87,125,111267,1,0,3:3:0:0:
87,125,111344,1,0,3:3:0:0:
193,73,111498,6,0,B|240:66|300:74|300:74|336:100|343:123,1,167.999994873047,4|0,3:3|3:3,3:3:0:0:
263,150,111959,2,0,P|293:192|404:169,1,167.999994873047,4|0,3:3|3:3,3:3:0:0:
344,112,112421,2,0,L|300:281,1,167.999994873047,4|0,3:3|3:3,3:3:0:0:
140,322,113036,5,2,3:3:0:0:
93,160,113344,1,2,3:3:0:0:
237,75,113651,6,4,L|316:120,1,83.9999974365235,4|4,3:3|3:3,3:3:0:0:
309,116,113959,1,2,3:3:0:0:
384,267,114267,5,4,3:3:0:0:
384,267,114344,1,4,3:3:0:0:
384,267,114421,1,4,3:3:0:0:
300,273,114575,2,4,P|250:267|210:252,1,83.9999974365235,4|4,3:3|3:3,3:3:0:0:
164,191,114882,2,4,P|215:170|259:185,1,83.9999974365235,4|4,3:3|3:3,3:3:0:0:
320,205,115190,1,2,3:3:0:0:
253,50,115498,2,0,P|191:45|70:102,1,167.999994873047,4|2,3:3|3:3,3:3:0:0:
