osu file format v14

[General]
AudioFilename: audio.mp3
AudioLeadIn: 0
PreviewTime: 90575
Countdown: 0
SampleSet: Soft
StackLeniency: 0.2
Mode: 0
LetterboxInBreaks: 0
WidescreenStoryboard: 1

[Editor]
Bookmarks: 10575,42805,45036,91805,97344,116421
DistanceSpacing: 1
BeatDivisor: 4
GridSize: 4
TimelineZoom: 1.6

[Metadata]
Title:Kimi to Mita Sora no Uta
TitleUnicode:Kimi to Mita Sora no Uta
Artist:Ryota Kikuchi
ArtistUnicode:Ryota Kikuchi
Creator:R1ku
Version:Advanced
Source:Voez
Tags:Japanise
BeatmapID:1134030
BeatmapSetID:486777

[Difficulty]
HPDrainRate:5.5
CircleSize:4
OverallDifficulty:5.5
ApproachRate:7
SliderMultiplier:1.4
SliderTickRate:1

[Events]
//Background and Video events
0,0,"cool-anime-trees-art-HD.jpg",0,0
//Break Periods
2,70005,81907
//Storyboard Layer 0 (Background)
//Storyboard Layer 1 (Fail)
//Storyboard Layer 2 (Pass)
//Storyboard Layer 3 (Foreground)
//Storyboard Sound Samples

[TimingPoints]
10575,307.692307692308,4,2,0,80,1,0
10575,-100,4,2,0,80,0,0
15959,-133.333333333333,4,2,0,80,0,0
25344,-100,4,2,0,80,0,0
35344,-133.333333333333,4,2,0,80,0,0
45036,-100,4,2,0,80,0,1
64728,-133.333333333333,4,2,0,80,0,0
89344,-100,4,2,0,80,0,0
91805,-100,4,2,0,80,0,1
116421,-100,4,2,0,80,0,0

[HitObjects]
53,132,10575,6,0,L|168:215,1,140
226,250,11036,2,0,L|288:288,1,70
352,310,11344,2,0,P|372:318|419:295,1,70
462,249,11651,1,0,0:0:0:0:
472,182,11805,6,0,P|452:119|317:91,1,210
270,132,12421,2,0,P|216:201|95:173,1,210
85,116,13036,1,0,0:0:0:0:
97,47,13190,2,0,P|148:41|195:61,1,70
230,71,13498,1,0,0:0:0:0:
292,102,13651,2,0,L|368:135,1,70
416,166,13959,2,0,P|449:187|462:229,1,70
469,284,14267,6,0,P|465:322|330:303,1,210
343,233,14882,2,0,P|340:165|221:112,1,210
155,128,15498,1,0,0:0:0:0:
266,70,15959,6,0,P|318:91|343:136,1,105.000004005432
347,184,16421,2,0,L|347:238,1,52.5000020027161
335,287,16728,2,0,P|284:326|225:326,1,105.000004005432
192,326,17190,5,0,0:0:0:0:
126,244,17498,1,0,0:0:0:0:
145,141,17805,1,0,0:0:0:0:
223,71,18113,2,0,P|274:82|326:119,1,105.000004005432
357,144,18575,2,0,P|391:193|372:286,1,157.500006008148
334,320,19190,5,0,0:0:0:0:
148,222,19805,1,0,0:0:0:0:
317,97,20421,1,0,0:0:0:0:
164,56,20882,6,0,P|120:91|120:103,1,52.5000020027161
117,134,21190,2,0,L|118:189,1,52.5000020027161
120,239,21498,2,0,P|135:266|159:273,1,52.5000020027161
258,283,21959,5,0,0:0:0:0:
258,283,22113,1,0,0:0:0:0:
355,244,22421,1,0,0:0:0:0:
416,158,22728,1,0,0:0:0:0:
321,111,23036,6,0,P|257:90|196:89,1,105.000004005432
166,87,23498,2,0,P|122:100|95:168,1,105.000004005432
94,201,23959,1,0,0:0:0:0:
122,245,24113,1,0,0:0:0:0:
224,269,24421,6,0,P|266:277|283:277,1,52.5000020027161
328,277,24728,1,0,0:0:0:0:
411,212,25036,1,0,0:0:0:0:
428,72,25344,6,0,P|363:45|296:56,1,140
229,77,25805,2,0,P|196:96|170:115,1,70
114,159,26113,2,0,P|89:187|82:224,1,70
91,287,26421,2,0,P|126:320|153:315,1,70
214,314,26728,6,0,P|246:302|333:241,1,140
371,183,27190,1,0,0:0:0:0:
302,196,27344,2,0,P|311:142|390:112,1,140
432,243,27959,5,0,0:0:0:0:
429,102,28267,1,0,0:0:0:0:
429,102,28421,1,0,0:0:0:0:
284,252,28882,5,0,0:0:0:0:
224,288,29036,2,0,P|190:241|187:161,1,140
205,94,29498,1,0,0:0:0:0:
265,59,29651,2,0,P|342:68|392:110,1,140
432,161,30113,1,0,0:0:0:0:
451,228,30267,1,0,0:0:0:0:
265,326,30728,6,0,P|195:335|151:282,1,140
137,218,31190,1,0,0:0:0:0:
140,148,31344,1,0,0:0:0:0:
160,80,31498,2,0,P|255:46|339:102,1,210
411,222,32267,5,0,0:0:0:0:
319,306,32575,1,0,0:0:0:0:
179,318,32882,2,0,P|115:275|128:224,1,140
172,168,33344,6,0,L|129:104,2,70
215,222,33805,1,0,0:0:0:0:
285,223,33959,1,0,0:0:0:0:
328,168,34113,2,0,L|377:104,2,70
455,226,34728,5,0,0:0:0:0:
339,305,35036,1,0,0:0:0:0:
198,309,35344,6,0,P|142:295|115:256,1,105.000004005432
98,208,35805,1,0,0:0:0:0:
214,112,36113,1,0,0:0:0:0:
318,123,36421,2,0,B|440:160|438:292,1,210.000008010865
437,276,37190,1,0,0:0:0:0:
280,288,37805,6,0,P|232:231|201:200,1,105.000004005432
170,174,38267,1,0,0:0:0:0:
215,80,38575,1,0,0:0:0:0:
317,59,38882,2,0,P|390:76|387:197,1,210.000008010865
352,228,39651,1,0,0:0:0:0:
268,292,39959,6,0,L|220:256,1,52.5000020027161
208,212,40267,2,0,L|152:234,2,52.5000020027161
267,205,40728,2,0,B|322:196|382:215,1,105.000004005432
422,222,41190,6,0,P|450:220|459:185,1,52.5000020027161
416,105,41651,2,0,P|376:79|361:75,1,52.5000020027161
319,71,41959,1,0,0:0:0:0:
214,78,42267,5,0,0:0:0:0:
168,103,42421,1,0,0:0:0:0:
136,145,42575,1,0,0:0:0:0:
191,233,42882,6,0,L|235:286,1,52.5000020027161
264,308,43190,2,0,L|306:259,1,52.5000020027161
316,218,43498,2,0,L|356:264,1,52.5000020027161
391,290,43805,1,0,0:0:0:0:
438,195,44113,1,0,0:0:0:0:
306,60,45036,6,0,P|219:55|190:95,1,140,4|0,0:0|0:0,0:0:0:0:
202,160,45498,2,0,L|226:228,1,70,0|4,0:0|0:0,0:0:0:0:
266,282,45805,2,0,P|303:300|343:300,1,70
400,287,46113,1,0,0:0:0:0:
443,232,46267,6,0,P|434:165|382:121,1,140,4|0,0:0|0:0,0:0:0:0:
311,115,46728,2,0,B|233:114|235:114,1,70,0|4,0:0|0:0,0:0:0:0:
170,118,47036,2,0,B|110:145|93:203|113:254,1,140
133,296,47498,6,0,P|162:322|267:324,1,140,4|0,0:0|0:0,0:0:0:0:
316,288,47959,2,0,L|374:239,1,70,0|4,0:0|0:0,0:0:0:0:
320,191,48267,2,0,L|252:248,1,70
209,278,48575,1,0,0:0:0:0:
141,296,48728,6,0,P|77:282|79:206,1,140,4|0,0:0|0:0,0:0:0:0:
118,164,49190,2,0,P|168:128|190:123,1,70,0|4,0:0|0:0,0:0:0:0:
241,105,49498,2,0,P|300:93|383:104,1,140
437,139,49959,5,4,0:0:0:0:
426,208,50113,2,0,P|387:255|310:276,1,140
243,264,50575,2,0,L|168:229,1,70,4|0,0:0|0:0,0:0:0:0:
120,194,50882,2,0,P|90:168|91:131,1,70
109,72,51190,2,0,P|141:46|258:74,1,140,4|0,0:0|0:0,0:0:0:0:
288,96,51651,5,2,0:0:0:0:
337,227,51959,1,2,0:0:0:0:
432,123,52267,1,2,0:0:0:0:
302,69,52575,6,0,P|223:76|128:179,1,210,0|4,0:0|0:0,0:0:0:0:
119,232,53190,2,0,P|132:294|152:304,1,70
196,327,53498,1,0,0:0:0:0:
265,332,53651,2,0,P|344:320|435:214,1,210,4|0,0:0|0:0,0:0:0:0:
448,160,54267,1,4,0:0:0:0:
174,218,54882,6,0,P|214:143|284:116,1,140,4|0,0:0|0:0,0:0:0:0:
330,105,55344,2,0,L|393:69,2,70,0|4|0,0:0|0:0|0:0,0:0:0:0:
274,147,55805,2,0,P|248:184|246:209,1,70
174,218,56113,6,0,P|198:125|243:70,1,140,4|0,0:0|0:0,0:0:0:0:
289,63,56575,1,0,0:0:0:0:
289,63,56728,1,4,0:0:0:0:
352,93,56882,2,0,P|396:139|425:224,1,140
408,278,57344,1,4,0:0:0:0:
272,252,57651,2,0,P|212:224|196:208,1,70
153,168,57959,1,4,0:0:0:0:
126,103,58113,2,0,P|128:61|165:53,1,70
219,61,58421,2,0,P|269:80|285:96,1,70,0|4,0:0|0:0,0:0:0:0:
329,221,58882,6,0,P|307:271|294:284,2,70,0|0|4,0:0|0:0|0:0,0:0:0:0:
336,150,59344,2,0,L|337:79,1,70
206,130,59805,5,4,0:0:0:0:
147,167,59959,2,0,P|109:257|214:260,1,210,0|4,0:0|0:0,0:0:0:0:
233,221,60575,2,0,L|252:148,1,70
306,195,60882,2,0,L|362:148,1,70,0|4,0:0|0:0,0:0:0:0:
452,44,61344,5,0,0:0:0:0:
313,64,61651,2,0,P|229:95|153:68,1,140,4|0,0:0|0:0,0:0:0:0:
116,57,62113,1,0,0:0:0:0:
126,126,62267,2,0,P|134:189|115:262,1,140,4|0,0:0|0:0,0:0:0:0:
104,332,62728,6,0,P|171:329|186:322,1,70,0|4,0:0|0:0,0:0:0:0:
232,292,63036,2,0,P|212:256|189:232,2,70
232,292,63498,1,4,0:0:0:0:
372,304,63805,5,0,0:0:0:0:
369,168,64113,1,4,0:0:0:0:
250,93,64421,2,0,P|207:104|184:120,1,70
133,163,64728,6,0,P|117:206|236:284,1,210
278,270,65498,2,0,P|312:242|317:214,1,52.5000020027161
346,194,65805,5,0,0:0:0:0:
290,106,66113,1,0,0:0:0:0:
218,182,66421,1,0,0:0:0:0:
174,278,66728,1,0,0:0:0:0:
214,314,66882,2,0,P|250:330|266:330,1,52.5000020027161
314,326,67190,6,0,P|370:317|340:186,1,210
310,194,67959,2,0,P|238:211|246:97,1,210
374,170,69036,6,0,P|401:221|389:283,1,105.000004005432
373,314,69498,2,0,P|333:309|301:292,1,52.5000020027161
273,283,69805,1,0,0:0:0:0:
138,173,82882,6,0,P|187:140|217:131,1,78.7500030040742
282,117,83344,1,0,0:0:0:0:
363,310,83959,1,0,0:0:0:0:
210,165,84575,1,0,0:0:0:0:
154,244,85805,6,0,P|145:163|197:109,1,157.500006008148
298,118,86728,2,0,P|311:161|279:133,1,105.000004005432
163,253,87498,1,0,0:0:0:0:
253,124,87959,2,0,P|295:111|318:109,1,52.5000020027161
349,204,88421,2,0,P|330:263|232:281,1,157.500006008148
105,212,89344,6,0,P|109:153|165:98,1,140
233,86,89805,1,0,0:0:0:0:
298,110,89959,2,0,P|356:146|366:148,1,70
423,167,90267,2,0,L|461:160,2,35
372,216,90575,1,0,0:0:0:0:
148,157,91344,6,0,L|116:131,2,35
201,202,91651,1,0,0:0:0:0:
268,228,91805,2,0,P|328:240|368:240,1,70,4|0,0:0|0:0,0:0:0:0:
408,244,92113,2,0,P|452:220|448:192,1,70
436,136,92421,1,4,0:0:0:0:
380,92,92575,2,0,P|332:76|244:80,1,140
180,108,93036,6,0,L|120:156,1,70,4|0,0:0|0:0,0:0:0:0:
188,184,93344,2,0,L|232:248,1,70
160,252,93651,1,4,0:0:0:0:
112,300,93805,2,0,P|156:328|256:324,1,140
304,300,94267,1,4,0:0:0:0:
360,172,94575,6,0,P|348:136|308:112,1,70
256,104,94882,2,0,L|184:104,1,70,4|0,0:0|0:0,0:0:0:0:
120,128,95190,2,0,P|92:160|72:196,1,70
60,252,95498,6,0,P|72:296|160:320,1,140,4|0,0:0|0:0,0:0:0:0:
224,304,95959,1,8,0:0:0:0:
360,264,96267,1,2,0:0:0:0:
260,80,96728,5,4,0:0:0:0:
196,108,96882,2,0,P|148:160|128:232,1,140
144,296,97344,1,4,0:0:0:0:
212,312,97498,2,0,P|272:316|364:300,1,140
408,268,97959,1,4,0:0:0:0:
392,128,98267,5,8,0:0:0:0:
392,128,98421,1,2,0:0:0:0:
260,88,98728,1,8,0:0:0:0:
140,164,99036,5,0,0:0:0:0:
132,232,99190,2,0,P|144:284|288:304,1,210,4|0,0:0|0:0,0:0:0:0:
268,244,99805,2,0,P|256:208|312:116,1,140,4|0,0:0|0:0,0:0:0:0:
408,208,100421,5,4,0:0:0:0:
292,288,100728,1,0,0:0:0:0:
152,288,101036,1,4,0:0:0:0:
92,120,101651,6,0,L|236:92,1,140,4|0,0:0|0:0,0:0:0:0:
300,88,102113,2,0,P|340:104|356:132,1,70,0|4,0:0|0:0,0:0:0:0:
292,156,102421,1,0,0:0:0:0:
408,324,102882,5,4,0:0:0:0:
268,300,103190,2,0,P|208:276|192:256,1,70
152,228,103498,1,4,0:0:0:0:
112,172,103651,1,0,0:0:0:0:
116,104,103805,6,0,P|184:70|204:68,1,70
248,60,104113,1,4,0:0:0:0:
356,152,104421,1,0,0:0:0:0:
340,220,104575,2,0,P|312:260|288:272,1,70,0|4,0:0|0:0,0:0:0:0:
228,288,104882,2,0,P|176:264|188:244,1,70
232,224,105190,1,0,0:0:0:0:
300,208,105344,6,0,P|348:188|360:172,1,70,4|0,0:0|0:0,0:0:0:0:
300,136,105651,2,0,L|240:100,1,70
176,68,105959,2,0,P|136:56|104:68,1,70,4|0,0:0|0:0,0:0:0:0:
128,276,106575,5,4,0:0:0:0:
196,252,106728,2,0,B|252:244|272:236|280:216|292:196|296:172|312:144|324:132|352:124,1,210,0|4,0:0|0:0,0:0:0:0:
416,140,107344,2,0,P|436:188|432:228,1,70
420,272,107651,1,0,0:0:0:0:
360,304,107805,5,4,0:0:0:0:
220,296,108113,1,0,0:0:0:0:
104,216,108421,1,4,0:0:0:0:
356,100,109036,6,0,P|412:100|368:136,1,140,4|0,0:0|0:0,0:0:0:0:
304,140,109498,2,0,P|252:112|168:112,1,140
108,132,109959,1,0,0:0:0:0:
72,192,110113,1,0,0:0:0:0:
96,260,110267,5,4,0:0:0:0:
224,316,110575,1,0,0:0:0:0:
360,288,110882,1,4,0:0:0:0:
124,136,111498,6,0,L|160:204,1,70,4|0,0:0|0:0,0:0:0:0:
208,148,111805,2,0,L|276:168,1,70
232,224,112113,2,0,L|280:284,1,70,4|0,0:0|0:0,0:0:0:0:
328,232,112421,1,0,0:0:0:0:
360,168,112575,1,0,0:0:0:0:
344,100,112728,5,4,0:0:0:0:
204,80,113036,1,0,0:0:0:0:
88,160,113344,1,4,0:0:0:0:
96,300,113651,6,0,P|80:336|88:336,1,70
148,344,113959,2,0,P|200:340|284:316,1,140,4|0,0:0|0:0,0:0:0:0:
344,280,114421,5,0,0:0:0:0:
384,224,114575,1,4,0:0:0:0:
408,160,114728,1,0,0:0:0:0:
424,92,114882,2,0,P|416:56|380:48,1,70
316,56,115190,1,4,0:0:0:0:
196,128,115498,2,0,P|156:164|116:248,1,140,0|4,0:0|0:0,0:0:0:0:
