osu file format v14

[General]
AudioFilename: audio.mp3
AudioLeadIn: 0
PreviewTime: 180740
Countdown: 0
SampleSet: Soft
StackLeniency: 0.5
Mode: 0
LetterboxInBreaks: 0
WidescreenStoryboard: 1

[Editor]
DistanceSpacing: 1
BeatDivisor: 4
GridSize: 16
TimelineZoom: 1.4

[Metadata]
Title:sabotage
TitleUnicode:sabotage
Artist:Ryokuoushoku Shakai
ArtistUnicode:緑黄色社会
Creator:Sotarks
Version:Basen's Normal
Source:G線上のあなたと私
Tags:SINGALONG japanese female vocalist jpop j-pop full version ryokushaka ryoku shaka pop iljaaz kowari basensorex G Senjo no Anata to Watashi You and I on the string
BeatmapID:2505247
BeatmapSetID:1188617

[Difficulty]
HPDrainRate:3.5
CircleSize:3.5
OverallDifficulty:4
ApproachRate:5.2
SliderMultiplier:0.999999999999999
SliderTickRate:1

[Events]
//Background and Video events
0,0,"bg.jpg"
//Break Periods
2,219552,221144
//Storyboard Layer 0 (Background)
//Storyboard Layer 1 (Fail)
//Storyboard Layer 2 (Pass)
//Storyboard Layer 3 (Foreground)
//Storyboard Layer 4 (Overlay)
//Storyboard Sound Samples

[TimingPoints]
92,370.37037037037,4,2,22,42,1,0
6017,-100,4,2,22,62,0,0
16388,-100,4,2,22,72,0,0
20832,-100,4,2,22,52,0,0
21388,-111.111111111111,4,2,22,52,0,0
32314,-111.111111111111,4,2,22,62,0,0
33240,-100,4,2,22,62,0,0
44536,-111.111111111111,4,2,22,62,0,0
51017,-99.9999999999999,4,2,22,62,0,0
56388,-90.9090909090909,4,2,22,72,0,1
68240,-90.9090909090909,4,2,22,82,0,1
80091,-100,4,2,22,82,0,0
86017,-100,4,2,22,62,0,0
97869,-100,4,2,22,72,0,0
98425,-111.111111111111,4,2,22,72,0,0
109721,-111.111111111111,4,2,22,62,0,0
116203,-100,4,2,22,62,0,0
118610,-100,4,2,22,62,0,0
121573,-90.9090909090909,4,2,22,72,0,1
133425,-90.9090909090909,4,2,22,82,0,1
145277,-100,4,2,22,72,0,0
168980,-100,4,2,22,62,0,0
169351,-111.111111111111,4,2,22,62,0,0
177869,-111.111111111111,4,2,22,72,0,0
180832,-125,4,2,22,72,0,0
182684,-125,4,2,22,82,0,0
183054,-125,4,2,22,62,0,0
183425,-125,4,2,22,92,0,0
183517,-125,4,2,22,52,0,0
185277,-125,4,2,22,52,0,0
185647,-125,4,2,22,62,0,0
186017,-111.111111111111,4,2,22,72,0,0
186573,-111.111111111111,4,2,22,82,0,0
187036,-111.111111111111,4,2,22,5,0,0
187129,-100,4,2,22,82,0,0
192684,-90.9090909090909,4,2,22,82,0,1
216388,-90.9090909090909,4,2,22,82,0,0
219166,-90.9090909090909,4,2,22,42,0,0
222314,-125,4,2,22,42,0,0
223054,-125,4,2,22,52,0,0
223795,-125,4,2,22,62,0,0
224536,-111.111111111111,4,2,22,62,0,0
225277,-99.9999999999999,4,2,22,72,0,0
226758,-99.9999999999999,4,2,22,82,0,0
227499,-99.9999999999999,4,2,22,92,0,0
229721,-100,4,2,22,82,0,0
231203,-100,4,2,22,72,0,0
232684,-100,4,2,22,62,0,0
234166,-100,4,2,22,52,0,0
235277,-100,4,2,22,12,0,0

[Colours]
Combo1 : 74,69,103
Combo2 : 204,62,62
Combo3 : 135,175,194

[HitObjects]
104,29,6017,6,0,L|122:131,1,100.2,14|10,3:2|3:2,3:0:0:0:
54,201,6758,2,0,L|71:299,1,100.2,10|10,3:2|3:2,3:0:0:0:
159,346,7499,2,0,B|206:328|206:328|261:340,1,100.2,10|10,3:2|3:2,0:0:0:0:
333,277,8240,1,10,3:2:0:0:
403,348,8610,1,10,3:2:0:0:
483,289,8980,6,0,P|505:239|498:190,1,100.2,8|8,3:2|3:2,3:0:0:0:
465,100,9721,1,8,3:2:0:0:
365,87,10091,1,8,3:2:0:0:
300,163,10462,2,0,B|282:210|282:210|294:265,1,100.2,10|8,3:2|3:2,3:0:0:0:
356,335,11203,2,0,P|306:357|257:350,1,100.2,8|8,3:2|3:2,0:0:0:0:
212,355,11758,1,0,3:0:0:0:
162,358,11943,6,0,P|112:336|63:343,1,100.2,12|10,3:2|3:2,3:0:0:0:
4,263,12684,1,10,3:2:0:0:
90,212,13054,1,10,3:2:0:0:
32,129,13425,2,0,L|49:31,1,100.2,8|8,3:2|3:2,3:0:0:0:
90,2,13980,1,4,1:2:0:0:
153,79,14351,1,0,1:2:0:0:
197,56,14536,2,0,P|231:45|264:46,1,50.0999999999998,12|0,2:0|0:0,2:0:0:0:
294,52,14906,5,14,2:0:0:0:
311,150,15277,2,0,L|305:213,1,50.0999999999998,2|0,1:2|1:2,0:0:0:0:
265,228,15647,2,0,L|270:291,1,50.0999999999998,2|0,1:2|1:2,0:0:0:0:
275,327,16017,1,10,1:2:0:0:
363,374,16388,6,0,P|413:352|462:359,1,100.2,10|0,2:0|1:0,0:0:0:0:
498,329,16943,2,0,B|516:282|516:282|504:227,1,100.2,6|0,1:2|1:2,2:0:0:0:
490,185,17499,1,8,2:0:0:0:
446,95,17869,6,0,L|348:78,1,100.2,4|8,1:2|2:0,2:0:0:0:
299,62,18425,1,0,2:0:0:0:
250,49,18610,2,0,L|152:32,1,100.2,8|8,2:0|2:0,0:0:0:0:
52,18,19351,2,0,B|34:65|34:65|46:120,1,100.2,8|0,2:0|1:2,0:0:0:0:
65,159,19906,2,0,B|83:206|83:206|71:261,1,100.2,12|0,2:0|1:2,0:0:0:0:
59,302,20462,1,8,2:0:0:0:
123,364,20832,5,6,1:2:0:0:
207,327,21203,1,0,3:2:0:0:
207,327,21388,2,0,P|257:305|306:312,1,90.1799972534178,2|0,2:0|2:0,2:0:0:0:
335,290,21943,1,2,1:2:0:0:
335,290,22129,2,0,P|385:312|434:305,1,90.1799972534178,2|0,3:2|2:0,2:0:0:0:
492,257,22869,2,0,L|475:159,1,90.1799972534178,2|2,3:2|2:0,2:0:0:0:
466,124,23425,1,0,1:2:0:0:
390,75,23795,5,2,1:2:0:0:
331,143,24166,2,0,L|348:241,1,90.1799972534178,2|0,3:2|3:2,2:0:0:0:
349,276,24721,2,0,B|305:265|283:286|283:286|261:308|217:297,1,135.026995880127,2|0,3:2|1:2,0:0:0:0:
137,329,25647,1,0,3:2:0:0:
67,271,26017,2,0,P|38:205|47:140,1,135.026995880127,0|8,3:2|2:0,0:0:0:0:
62,102,26758,5,2,1:2:0:0:
132,45,27129,1,2,3:2:0:0:
132,45,27314,2,0,L|230:62,1,90.1799972534178,2|0,2:0|2:0,2:0:0:0:
262,39,27869,1,2,1:2:0:0:
262,39,28054,2,0,L|360:56,1,90.1799972534178,2|0,3:2|3:2,2:0:0:0:
437,76,28795,2,0,P|459:126|452:175,1,90.1799972534178,2|10,2:0|2:0,2:0:0:0:
445,204,29351,1,2,1:2:0:0:
362,239,29721,5,2,1:2:0:0:
298,174,30091,2,0,L|200:157,1,90.1799972534178,0|2,3:2|3:2,2:0:0:0:
135,209,30832,2,0,L|126:256,1,45.089998626709,0|8,1:2|2:0,0:0:0:0:
120,298,31203,1,0,1:2:0:0:
120,298,32314,1,14,1:2:0:0:
190,369,32684,5,14,2:0:0:0:
289,359,33054,1,10,2:0:0:0:
320,319,33240,2,0,B|338:272|338:272|326:217,1,100.2,2|0,2:0|1:2,2:0:0:0:
313,175,33795,1,10,2:0:0:0:
296,127,33980,2,0,L|181:151,1,100.2,2|0,1:2|2:0,2:0:0:0:
119,86,34721,2,0,P|97:136|104:185,1,100.2,2|0,2:0|1:2,2:0:0:0:
126,223,35277,1,10,2:0:0:0:
223,244,35647,5,8,2:0:0:0:
299,180,36017,2,0,L|316:82,1,100.2,10|8,2:0|2:0,2:0:0:0:
327,32,36573,2,0,B|374:14|374:14|429:26,1,100.2,2|0,1:2|1:2,0:0:0:0:
466,49,37129,1,8,2:0:0:0:
424,139,37499,1,8,2:0:0:0:
499,204,37869,2,0,L|482:302,1,100.2,8|8,2:0|2:0,0:0:0:0:
391,345,38610,5,14,2:0:0:0:
301,300,38980,1,10,2:0:0:0:
259,327,39166,2,0,B|212:345|212:345|157:333,1,100.2,2|2,2:0|1:2,2:0:0:0:
115,320,39721,1,10,2:0:0:0:
67,304,39906,2,0,L|84:206,1,100.2,2|0,1:2|2:0,2:0:0:0:
23,125,40647,2,0,P|73:103|122:110,1,100.2,2|2,2:0|1:2,2:0:0:0:
161,131,41203,1,10,2:0:0:0:
237,66,41573,6,0,P|287:88|336:81,1,100.2,8|8,2:0|2:0,2:0:0:0:
419,36,42314,1,8,2:0:0:0:
503,89,42684,1,8,2:0:0:0:
482,186,43054,2,0,L|465:284,1,100.2,12|0,2:0|1:2,2:0:0:0:
451,332,43610,2,0,B|404:314|404:314|349:326,1,100.2,8|8,2:0|1:3,0:0:0:0:
307,339,44166,1,4,1:3:0:0:
233,287,44536,6,0,B|222:243|243:221|243:221|265:199|254:155,1,135.026995880127,6|0,1:2|1:2,2:0:0:0:
244,115,45277,1,0,2:0:0:0:
165,71,45647,1,8,2:0:0:0:
84,110,46017,2,0,L|67:208,1,90.1799972534178,4|0,1:2|1:2,2:0:0:0:
84,240,46573,2,0,P|134:262|183:255,1,90.1799972534178,8|0,2:0|1:2,2:0:0:0:
210,243,47129,1,12,2:0:0:0:
288,199,47499,6,0,P|363:187|427:214,2,135.026995880127,6|0|8,1:2|1:2|2:0,2:0:0:0:
210,243,48980,2,0,P|188:293|195:342,1,90.1799972534178,4|0,1:2|1:2,0:0:0:0:
214,365,49536,2,0,L|312:348,1,90.1799972534178,8|0,2:0|1:2,2:0:0:0:
346,339,50091,1,8,2:0:0:0:
439,373,50462,5,14,2:0:0:0:
505,298,50832,1,0,1:2:0:0:
495,248,51017,2,0,L|478:149,1,100.2,0|0,1:2|1:2,0:0:0:0:
409,76,51758,2,0,P|359:54|310:60,1,100.2,0|0,1:2|1:2,0:0:0:0:
265,68,52314,1,8,2:0:0:0:
217,81,52499,2,0,P|167:103|118:96,1,100.2,8|8,2:0|1:3,0:0:0:0:
74,86,53054,1,4,1:3:0:0:
8,162,53425,5,6,1:2:0:0:
32,352,55091,5,10,2:0:0:0:
32,352,55277,1,10,2:0:0:0:
117,298,55647,1,10,2:0:0:0:
117,298,55832,1,10,2:0:0:0:
266,366,56388,6,0,L|376:346,1,110.220003356934,14|10,3:2|3:2,3:0:0:0:
413,316,56943,1,0,3:0:0:0:
451,284,57129,2,0,P|475:227|468:172,1,110.220003356934,10|10,3:2|3:2,0:0:0:0:
424,92,57869,2,0,P|367:67|312:74,1,110.220003356934,10|10,3:2|3:2,3:0:0:0:
273,86,58425,1,0,3:0:0:0:
228,107,58610,2,0,L|247:217,1,110.220003356934,10|10,3:2|3:2,0:0:0:0:
234,313,59351,5,8,3:2:0:0:
142,350,59721,1,8,3:2:0:0:
56,300,60091,2,0,B|36:249|36:249|49:191,1,110.220003356934,8|8,3:2|3:2,0:0:0:0:
84,102,60832,2,0,P|141:77|196:84,1,110.220003356934,10|10,3:2|3:2,0:0:0:0:
237,82,61388,1,0,3:0:0:0:
286,81,61573,2,0,P|343:106|398:99,1,110.220003356934,10|10,3:2|3:2,0:0:0:0:
460,171,62314,6,0,B|479:221|479:221|466:279,1,110.220003356934,12|10,3:2|3:2,3:0:0:0:
441,318,62869,1,0,3:0:0:0:
409,355,63054,2,0,L|300:335,1,110.220003356934,10|8,3:2|3:2,3:0:0:0:
209,373,63795,2,0,P|184:316|191:261,1,110.220003356934,10|10,2:0|2:0,0:0:0:0:
201,221,64351,1,4,1:2:0:0:
282,165,64721,1,0,1:2:0:0:
272,116,64906,2,0,L|258:37,1,55.1100016784666,14|0,2:0|0:0,2:0:0:0:
253,12,65277,5,12,2:0:0:0:
167,61,65647,1,2,1:2:0:0:
80,13,66017,2,0,P|55:70|62:125,1,110.220003356934,2|8,1:2|2:0,0:0:0:0:
112,199,66758,2,0,L|98:277,1,55.1100016784666,2|8,1:2|1:3,2:0:0:0:
94,302,67129,1,6,1:3:0:0:
87,350,67314,2,0,B|137:369|137:369|195:356,1,110.220003356934,4|8,1:2|1:3,2:0:0:0:
236,334,67869,1,10,2:0:0:0:
323,287,68240,6,0,L|303:178,1,110.220003356934,6|10,1:2|2:0,2:0:0:0:
284,81,68980,2,0,P|249:66|216:70,1,55.1100016784666,2|0,1:2|1:2,0:0:0:0:
183,76,69351,1,10,2:0:0:0:
87,100,69721,2,0,L|67:209,1,110.220003356934,2|10,1:2|2:0,2:0:0:0:
52,306,70462,1,2,1:2:0:0:
131,364,70832,6,0,B|184:377|211:351|211:351|238:324|292:338,1,165.0330050354,14|0,2:0|1:2,2:0:0:0:
333,352,71573,1,8,2:0:0:0:
418,301,71943,2,0,P|432:267|428:235,1,55.1100016784666,0|0,1:2|1:2,0:0:0:0:
424,200,72314,1,8,2:0:0:0:
409,102,72684,1,2,1:2:0:0:
314,71,73054,1,14,2:0:0:0:
232,127,73425,2,0,L|243:190,1,55.1100016784666,2|8,1:2|2:0,0:0:0:0:
208,217,73795,2,0,L|219:280,1,55.1100016784666,10|4,2:0|1:3,2:0:0:0:
228,319,74166,5,4,1:2:0:0:
138,360,74536,1,2,1:2:0:0:
48,316,74906,2,0,P|23:259|30:204,1,110.220003356934,2|2,1:2|1:2,0:0:0:0:
78,127,75647,2,0,P|112:111|145:114,1,55.1100016784666,8|0,2:0|1:2,0:0:0:0:
178,115,76017,1,0,1:2:0:0:
266,159,76388,2,0,L|329:147,1,55.1100016784666,10|10,2:0|2:0,0:0:0:0:
363,171,76758,2,0,L|426:159,1,55.1100016784666,10|10,2:0|2:0,0:0:0:0:
465,150,77129,6,0,L|444:267,1,110.220003356934,6|8,1:2|2:0,0:0:0:0:
409,291,77684,1,0,1:2:0:0:
372,324,77869,2,0,B|318:310|291:336|291:336|264:363|216:351,1,165.0330050354,10|4,2:0|1:3,0:0:0:0:
169,336,78610,1,6,1:2:0:0:
122,248,78980,1,10,2:0:0:0:
191,176,79351,2,0,L|254:164,1,55.1100016784666,0|0,2:0|1:2,0:0:0:0:
293,155,79721,1,14,2:0:0:0:
331,247,80091,6,0,P|381:269|430:262,1,100.2,6|8,2:2|0:2,0:2:0:0:
509,209,80832,2,0,L|490:99,1,100.2,10|8,0:2|0:2,0:2:0:0:
482,65,81388,1,0,1:2:0:0:
482,65,81573,2,0,B|432:46|432:46|374:59,1,100.2,10|8,0:2|0:2,0:2:0:0:
308,119,82314,2,0,B|289:169|289:169|302:227,1,100.2,10|8,0:2|0:2,0:2:0:0:
364,291,83054,6,0,P|314:313|265:306,1,100.2,14|8,2:2|0:2,0:2:0:0:
229,337,83610,2,0,P|179:315|130:322,1,100.2,2|0,1:2|1:2,0:2:0:0:
86,333,84166,1,10,0:2:0:0:
70,234,84536,2,0,L|180:215,1,100.2,10|8,0:2|0:2,0:2:0:0:
195,176,85091,1,2,1:2:0:0:
195,176,85277,2,0,L|258:164,1,50.0999999999998,10|0,0:2|1:2,0:2:0:0:
292,155,85647,1,8,0:2:0:0:
311,252,86017,5,14,2:0:0:0:
409,270,86388,1,10,2:0:0:0:
448,239,86573,2,0,B|430:192|430:192|442:137,1,100.2,2|0,2:0|1:2,2:0:0:0:
428,95,87129,1,10,2:0:0:0:
411,47,87314,2,0,L|308:65,1,100.2,2|0,2:0|2:0,2:0:0:0:
233,2,88054,2,0,P|211:52|218:101,1,100.2,2|0,2:0|1:2,2:0:0:0:
234,142,88610,1,10,2:0:0:0:
299,217,88980,5,8,2:0:0:0:
255,307,89351,2,0,L|157:324,1,100.2,10|8,2:0|2:0,2:0:0:0:
109,306,89906,2,0,B|91:259|91:259|103:204,1,100.2,2|0,1:2|1:2,0:0:0:0:
115,162,90462,1,8,2:0:0:0:
44,91,90832,1,8,2:0:0:0:
104,11,91203,2,0,L|202:28,1,100.2,8|8,2:0|2:0,0:0:0:0:
276,95,91943,5,10,2:0:0:0:
363,47,92314,1,10,2:0:0:0:
394,86,92499,2,0,B|412:133|412:133|400:188,1,100.2,2|2,2:0|2:0,2:0:0:0:
426,224,93054,1,10,2:0:0:0:
455,264,93240,2,0,L|438:362,1,100.2,2|0,1:2|2:0,2:0:0:0:
338,376,93980,2,0,P|288:354|239:361,1,100.2,2|2,2:0|1:2,2:0:0:0:
195,372,94536,1,10,2:0:0:0:
105,328,94906,6,0,P|83:278|90:229,1,100.2,8|8,2:0|2:0,2:0:0:0:
162,167,95647,1,8,2:0:0:0:
240,229,96017,1,8,2:0:0:0:
328,182,96388,2,0,L|388:161,1,50.0999999999998,0|0,1:0|1:0,0:0:0:0:
421,184,96758,2,0,B|439:231|439:231|427:286,1,100.2,12|8,2:0|2:0,0:0:0:0:
390,372,97499,2,0,L|329:351,1,50.0999999999998,4|4,2:3|2:3,0:0:0:0:
302,335,97869,5,6,1:2:0:0:
215,338,98240,1,2,3:2:0:0:
215,338,98425,2,0,P|165:360|116:353,1,90.1799972534178,2|0,3:2|0:0,0:0:0:0:
97,336,98980,1,2,3:2:0:0:
97,336,99166,2,0,P|75:286|82:237,1,90.1799972534178,2|8,3:2|3:2,0:0:0:0:
127,177,99906,2,0,L|225:194,1,90.1799972534178,10|0,3:0|0:0,0:0:0:0:
259,202,100462,1,6,3:0:0:0:
327,260,100832,5,4,1:2:0:0:
408,221,101203,2,0,P|430:171|423:122,1,90.1799972534178,2|8,3:2|3:2,3:2:0:0:
415,93,101758,2,0,B|371:82|349:103|349:103|327:125|283:114,1,135.026995880127,0|4,0:0|1:2,0:0:0:0:
214,71,102684,1,8,3:0:0:0:
214,71,102869,2,0,L|119:87,1,90.1799972534178,4|0,3:0|3:2,3:2:0:0:
81,96,103425,1,8,3:2:0:0:
31,171,103795,1,6,1:2:0:0:
92,236,104166,6,0,L|109:334,1,90.1799972534178,2|8,3:2|3:2,0:0:0:0:
118,368,104721,1,2,3:2:0:0:
234,299,105277,2,0,P|284:277|333:284,1,90.1799972534178,2|8,1:2|3:0,0:0:0:0:
361,293,105832,1,2,3:2:0:0:
448,190,106388,1,6,3:0:0:0:
391,120,106758,6,0,B|347:109|325:130|325:130|303:152|259:141,1,135.026995880127,6|0,1:2|0:0,2:0:0:0:
221,125,107499,1,6,1:2:0:0:
58,59,108240,1,2,1:2:0:0:
58,59,108425,2,0,P|29:125|38:190,1,135.026995880127,10|8,2:0|2:0,0:0:0:0:
50,228,109166,1,14,2:0:0:0:
132,334,109721,6,0,B|176:323|198:344|198:344|220:366|264:355,1,135.026995880127,6|0,1:2|1:2,2:0:0:0:
303,348,110462,2,0,L|366:336,1,45.089998626709,2|2,2:0|1:2,0:0:0:0:
391,331,110832,1,10,2:0:0:0:
452,265,111203,2,0,L|435:167,1,90.1799972534178,0|8,1:2|2:0,2:0:0:0:
427,132,111758,2,0,P|377:110|328:117,1,90.1799972534178,2|0,1:2|1:2,0:0:0:0:
299,124,112314,1,10,2:0:0:0:
228,68,112684,6,0,P|153:80|89:53,2,135.026995880127,0|0|10,1:2|1:2|2:0,2:0:0:0:
299,124,114166,2,0,P|277:174|284:223,1,90.1799972534178,2|8,1:2|2:0,0:0:0:0:
285,253,114721,2,0,L|187:270,1,90.1799972534178,2|2,1:2|1:2,2:0:0:0:
152,278,115277,1,12,2:0:0:0:
53,294,115647,5,14,2:0:0:0:
7,204,116017,1,2,1:2:0:0:
17,155,116203,2,0,L|34:56,1,100.2,2|2,3:2|3:2,0:0:0:0:
129,26,116943,2,0,P|179:48|228:42,1,100.2,2|10,3:2|2:0,0:0:0:0:
263,73,117499,1,10,1:2:0:0:
306,98,117684,2,0,P|356:76|405:83,1,100.2,10|8,2:0|1:3,0:0:0:0:
444,104,118240,1,8,1:3:0:0:
502,185,118610,5,6,1:2:0:0:
480,352,120277,5,10,2:0:0:0:
480,352,120462,1,10,2:0:0:0:
399,293,120832,2,0,L|335:304,1,50.0999999999998,10|10,2:0|2:0,2:0:0:0:
324,345,121203,2,0,L|260:356,1,50.0999999999998,8|8,2:0|2:0,0:0:0:0:
226,364,121573,6,0,L|116:344,1,110.220003356934,14|10,3:2|3:2,3:0:0:0:
82,309,122129,1,0,3:0:0:0:
57,265,122314,2,0,P|81:208|74:153,1,110.220003356934,10|10,3:2|3:2,0:0:0:0:
117,71,123054,2,0,P|174:46|229:53,1,110.220003356934,10|10,3:2|3:2,3:0:0:0:
260,78,123610,1,0,3:0:0:0:
296,111,123795,2,0,L|277:221,1,110.220003356934,10|10,3:2|3:2,0:0:0:0:
311,312,124536,5,8,3:2:0:0:
404,281,124906,1,8,3:2:0:0:
484,337,125277,2,0,B|504:286|504:286|491:228,1,110.220003356934,8|8,3:2|3:2,0:0:0:0:
459,138,126017,2,0,P|402:113|347:120,1,110.220003356934,10|10,3:2|3:2,0:0:0:0:
309,98,126573,1,0,3:0:0:0:
263,79,126758,2,0,P|206:104|151:97,1,110.220003356934,10|10,3:2|3:2,0:0:0:0:
69,141,127499,6,0,B|50:191|50:191|63:249,1,110.220003356934,12|10,3:2|3:2,3:0:0:0:
72,294,128054,1,0,3:0:0:0:
87,341,128240,2,0,L|196:321,1,110.220003356934,10|8,3:2|3:2,3:0:0:0:
283,365,128980,2,0,P|308:308|301:253,1,110.220003356934,10|10,2:0|2:0,0:0:0:0:
292,213,129536,1,4,1:2:0:0:
206,163,129906,1,0,1:2:0:0:
214,114,130091,2,0,L|228:35,1,55.1100016784666,14|0,2:0|0:0,2:0:0:0:
232,10,130462,5,12,2:0:0:0:
317,59,130832,1,2,1:2:0:0:
409,23,131203,2,0,P|434:80|427:135,1,110.220003356934,2|8,1:2|2:0,0:0:0:0:
393,218,131943,2,0,L|407:296,1,55.1100016784666,2|8,1:2|1:3,2:0:0:0:
379,316,132314,1,10,2:0:0:0:
350,356,132499,2,0,B|300:375|300:375|242:362,1,110.220003356934,4|8,1:2|2:0,0:0:0:0:
199,349,133054,1,10,2:0:0:0:
150,250,133425,6,0,L|170:141,1,110.220003356934,6|10,1:2|2:0,2:0:0:0:
250,84,134166,2,0,P|284:98|316:94,1,55.1100016784666,2|0,1:2|1:2,0:0:0:0:
350,91,134536,1,10,2:0:0:0:
444,61,134906,2,0,L|464:170,1,110.220003356934,2|10,1:2|2:0,2:0:0:0:
480,266,135647,1,2,1:2:0:0:
418,343,136017,6,0,B|365:356|338:330|338:330|311:303|257:317,1,165.0330050354,14|0,2:0|1:0,2:0:0:0:
215,330,136758,1,8,2:0:0:0:
116,318,137129,2,0,P|100:283|105:249,1,55.1100016784666,0|0,1:2|1:2,0:0:0:0:
104,217,137499,1,8,2:0:0:0:
76,121,137869,1,2,1:2:0:0:
153,59,138240,1,14,2:0:0:0:
246,90,138610,2,0,L|235:153,1,55.1100016784666,2|8,1:2|2:0,0:0:0:0:
270,180,138980,2,0,L|259:243,1,55.1100016784666,8|4,2:0|1:3,2:0:0:0:
250,282,139351,5,4,1:2:0:0:
316,354,139721,1,2,1:2:0:0:
409,321,140091,2,0,P|434:264|427:209,1,110.220003356934,2|2,1:2|1:2,0:0:0:0:
385,128,140832,2,0,P|352:113|321:116,1,55.1100016784666,8|0,2:0|1:2,0:0:0:0:
284,120,141203,1,0,1:2:0:0:
224,40,141573,2,0,L|161:52,1,55.1100016784666,10|10,2:0|2:0,0:0:0:0:
137,13,141943,2,0,L|74:25,1,55.1100016784666,10|10,2:0|2:0,0:0:0:0:
36,39,142314,6,0,P|11:96|18:151,1,110.220003356934,6|8,1:2|2:0,0:0:0:0:
34,187,142869,1,0,1:2:0:0:
63,226,143054,2,0,P|144:249|216:188,1,165.0330050354,10|4,2:0|1:3,0:0:0:0:
229,163,143795,1,6,1:2:0:0:
301,95,144166,5,10,2:0:0:0:
373,162,144536,2,0,L|361:225,1,55.1100016784666,0|0,2:0|1:2,0:0:0:0:
353,264,144906,1,10,2:0:0:0:
294,345,145277,6,0,B|344:364|344:364|402:351,1,100.2,6|8,1:2|2:0,0:0:0:0:
473,298,146017,2,0,B|492:248|492:248|479:190,1,100.2,8|10,2:0|2:0,0:0:0:0:
470,158,146573,1,2,1:2:0:0:
470,158,146758,2,0,L|359:138,1,100.2,8|10,2:0|2:0,0:0:0:0:
330,49,147499,2,0,L|219:29,1,100.2,8|8,2:0|2:0,0:0:0:0:
132,19,148240,6,0,B|113:69|113:69|126:127,1,100.2,6|8,1:2|2:0,2:0:0:0:
41,173,148980,2,0,B|60:223|60:223|47:281,1,100.2,8|10,2:0|2:0,0:0:0:0:
43,321,149536,1,2,1:2:0:0:
43,321,149721,2,0,L|153:340,1,100.2,8|10,2:0|2:0,0:0:0:0:
221,277,150462,2,0,L|331:296,1,100.2,8|10,2:0|2:0,0:0:0:0:
401,236,151203,6,0,B|420:186|420:186|407:128,2,100.065,4|8|8,1:2|2:0|2:0,2:0:0:0:
324,299,152314,1,10,2:0:0:0:
324,299,152499,2,0,B|274:318|274:318|216:305,1,100.2,2|2,1:2|2:0,0:0:0:0:
132,279,153240,2,0,L|113:169,1,100.2,2|0,1:2|1:2,0:0:0:0:
107,130,153795,1,10,2:0:0:0:
166,49,154166,6,0,B|116:30|116:30|58:43,2,100.065,4|8|8,1:2|2:0|2:0,2:0:0:0:
219,139,155277,1,8,2:0:0:0:
219,139,155462,2,0,L|329:120,1,100.2,2|0,1:2|1:2,0:0:0:0:
366,113,156017,1,10,2:0:0:0:
442,47,156388,1,8,2:0:0:0:
442,47,156573,1,10,2:0:0:0:
502,183,157129,6,0,L|476:324,1,100.2,14|10,2:0|2:0,2:0:0:0:
469,329,157684,2,0,P|419:307|370:313,1,100.2,2|2,2:0|1:2,2:0:0:0:
329,331,158240,1,10,2:0:0:0:
238,287,158610,1,10,2:0:0:0:
200,320,158795,2,0,P|150:342|101:336,1,100.2,2|10,2:0|2:0,2:0:0:0:
62,313,159351,1,10,2:0:0:0:
21,221,159721,1,10,2:0:0:0:
82,142,160091,6,0,B|132:123|132:123|190:136,1,100.2,6|2,1:2|1:2,2:0:0:0:
254,197,160832,2,0,L|317:185,2,50.0999999999999,8|0|0,2:0|2:0|1:2,2:0:0:0:
227,239,161388,2,0,L|252:380,1,100.2,6|10,1:2|2:0,2:0:0:0:
339,369,162129,1,0,1:2:0:0:
378,338,162314,2,0,B|428:319|428:319|486:332,1,100.2,14|0,2:0|1:2,0:0:0:0:
510,236,163054,6,0,L|484:94,1,100.2,6|10,1:2|2:0,2:0:0:0:
481,88,163610,2,0,P|431:66|382:72,1,100.2,2|2,2:0|1:2,2:0:0:0:
340,89,164166,1,10,2:0:0:0:
245,57,164536,1,10,2:0:0:0:
202,83,164721,2,0,P|152:105|103:99,1,100.2,2|10,1:2|2:0,2:0:0:0:
61,81,165277,1,10,2:0:0:0:
7,165,165647,1,6,1:3:0:0:
12,264,166017,6,0,B|62:283|62:283|120:270,1,100.2,6|6,1:2|1:2,2:0:0:0:
202,242,166758,2,0,L|190:179,2,50.0999999999999,8|4|6,2:0|1:3|1:3,2:0:0:0:
245,267,167314,2,0,L|386:242,1,100.2,6|2,1:2|1:2,2:0:0:0:
392,239,167869,1,10,2:0:0:0:
468,174,168240,2,0,B|487:124|487:124|474:66,1,100.2,2|10,2:0|2:0,0:0:0:0:
411,17,168980,5,6,1:2:0:0:
330,57,169351,2,0,P|308:107|314:156,1,90.1799972534178,10|0,2:0|1:2,2:0:0:0:
333,227,170091,1,10,2:0:0:0:
271,292,170462,2,0,L|163:272,1,90.1799972534178,2|10,1:2|2:0,2:0:0:0:
115,335,171203,2,0,P|93:285|99:236,1,90.1799972534178,2|10,1:2|2:0,0:0:0:0:
161,189,171943,6,0,B|205:177|227:199|227:199|249:221|294:210,2,135.026995880127,2|0|8,1:2|3:0|2:0,2:0:0:0:
79,150,173425,2,0,L|99:33,1,90.1799972534178,0|8,1:2|2:0,0:0:0:0:
172,16,174166,1,2,2:0:0:0:
232,82,174536,2,0,L|295:70,1,45.0899986267089,10|2,2:0|1:2,0:0:0:0:
320,66,174906,6,0,P|380:98|410:230,1,180.116994506836,6|2,1:2|1:2,2:0:0:0:
406,288,176017,1,8,2:0:0:0:
337,346,176388,2,0,L|214:324,1,90.1799972534178,2|10,1:2|2:0,0:0:0:0:
189,261,177129,2,0,P|197:209|193:186,1,45.089998626709,10|8,2:0|1:3,0:0:0:0:
221,178,177499,2,0,P|213:126|217:103,1,45.0899986267089,8|4,1:3|1:3,0:0:0:0:
212,89,177869,5,6,1:2:0:0:
398,68,179536,5,10,2:0:0:0:
398,68,179721,1,10,2:0:0:0:
460,140,180091,1,10,2:0:0:0:
460,140,180277,1,10,2:0:0:0:
456,272,180832,6,0,B|409:224|280:253|357:337|241:332,1,240.048,6|0,1:2|0:0,2:0:0:0:
173,288,182314,1,10,2:0:0:0:
106,345,182684,1,10,2:0:0:0:
106,345,183425,6,0,B|70:282|102:211|102:211|81:181|81:181|122:115|82:38,1,320.208,14|0,1:2|0:0,2:0:0:0:
162,2,185277,1,2,1:2:0:0:
222,66,185647,1,2,1:2:0:0:
308,18,186017,2,0,L|371:29,1,45.0899986267089,10|8,1:2|1:2,0:0:0:0:
376,63,186388,2,0,L|439:74,1,45.0899986267089,10|8,1:2|1:2,0:0:0:0:
496,200,187129,6,0,L|473:326,1,100.2,12|0,1:2|2:0,2:0:0:0:
397,357,187869,1,8,2:0:0:0:
310,307,188240,2,0,P|288:257|294:208,1,100.2,0|8,1:2|2:0,0:0:0:0:
339,124,188980,1,0,2:0:0:0:
252,73,189351,2,0,B|200:59|175:84|175:84|149:110|96:97,1,150.03,12|0,2:0|0:0,2:0:0:0:
62,90,190091,1,8,2:0:0:0:
13,177,190462,6,0,P|48:229|51:340,1,150.03,4|0,1:2|2:0,2:0:0:0:
55,364,191203,1,4,1:2:0:0:
157,350,191573,1,8,2:0:0:0:
157,350,191758,2,0,L|283:327,1,100.2,4|4,1:2|1:2,0:0:0:0:
304,323,192314,1,8,2:0:0:0:
407,360,192684,6,0,P|431:303|424:248,1,110.220003356934,6|10,1:2|2:0,2:0:0:0:
496,185,193425,2,0,P|481:149|485:115,1,55.1100016784666,2|0,1:2|1:2,0:0:0:0:
480,84,193795,1,10,2:0:0:0:
399,26,194166,2,0,L|272:48,1,110.220003356934,2|10,1:2|2:0,2:0:0:0:
222,116,194906,1,2,1:2:0:0:
137,65,195277,6,0,P|102:117|99:228,1,165.0330050354,14|0,2:0|1:2,2:0:0:0:
107,265,196017,1,8,2:0:0:0:
190,317,196388,2,0,L|255:305,1,55.1100016784666,0|0,1:2|1:2,2:0:0:0:
292,298,196758,1,8,2:0:0:0:
372,355,197129,1,6,1:2:0:0:
466,325,197499,1,10,2:0:0:0:
490,229,197869,1,6,1:2:0:0:
443,141,198240,1,10,2:0:0:0:
344,137,198610,6,0,P|287:113|232:120,1,110.220003356934,4|10,1:2|2:0,2:0:0:0:
146,151,199351,2,0,L|168:277,1,110.220003356934,2|10,1:2|2:0,2:0:0:0:
234,330,200091,2,0,P|177:354|122:347,1,110.220003356934,0|8,1:2|2:0,0:0:0:0:
44,300,200832,2,0,L|34:245,1,55.1100016784666,2|2,2:0|1:2,2:0:0:0:
58,202,201203,2,0,L|48:147,1,55.1100016784666,10|2,2:0|2:0,2:0:0:0:
39,99,201573,6,0,P|96:75|151:82,1,110.220003356934,6|8,1:2|2:0,2:0:0:0:
185,104,202129,1,0,2:0:0:0:
226,131,202314,2,0,B|279:144|306:118|306:118|333:91|387:105,1,165.0330050354,2|0,1:2|2:0,2:0:0:0:
427,121,203054,1,6,1:2:0:0:
501,186,203425,1,8,2:0:0:0:
473,226,203610,2,0,P|449:283|456:338,1,110.220003356934,4|8,1:2|2:0,0:0:0:0:
468,376,204166,1,8,2:0:0:0:
370,360,204536,6,0,B|320:341|320:341|262:354,1,110.220003356934,14|10,1:2|1:2,0:0:0:0:
215,350,205091,1,0,2:0:0:0:
165,345,205277,2,0,L|143:219,1,110.220003356934,10|10,1:2|1:2,0:0:0:0:
52,204,206017,2,0,L|30:78,1,110.220003356934,10|10,1:2|1:2,0:0:0:0:
92,16,206758,1,10,1:2:0:0:
188,39,207129,6,0,P|223:91|226:202,1,165.0330050354,14|0,1:2|1:2,2:0:0:0:
211,237,207869,1,8,1:2:0:0:
284,303,208240,2,0,P|341:279|396:286,1,110.220003356934,0|8,1:2|1:2,0:0:0:0:
482,314,208980,1,6,1:2:0:0:
510,219,209351,2,0,L|498:155,1,55.1100016784666,10|8,1:2|2:0,2:0:0:0:
459,136,209721,2,0,L|447:72,1,55.1100016784666,10|8,1:2|1:3,2:0:0:0:
440,33,210091,1,6,1:3:0:0:
352,79,210462,6,0,P|295:103|240:96,1,110.220003356934,4|2,1:2|1:2,0:0:0:0:
173,163,211203,2,0,P|116:139|61:146,1,110.220003356934,2|2,1:2|1:2,0:0:0:0:
3,217,211943,1,8,1:2:0:0:
10,315,212314,1,8,1:2:0:0:
95,364,212684,2,0,P|147:356|170:360,1,55.1100016784666,10|10,1:2|1:2,0:0:0:0:
190,329,213054,2,0,P|242:337|265:333,1,55.1100016784666,10|10,1:2|1:2,0:0:0:0:
289,357,213425,6,0,P|346:333|401:340,1,110.220003356934,6|8,1:2|1:2,0:0:0:0:
439,321,213980,1,8,2:0:0:0:
485,303,214166,2,0,L|451:113,1,165.0330050354,10|4,1:2|1:3,2:0:0:0:
447,91,214906,1,6,1:2:0:0:
362,40,215277,1,10,2:0:0:0:
313,52,215462,2,0,L|202:71,1,110.220003356934,4|0,1:2|1:2,2:0:0:0:
156,82,216017,1,10,2:0:0:0:
95,157,216388,5,6,1:2:0:0:
256,192,216573,12,2,219351,3:2:0:0:
480,32,222314,6,0,L|463:126,1,80.1599999999997,12|4,2:0|1:3,0:0:0:0:
505,189,223054,2,0,L|488:283,1,80.1599999999997,4|4,1:3|1:3,0:0:0:0:
423,327,223795,1,4,1:3:0:0:
337,297,224166,1,4,1:3:0:0:
265,350,224536,2,0,L|171:333,1,90.1799972534178,4|4,1:3|1:3,0:0:0:0:
85,376,225277,6,0,B|73:328|73:328|86:277,1,100.2,4|8,1:3|1:2,0:0:0:0:
60,235,225832,1,8,1:2:0:0:
36,190,226017,2,0,B|48:142|48:142|35:91,1,100.2,8|8,1:2|1:2,0:0:0:0:
99,15,226758,1,8,1:2:0:0:
176,77,227129,1,8,1:2:0:0:
255,16,227499,2,0,L|333:30,1,50.0999999999999,8|8,1:2|1:2,0:0:0:0:
332,66,227869,2,0,L|410:80,1,50.0999999999999,8|8,1:2|1:2,0:0:0:0:
430,80,228240,5,6,1:2:0:0:
256,192,228425,12,0,235277,2:0:0:0:
