osu file format v14

[General]
AudioFilename: audio.mp3
AudioLeadIn: 0
PreviewTime: 55741
Countdown: 0
SampleSet: Soft
StackLeniency: 0.5
Mode: 2
LetterboxInBreaks: 0
WidescreenStoryboard: 1

[Editor]
DistanceSpacing: 1
BeatDivisor: 4
GridSize: 8
TimelineZoom: 2.599999

[Metadata]
Title:Shout Baby (TV Size)
TitleUnicode:Shout Baby (TV Size)
Artist:Ryokuoushoku Shakai
ArtistUnicode:緑黄色社会
Creator:Secre
Version:Platter
Source:僕のヒーローアカデミア
Tags:ryokushaka ending boku no jpop j pop エンディングテーマ ED theme 長屋 晴子 小林 壱誓 peppe 穴見 真吾 my hero academia japanese anime greaper Anami Shingo Nagaya Haruko Kobayashi Issei chickenbible
BeatmapID:2479137
BeatmapSetID:1189400

[Difficulty]
HPDrainRate:4
CircleSize:3.3
OverallDifficulty:8
ApproachRate:8
SliderMultiplier:1.65
SliderTickRate:1

[Events]
//Background and Video events
0,0,"ilovenejiredekusucks.jpg",0,0
//Break Periods
//Storyboard Layer 0 (Background)
//Storyboard Layer 1 (Fail)
//Storyboard Layer 2 (Pass)
//Storyboard Layer 3 (Foreground)
//Storyboard Layer 4 (Overlay)
//Storyboard Sound Samples

[TimingPoints]
492,333.333333333333,4,2,11,70,1,0
3158,-100,4,2,11,70,0,0
3408,-100,4,2,11,5,0,0
3491,-100,4,2,11,70,0,0
6075,-100,4,2,11,5,0,0
6158,-100,4,2,11,70,0,0
8741,-100,4,2,11,5,0,0
8824,-100,4,2,11,70,0,0
13825,-133.333333333333,4,2,11,60,0,0
29741,-133.333333333333,4,2,11,5,0,0
29825,-133.333333333333,4,2,11,60,0,0
35158,-117.647058823529,4,2,11,65,0,0
35241,-117.647058823529,4,3,12,65,0,0
45825,-100,4,3,12,70,0,0
46075,-100,4,3,12,5,0,0
46158,-100,4,3,12,60,0,0
49825,-100,4,2,11,60,0,0
50825,-100,4,2,11,60,0,0
51158,-100,4,2,11,70,0,0
55491,-133.333333333333,4,2,11,60,0,0
56158,-100,4,2,11,60,0,0
56491,-90.9090909090909,4,2,11,80,0,1
56741,-90.9090909090909,4,2,11,5,0,1
56824,-90.9090909090909,4,2,11,80,0,1
59408,-90.9090909090909,4,2,11,5,0,1
59491,-90.9090909090909,4,2,11,80,0,1
62075,-90.9090909090909,4,2,11,5,0,1
62158,-90.9090909090909,4,2,11,80,0,1
64741,-90.9090909090909,4,2,11,5,0,1
64824,-90.9090909090909,4,2,11,80,0,1
67158,-90.9090909090909,4,2,11,80,0,1
67408,-90.9090909090909,4,2,11,5,0,1
67491,-90.9090909090909,4,2,11,80,0,1
72741,-90.9090909090909,4,2,11,5,0,1
72824,-90.9090909090909,4,2,11,80,0,1
75408,-90.9090909090909,4,2,11,5,0,1
75491,-90.9090909090909,4,2,11,80,0,1
77825,-100,4,2,11,70,0,0
78075,-100,4,2,11,5,0,0
78158,-100,4,2,11,70,0,0
80741,-100,4,2,11,5,0,0
80824,-100,4,2,11,70,0,0
81241,-100,4,2,11,5,0,0
81324,-100,4,2,11,70,0,0
84741,-100,4,2,11,5,0,0
84824,-100,4,2,11,70,0,0
86075,-100,4,2,11,5,0,0
86158,-100,4,2,11,70,0,0

[Colours]
Combo1 : 111,217,206
Combo2 : 133,165,250
Combo3 : 140,237,242

[HitObjects]
256,192,492,12,0,2825,0:0:0:0:
283,213,3158,6,0,L|163:216,1,82.5,4|0,0:0|0:0,0:0:0:0:
361,259,3491,1,8,0:0:0:0:
447,238,3657,1,0,0:0:0:0:
448,160,3824,1,0,0:0:0:0:
363,130,3990,1,0,0:0:0:0:
130,160,4158,1,8,0:0:0:0:
48,177,4325,6,0,L|224:184,1,165,0|0,0:0|0:0,0:0:0:0:
395,137,4991,1,0,0:0:0:0:
129,248,5325,2,0,L|227:244,2,82.5,0|8|0,0:0|0:0|0:0,0:0:0:0:
378,176,5825,5,4,0:0:0:0:
233,283,6158,1,8,0:0:0:0:
232,201,6324,1,0,0:0:0:0:
280,135,6491,1,0,0:0:0:0:
356,109,6657,1,0,0:0:0:0:
118,101,6825,1,8,0:0:0:0:
26,168,6991,6,0,L|191:168,2,165,0|0|0,0:0|0:0|0:0,0:0:0:0:
191,157,7991,1,0,0:0:0:0:
347,78,8158,2,0,L|357:195,1,82.5,8|0,0:0|0:0,0:0:0:0:
117,265,8491,5,4,0:0:0:0:
258,278,8825,1,8,0:0:0:0:
260,197,8991,1,0,0:0:0:0:
208,135,9158,1,0,0:0:0:0:
128,123,9324,1,0,0:0:0:0:
387,141,9491,1,8,0:0:0:0:
473,52,9658,6,0,L|481:261,1,165,0|0,0:0|0:0,0:0:0:0:
311,263,10325,1,0,0:0:0:0:
287,185,10491,1,0,0:0:0:0:
314,108,10658,1,0,0:0:0:0:
381,62,10824,1,8,0:0:0:0:
462,64,10991,1,0,0:0:0:0:
206,182,11158,5,4,0:0:0:0:
124,160,11325,2,0,L|28:163,2,82.5,0|8|0,0:0|0:0|0:0,0:0:0:0:
277,131,11825,2,0,L|387:130,1,82.5,0|0,0:0|0:0,0:0:0:0:
111,258,12158,2,0,L|101:140,1,82.5,8|0,0:0|0:0,0:0:0:0:
356,161,12491,6,0,L|258:167,2,82.5,0|8|8,0:0|0:3|0:0,0:0:0:0:
443,172,12991,2,0,P|496:104|388:13,1,247.5,0|8,0:0|0:3,0:0:0:0:
310,72,13658,1,8,0:3:0:0:
80,254,13825,6,0,L|64:86,1,123.750004720688,4|0,0:0|0:0,0:0:0:0:
151,113,14325,1,0,0:0:0:0:
309,213,14491,6,0,P|314:139|139:57,1,247.500009441376,0|8,0:0|0:3,0:0:0:0:
404,142,15491,2,0,L|270:142,2,123.750004720688,8|0|4,0:0|0:0|0:3,0:0:0:0:
88,291,16491,6,0,L|81:154,1,123.750004720688,8|8,0:3|0:0,0:0:0:0:
268,184,17158,1,0,0:0:0:0:
191,187,17324,1,0,0:0:0:0:
112,192,17491,1,8,0:0:0:0:
356,124,17825,5,8,0:3:0:0:
60,255,18158,2,0,L|229:259,2,123.750004720688,8|8|8,0:0|0:3|0:0,0:0:0:0:
463,295,19158,6,0,P|468:207|351:161,1,185.625007081032,4|0,0:0|0:0,0:0:0:0:
243,250,19825,2,0,L|219:81,1,123.750004720688,8|8,0:3|0:0,0:0:0:0:
299,99,20325,1,0,0:0:0:0:
478,194,20491,6,0,L|317:203,1,123.750004720688,8|8,0:3|0:0,0:0:0:0:
172,277,21158,2,0,L|342:267,1,123.750004720688,8|8,0:3|0:0,0:0:0:0:
23,298,21825,6,0,P|17:221|137:177,1,185.625007081032,8|0,0:3|0:0,0:0:0:0:
279,243,22491,1,0,0:0:0:0:
281,182,22657,1,8,0:3:0:0:
233,137,22824,1,8,0:0:0:0:
174,126,22991,1,0,0:0:0:0:
362,126,23158,5,8,0:3:0:0:
449,107,23325,1,0,0:0:0:0:
449,107,23491,1,8,0:0:0:0:
362,126,23658,1,0,0:0:0:0:
219,238,23825,2,0,L|305:237,1,61.875002360344,0|8,0:0|0:3,0:0:0:0:
418,89,24158,2,0,L|419:169,1,61.875002360344,8|0,0:0|0:0,0:0:0:0:
152,287,24491,6,0,P|146:214|311:139,1,247.500009441376,4|0,0:0|0:0,0:0:0:0:
116,171,25491,1,8,0:0:0:0:
424,197,25825,6,0,L|286:142,1,123.750004720688,8|8,0:3|0:0,0:0:0:0:
38,180,26491,2,0,L|181:178,1,123.750004720688,0|4,0:0|0:3,0:0:0:0:
470,279,27158,6,0,P|474:199|360:154,1,185.625007081032,8|0,0:3|0:0,0:0:0:0:
221,180,27825,2,0,L|125:185,2,61.875002360344,0|0|8,0:0|0:0|0:0,0:0:0:0:
408,77,28325,6,0,L|416:250,1,123.750004720688,0|8,0:0|0:3,0:0:0:0:
149,261,28991,1,8,0:3:0:0:
426,203,29325,2,0,L|323:204,2,61.875002360344,8|4|0,0:3|0:0|0:0,0:0:0:0:
186,183,29825,5,4,0:0:0:0:
50,178,30158,2,0,L|217:174,2,123.750004720688,8|0|8,0:0|0:0|0:0,0:0:0:0:
311,259,31158,6,0,P|298:177|202:169,1,185.625007081032,8|8,0:3|0:3,0:0:0:0:
367,178,31825,2,0,L|454:184,1,61.875002360344,0|8,0:0|0:3,0:0:0:0:
493,183,32158,2,0,L|499:92,1,61.875002360344,8|0,0:0|0:0,0:0:0:0:
260,233,32491,5,10,0:3:0:0:
198,235,32657,1,0,0:0:0:0:
136,238,32824,1,8,0:0:0:0:
322,128,32991,2,0,B|387:153|387:153|387:237,1,123.750004720688,10|10,0:3|0:3,0:0:0:0:
313,221,33491,1,8,0:0:0:0:
242,240,33658,1,0,0:0:0:0:
88,174,33991,6,0,L|6:174,2,61.875002360344,10|4|0,0:3|0:0|0:0,0:0:0:0:
349,114,34491,2,0,L|356:208,1,61.875002360344,10|8,0:0|0:3,0:0:0:0:
116,283,34825,2,0,L|101:174,1,61.875002360344,10|8,0:3|0:3,0:0:0:0:
383,230,35158,6,0,P|458:192|464:121,1,140.250002675056,4|8,0:0|0:0,0:0:0:0:
205,192,35825,2,0,L|382:186,1,140.250002675056,8|8,0:0|0:0,0:0:0:0:
94,242,36491,6,0,L|84:94,1,140.250002675056,8|8,0:0|0:0,0:0:0:0:
404,78,37158,2,0,L|413:231,1,140.250002675056,8|8,0:0|0:0,0:0:0:0:
15,254,37825,6,0,L|235:257,1,210.375004012585,8|8,0:0|0:0,0:0:0:0:
150,200,38491,2,0,L|131:47,1,140.250002675056,8|8,0:0|0:0,0:0:0:0:
417,235,39158,6,0,L|181:249,1,210.375004012585,8|0,0:0|0:0,0:0:0:0:
293,178,39825,2,0,L|379:180,1,70.1250013375282,8|0,0:0|0:0,0:0:0:0:
190,205,40158,2,0,L|176:94,1,70.1250013375282,8|0,0:0|0:0,0:0:0:0:
445,222,40491,6,0,P|441:149|323:85,1,210.375004012585,4|8,0:0|0:0,0:0:0:0:
160,227,41158,2,0,L|135:7,1,210.375004012585,8|0,0:0|0:0,0:0:0:0:
321,220,41825,6,0,L|460:203,3,140.250002675056,8|8|8|8,0:0|0:0|0:0|0:0,0:0:0:0:
43,312,43158,6,0,L|22:153,1,140.250002675056,8|8,0:0|0:0,0:0:0:0:
199,207,43825,1,8,0:0:0:0:
117,211,43991,1,0,0:0:0:0:
39,217,44158,1,8,0:0:0:0:
447,102,44491,6,0,L|460:269,1,140.250002675056,8|8,0:0|0:0,0:0:0:0:
183,187,45158,2,0,L|25:191,1,140.250002675056,8|8,0:0|0:3,0:0:0:0:
461,84,45825,6,0,L|468:265,1,165,4|8,0:0|0:0,0:0:0:0:
373,263,46325,1,0,0:0:0:0:
204,244,46491,2,0,L|192:145,1,82.5,8|0,0:0|0:0,0:0:0:0:
359,87,46825,2,0,L|365:200,1,82.5,8|0,0:0|0:0,0:0:0:0:
181,257,47158,6,0,L|17:262,1,165,8|8,0:0|0:0,0:0:0:0:
322,178,47825,2,0,L|499:179,1,165,8|8,0:0|0:0,0:0:0:0:
403,116,48325,1,0,0:0:0:0:
158,216,48491,5,8,0:0:0:0:
72,184,48657,1,0,0:0:0:0:
70,105,48824,1,8,0:0:0:0:
155,69,48990,1,0,0:0:0:0:
341,85,49158,2,0,L|350:214,1,82.5,8|8,0:0|0:0,0:0:0:0:
185,237,49491,2,0,L|174:133,1,82.5,8|8,0:0|0:0,0:0:0:0:
342,147,49825,6,0,L|435:148,2,82.5,8|0|8,0:0|0:0|0:0,0:0:0:0:
181,182,50325,1,0,0:0:0:0:
336,187,50491,2,0,L|430:184,1,82.5,8|8,0:0|0:3,0:0:0:0:
257,128,50825,2,0,L|155:134,1,82.5,8|0,0:0|0:0,0:0:0:0:
418,95,51158,5,4,0:0:0:0:
286,208,51491,2,0,L|384:208,2,82.5,8|0|8,0:0|0:0|0:3,0:0:0:0:
134,238,52158,2,0,L|123:143,1,82.5,8|8,0:0|0:3,0:0:0:0:
287,139,52491,6,0,L|86:154,1,165,0|8,0:0|0:0,0:0:0:0:
425,54,53158,2,0,L|437:248,1,165,8|8,0:3|0:0,0:0:0:0:
336,241,53658,1,0,0:0:0:0:
62,287,53825,6,0,P|61:201|201:132,1,247.5,4|0,0:0|0:0,0:0:0:0:
447,97,54491,2,0,L|455:213,1,82.5,8|0,0:0|0:0,0:0:0:0:
299,192,54825,2,0,L|205:197,1,82.5,8|0,0:0|0:0,0:0:0:0:
369,97,55158,6,0,L|378:217,1,82.5,8|8,0:0|0:0,0:0:0:0:
73,295,55825,2,0,P|59:220|183:200,1,185.625007081032,0|0,0:0|0:0,0:0:0:0:
449,100,56491,6,0,L|459:286,1,181.500005538941,4|8,0:0|0:0,0:0:0:0:
272,262,57158,2,0,L|361:229,1,90.7500027694703,8|8,0:3|0:3,0:0:0:0:
204,192,57491,2,0,L|134:130,1,90.7500027694703,8|8,0:0|0:3,0:0:0:0:
420,82,57825,6,0,L|430:274,1,181.500005538941,0|8,0:0|0:0,0:0:0:0:
133,283,58491,2,0,L|348:211,1,181.500005538941,0|8,0:0|0:0,0:0:0:0:
216,195,58991,1,0,0:0:0:0:
473,142,59158,5,8,0:3:0:0:
323,187,59491,2,0,L|481:81,2,181.500005538941,8|8|0,0:0|0:3|0:0,0:0:0:0:
141,168,60491,5,0,0:0:0:0:
438,214,60825,2,0,L|272:299,2,181.500005538941,8|0|8,0:0|0:0|0:0,0:0:0:0:
31,318,61825,6,0,L|24:108,1,181.500005538941,4|8,0:0|0:0,0:0:0:0:
130,129,62325,1,0,0:0:0:0:
296,225,62491,2,0,P|290:127|123:61,1,272.250008308411,8|8,0:3|0:3,0:0:0:0:
418,55,63158,6,0,L|428:238,1,181.500005538941,0|8,0:0|0:0,0:0:0:0:
166,274,63825,2,0,L|407:267,1,181.500005538941,0|8,0:0|0:0,0:0:0:0:
264,212,64325,1,0,0:0:0:0:
24,273,64491,6,0,L|20:77,1,181.500005538941,8|8,0:3|0:0,0:0:0:0:
110,98,64991,1,0,0:0:0:0:
395,247,65158,2,0,P|384:147|195:104,1,272.250008308411,8|8,0:3|0:3,0:0:0:0:
397,173,65825,6,0,L|406:68,1,90.7500027694703,4|8,0:0|0:3,0:0:0:0:
240,178,66158,2,0,L|141:180,1,90.7500027694703,8|0,0:0|0:0,0:0:0:0:
397,275,66491,1,8,0:3:0:0:
440,262,66574,1,8,0:3:0:0:
471,230,66657,1,8,0:3:0:0:
481,186,66740,1,8,0:3:0:0:
467,144,66824,1,8,0:0:0:0:
434,114,66907,1,0,0:0:0:0:
390,105,66990,1,8,0:0:0:0:
63,100,67158,6,0,L|53:286,1,181.500005538941,4|8,0:0|0:0,0:0:0:0:
146,302,67658,1,0,0:0:0:0:
239,258,67825,1,8,0:3:0:0:
146,302,67991,1,8,0:0:0:0:
306,199,68158,2,0,L|379:139,1,90.7500027694703,0|8,0:0|0:3,0:0:0:0:
92,82,68492,6,0,L|82:274,1,181.500005538941,0|8,0:0|0:0,0:0:0:0:
379,283,69158,2,0,L|164:211,1,181.500005538941,0|8,0:0|0:0,0:0:0:0:
296,195,69658,1,0,0:0:0:0:
39,142,69825,5,8,0:3:0:0:
189,187,70158,2,0,L|31:81,2,181.500005538941,8|8|0,0:0|0:3|0:0,0:0:0:0:
371,168,71158,5,0,0:0:0:0:
74,214,71492,2,0,L|240:299,2,181.500005538941,8|8|8,0:0|0:3|0:0,0:0:0:0:
481,318,72492,6,0,L|488:108,1,181.500005538941,4|8,0:0|0:0,0:0:0:0:
382,129,72992,1,0,0:0:0:0:
216,225,73158,2,0,P|222:127|389:61,1,272.250008308411,8|8,0:3|0:3,0:0:0:0:
94,55,73825,6,0,L|84:238,1,181.500005538941,0|8,0:0|0:0,0:0:0:0:
346,274,74492,2,0,L|105:267,1,181.500005538941,8|8,0:3|0:0,0:0:0:0:
248,212,74992,1,0,0:0:0:0:
488,273,75158,6,0,L|492:77,1,181.500005538941,8|8,0:3|0:0,0:0:0:0:
402,98,75658,1,0,0:0:0:0:
117,247,75825,2,0,P|128:147|317:104,1,272.250008308411,8|8,0:3|0:3,0:0:0:0:
115,173,76492,6,0,L|106:68,1,90.7500027694703,4|8,0:3|0:3,0:0:0:0:
272,178,76825,2,0,L|371:180,1,90.7500027694703,8|8,0:0|0:3,0:0:0:0:
94,112,77158,1,8,0:3:0:0:
51,124,77241,1,0,0:0:0:0:
31,163,77324,1,8,0:3:0:0:
46,204,77407,1,0,0:0:0:0:
86,222,77491,1,8,0:0:0:0:
192,177,77658,1,0,0:0:0:0:
446,103,77825,6,0,L|452:201,1,82.5,4|0,0:0|0:0,0:0:0:0:
357,226,78158,2,0,L|444:225,2,82.5,8|0|8,0:0|0:0|0:3,0:0:0:0:
196,102,78658,2,0,L|198:296,1,165,0|0,0:0|0:0,0:0:0:0:
457,245,79158,6,0,L|281:313,1,165,8|8,0:3|0:0,0:0:0:0:
35,258,79825,2,0,L|131:270,1,82.5,0|8,0:0|0:3,0:0:0:0:
287,193,80325,1,0,0:0:0:0:
373,198,80491,6,0,P|370:113|281:84,1,165,4|8,0:0|0:0,0:0:0:0:
70,206,80991,2,0,L|53:40,1,165,4|8,0:0|0:3,0:0:0:0:
299,212,81491,6,0,L|108:231,1,165,4|0,0:0|0:0,0:0:0:0:
218,155,81991,2,0,L|309:152,2,82.5,8|8|0,0:3|0:0|0:0,0:0:0:0:
66,244,82491,2,0,L|50:142,1,82.5,8|8,0:3|0:3,0:0:0:0:
212,136,82825,2,0,L|330:140,1,82.5,8|0,0:0|0:0,0:0:0:0:
41,321,83158,6,0,P|49:233|143:200,1,165,4|8,0:0|0:0,0:0:0:0:
191,199,83658,1,0,0:0:0:0:
344,130,83825,2,0,L|353:250,1,82.5,8|8,0:3|0:3,0:0:0:0:
195,258,84158,2,0,L|98:262,1,82.5,8|0,0:0|0:0,0:0:0:0:
358,188,84491,5,8,0:3:0:0:
499,228,84825,2,0,L|313:258,2,165,8|8|8,0:0|0:3|0:0,0:0:0:0:
411,180,85658,1,0,0:0:0:0:
149,232,85825,6,0,L|140:117,1,82.5,4|0,0:0|0:0,0:0:0:0:
302,88,86158,2,0,L|315:197,1,82.5,8|8,0:3|0:3,0:0:0:0:
154,232,86491,2,0,L|47:236,2,82.5,8|8|8,0:3|0:3|0:0,0:0:0:0:
333,169,86991,1,8,0:0:0:0:
433,184,87158,6,0,P|436:96|311:20,1,247.5,0|0,0:0|0:0,0:0:0:0:
133,75,87825,2,0,L|144:334,1,247.5,0|0,0:0|0:0,0:0:0:0:
