osu file format v14

[General]
AudioFilename: audio.mp3
AudioLeadIn: 0
PreviewTime: 55741
Countdown: 0
SampleSet: Soft
StackLeniency: 0.5
Mode: 2
LetterboxInBreaks: 0
WidescreenStoryboard: 1

[Editor]
DistanceSpacing: 1
BeatDivisor: 4
GridSize: 8
TimelineZoom: 2.599999

[Metadata]
Title:Shout Baby (TV Size)
TitleUnicode:Shout Baby (TV Size)
Artist:Ryokuoushoku Shakai
ArtistUnicode:緑黄色社会
Creator:Secre
Version:Overdose
Source:僕のヒーローアカデミア
Tags:ryokushaka ending boku no jpop j pop エンディングテーマ ED theme 長屋 晴子 小林 壱誓 peppe 穴見 真吾 my hero academia japanese anime greaper Anami Shingo Nagaya Haruko Kobayashi Issei chickenbible
BeatmapID:2522669
BeatmapSetID:1189400

[Difficulty]
HPDrainRate:6
CircleSize:4
OverallDifficulty:9.1
ApproachRate:9.1
SliderMultiplier:1.8
SliderTickRate:2

[Events]
//Background and Video events
0,0,"ilovenejiredekusucks.jpg",0,0
//Break Periods
//Storyboard Layer 0 (Background)
//Storyboard Layer 1 (Fail)
//Storyboard Layer 2 (Pass)
//Storyboard Layer 3 (Foreground)
//Storyboard Layer 4 (Overlay)
//Storyboard Sound Samples

[TimingPoints]
492,333.333333333333,4,2,11,70,1,0
3158,-100,4,2,11,70,0,0
3408,-100,4,2,11,5,0,0
3491,-100,4,2,11,70,0,0
6075,-100,4,2,11,5,0,0
6158,-100,4,2,11,70,0,0
8741,-100,4,2,11,5,0,0
8824,-100,4,2,11,70,0,0
13825,-133.333333333333,4,2,11,60,0,0
29741,-133.333333333333,4,2,11,5,0,0
29825,-133.333333333333,4,2,11,60,0,0
35158,-117.647058823529,4,2,11,65,0,0
35241,-117.647058823529,4,3,12,65,0,0
45825,-100,4,3,12,70,0,0
46075,-100,4,3,12,5,0,0
46158,-100,4,3,12,60,0,0
49825,-100,4,2,11,60,0,0
50825,-100,4,2,11,60,0,0
51158,-100,4,2,11,70,0,0
55491,-133.333333333333,4,2,11,60,0,0
56158,-100,4,2,11,60,0,0
56491,-90.9090909090909,4,2,11,80,0,1
56741,-90.9090909090909,4,2,11,5,0,1
56824,-90.9090909090909,4,2,11,80,0,1
59408,-90.9090909090909,4,2,11,5,0,1
59491,-90.9090909090909,4,2,11,80,0,1
62075,-90.9090909090909,4,2,11,5,0,1
62158,-90.9090909090909,4,2,11,80,0,1
64741,-90.9090909090909,4,2,11,5,0,1
64824,-90.9090909090909,4,2,11,80,0,1
67158,-90.9090909090909,4,2,11,80,0,1
67408,-90.9090909090909,4,2,11,5,0,1
67491,-90.9090909090909,4,2,11,80,0,1
72741,-90.9090909090909,4,2,11,5,0,1
72824,-90.9090909090909,4,2,11,80,0,1
75408,-90.9090909090909,4,2,11,5,0,1
75491,-90.9090909090909,4,2,11,80,0,1
77825,-100,4,2,11,70,0,0
78075,-100,4,2,11,5,0,0
78158,-100,4,2,11,70,0,0
80741,-100,4,2,11,5,0,0
80824,-100,4,2,11,70,0,0
81241,-100,4,2,11,5,0,0
81324,-100,4,2,11,70,0,0
84741,-100,4,2,11,5,0,0
84824,-100,4,2,11,70,0,0
86075,-100,4,2,11,5,0,0
86158,-100,4,2,11,70,0,0

[Colours]
Combo1 : 111,217,206
Combo2 : 133,165,250
Combo3 : 140,237,242

[HitObjects]
256,192,492,12,0,2825,0:0:0:0:
279,242,3158,6,0,L|395:240,1,90,4|0,0:0|0:0,0:0:0:0:
51,142,3491,1,8,0:0:0:0:
186,122,3658,1,0,0:0:0:0:
51,142,3825,1,0,0:0:0:0:
186,122,3991,1,0,0:0:0:0:
51,142,4158,1,8,0:0:0:0:
302,249,4325,6,0,L|97:258,1,180,0|0,0:0|0:0,0:0:0:0:
217,188,4825,1,8,0:0:0:0:
461,90,4991,2,0,L|469:192,1,90,0|0,0:0|0:0,0:0:0:0:
148,257,5325,2,0,L|266:255,1,90,0|8,0:0|0:0,0:0:0:0:
371,164,5658,1,0,0:0:0:0:
95,100,5825,6,0,L|87:220,1,90,4|0,0:0|0:0,0:0:0:0:
332,220,6158,1,8,0:0:0:0:
196,177,6325,1,0,0:0:0:0:
332,220,6491,1,0,0:0:0:0:
196,177,6658,1,0,0:0:0:0:
332,220,6825,1,8,0:0:0:0:
65,84,6991,6,0,L|57:217,1,90,0|0,0:0|0:0,0:0:0:0:
317,175,7325,2,0,L|424:178,1,90,0|8,0:0|0:0,0:0:0:0:
139,119,7658,2,0,L|35:120,1,90,0|0,0:0|0:0,0:0:0:0:
341,242,7991,1,0,0:0:0:0:
50,177,8158,2,0,L|174:177,1,90,8|0,0:0|0:0,0:0:0:0:
401,198,8491,6,0,L|414:97,1,90,4|0,0:0|0:0,0:0:0:0:
124,203,8825,1,8,0:0:0:0:
260,160,8992,1,0,0:0:0:0:
124,203,9158,1,0,0:0:0:0:
260,160,9325,1,0,0:0:0:0:
124,203,9492,1,8,0:0:0:0:
427,246,9658,6,0,L|437:120,1,90,0|0,0:0|0:0,0:0:0:0:
181,138,9991,2,0,L|77:137,1,90,0|8,0:0|0:0,0:0:0:0:
353,117,10325,2,0,L|461:117,1,90,0|0,0:0|0:0,0:0:0:0:
123,190,10658,2,0,L|231:195,2,90,0|8|0,0:0|0:0|0:0,0:0:0:0:
416,163,11158,5,4,0:0:0:0:
274,100,11325,1,0,0:0:0:0:
371,101,11491,1,8,0:0:0:0:
460,102,11658,1,0,0:0:0:0:
123,73,11825,2,0,L|119:191,1,90,0|0,0:0|0:0,0:0:0:0:
372,151,12158,2,0,L|512:152,1,90,8|0,0:0|0:0,0:0:0:0:
137,219,12491,5,0,0:0:0:0:
269,179,12658,1,8,0:3:0:0:
137,219,12825,1,8,0:0:0:0:
422,252,12991,2,0,P|418:157|253:93,1,270,0|8,0:0|0:3,0:0:0:0:
129,135,13658,1,8,0:3:0:0:
415,268,13825,6,0,P|479:230|401:158,1,202.500007724762,4|0,0:0|0:0,0:0:0:0:
241,124,14491,2,0,L|237:234,1,67.5000025749208,0|8,0:0|0:3,0:0:0:0:
388,226,14825,1,8,0:0:0:0:
431,171,14991,1,0,0:0:0:0:
419,109,15158,1,8,0:3:0:0:
347,107,15324,1,0,0:0:0:0:
100,96,15491,2,0,L|78:208,1,67.5000025749208,8|8,0:0|0:3,0:0:0:0:
339,122,15825,2,0,L|347:225,1,67.5000025749208,0|8,0:0|0:3,0:0:0:0:
120,182,16158,2,0,L|187:185,1,67.5000025749208,4|0,0:3|0:0,0:0:0:0:
438,231,16491,6,0,L|267:237,1,135.000005149842,8|8,0:3|0:0,0:0:0:0:
381,172,16991,1,0,0:0:0:0:
220,111,17158,2,0,L|113:103,2,67.5000025749208,0|0|8,0:0|0:0|0:0,0:0:0:0:
355,125,17658,1,0,0:0:0:0:
219,113,17825,6,0,L|204:219,1,67.5000025749208,8|0,0:3|0:0,0:0:0:0:
451,261,18158,2,0,L|468:171,1,67.5000025749208,8|0,0:0|0:0,0:0:0:0:
236,167,18491,2,0,L|353:174,1,67.5000025749208,8|0,0:3|0:0,0:0:0:0:
53,82,18825,2,0,L|39:178,1,67.5000025749208,8|0,0:0|0:0,0:0:0:0:
276,268,19158,6,0,L|88:281,1,135.000005149842,4|8,0:0|0:0,0:0:0:0:
299,204,19658,1,0,0:0:0:0:
57,193,19825,2,0,L|257:215,1,135.000005149842,8|8,0:3|0:0,0:0:0:0:
33,125,20325,1,0,0:0:0:0:
308,139,20491,6,0,L|439:139,1,67.5000025749208,8|0,0:3|0:0,0:0:0:0:
141,109,20825,2,0,L|60:110,1,67.5000025749208,8|0,0:0|0:0,0:0:0:0:
224,192,21158,1,8,0:3:0:0:
74,109,21325,1,8,0:3:0:0:
321,146,21491,2,0,L|446:146,1,67.5000025749208,8|0,0:0|0:0,0:0:0:0:
88,239,21825,6,0,P|25:195|114:118,1,202.500007724762,8|0,0:3|0:0,0:0:0:0:
319,195,22491,2,0,L|426:196,2,67.5000025749208,0|8|8,0:0|0:3|0:0,0:0:0:0:
157,137,22991,1,0,0:0:0:0:
313,205,23158,6,0,L|396:207,1,67.5000025749208,8|0,0:3|0:0,0:0:0:0:
124,79,23491,2,0,L|101:175,1,67.5000025749208,8|0,0:0|0:0,0:0:0:0:
357,157,23825,2,0,L|454:162,1,67.5000025749208,0|8,0:0|0:3,0:0:0:0:
147,192,24158,2,0,L|62:190,1,67.5000025749208,8|0,0:0|0:0,0:0:0:0:
350,275,24491,6,0,P|350:201|190:130,1,270.000010299683,4|0,0:0|0:0,0:0:0:0:
116,150,25325,1,8,0:3:0:0:
273,189,25491,2,0,L|390:193,1,67.5000025749208,8|0,0:0|0:0,0:0:0:0:
28,94,25825,6,0,L|12:209,1,67.5000025749208,8|0,0:3|0:0,0:0:0:0:
252,247,26158,2,0,L|264:159,1,67.5000025749208,8|0,0:0|0:0,0:0:0:0:
489,212,26491,2,0,L|499:112,1,67.5000025749208,0|0,0:0|0:0,0:0:0:0:
271,129,26825,2,0,L|386:133,1,67.5000025749208,4|0,0:3|0:0,0:0:0:0:
42,228,27158,6,0,L|223:249,1,135.000005149842,8|8,0:3|0:0,0:0:0:0:
22,157,27658,1,0,0:0:0:0:
309,170,27825,2,0,L|418:178,2,67.5000025749208,0|0|8,0:0|0:0|0:0,0:0:0:0:
142,89,28325,6,0,L|137:173,1,67.5000025749208,0|0,0:0|0:0,0:0:0:0:
302,205,28658,2,0,L|316:114,1,67.5000025749208,8|0,0:3|0:0,0:0:0:0:
43,159,28991,2,0,L|152:163,1,67.5000025749208,8|0,0:3|0:0,0:0:0:0:
363,193,29325,2,0,L|466:194,2,67.5000025749208,8|4|0,0:3|0:0|0:0,0:0:0:0:
63,131,29825,6,0,L|52:237,1,67.5000025749208,4|0,0:0|0:0,0:0:0:0:
223,235,30158,2,0,L|235:149,1,67.5000025749208,8|0,0:0|0:0,0:0:0:0:
93,132,30491,1,0,0:0:0:0:
233,168,30658,1,8,0:3:0:0:
472,208,30825,2,0,L|356:210,1,67.5000025749208,8|0,0:0|0:0,0:0:0:0:
91,267,31158,6,0,P|107:188|184:173,1,135.000005149842,8|8,0:3|0:0,0:0:0:0:
297,164,31658,1,8,0:3:0:0:
54,93,31825,2,0,L|47:202,1,67.5000025749208,0|8,0:0|0:3,0:0:0:0:
321,212,32158,2,0,L|415:211,1,67.5000025749208,8|0,0:0|0:0,0:0:0:0:
97,168,32491,6,0,L|222:172,2,67.5000025749208,10|0|8,0:3|0:0|0:0,0:0:0:0:
336,154,32991,2,0,L|141:153,1,135.000005149842,10|10,0:3|0:3,0:0:0:0:
456,251,33491,1,8,0:0:0:0:
475,186,33657,1,0,0:0:0:0:
395,153,33825,5,8,0:3:0:0:
115,214,33991,2,0,L|224:213,2,67.5000025749208,10|4|0,0:3|0:0|0:0,0:0:0:0:
388,262,34491,2,0,L|408:160,1,67.5000025749208,10|8,0:0|0:3,0:0:0:0:
91,99,34825,2,0,L|79:191,1,67.5000025749208,10|8,0:3|0:3,0:0:0:0:
333,239,35158,6,0,L|155:237,1,153.000002918243,4|8,0:0|0:0,0:0:0:0:
340,168,35658,1,0,0:0:0:0:
91,78,35825,2,0,L|85:178,1,76.5000014591217,8|0,0:0|0:0,0:0:0:0:
372,237,36158,2,0,L|388:129,1,76.5000014591217,8|0,0:0|0:0,0:0:0:0:
145,182,36491,6,0,L|243:190,1,76.5000014591217,8|0,0:0|0:0,0:0:0:0:
74,103,36825,1,8,0:0:0:0:
222,188,36991,1,8,0:0:0:0:
470,270,37158,2,0,L|479:167,1,76.5000014591217,8|0,0:0|0:0,0:0:0:0:
175,126,37491,2,0,L|69:123,1,76.5000014591217,8|0,0:0|0:0,0:0:0:0:
417,271,37825,6,0,P|486:211|391:122,1,229.500004377365,8|8,0:0|0:0,0:0:0:0:
258,109,38491,2,0,L|249:211,1,76.5000014591217,8|0,0:0|0:0,0:0:0:0:
391,252,38825,2,0,L|404:147,1,76.5000014591217,8|0,0:0|0:0,0:0:0:0:
243,283,39158,6,0,P|164:224|266:169,1,229.500004377365,8|0,0:0|0:0,0:0:0:0:
476,241,39825,2,0,L|491:146,1,76.5000014591217,8|0,0:0|0:0,0:0:0:0:
343,143,40158,1,8,0:0:0:0:
488,165,40325,1,0,0:0:0:0:
193,107,40491,6,0,L|183:199,1,76.5000014591217,4|0,0:0|0:0,0:0:0:0:
301,224,40825,1,8,0:0:0:0:
158,165,40991,1,8,0:0:0:0:
316,145,41158,2,0,L|413:149,2,76.5000014591217,8|0|8,0:0|0:0|0:0,0:0:0:0:
162,99,41658,1,0,0:0:0:0:
446,252,41825,6,0,L|461:149,1,76.5000014591217,8|0,0:0|0:0,0:0:0:0:
321,127,42158,2,0,L|306:222,1,76.5000014591217,8|0,0:0|0:0,0:0:0:0:
161,207,42491,2,0,L|166:108,1,76.5000014591217,8|0,0:0|0:0,0:0:0:0:
18,85,42825,2,0,L|10:204,1,76.5000014591217,8|0,0:0|0:0,0:0:0:0:
329,217,43158,6,0,L|223:215,2,76.5000014591217,8|0|8,0:0|0:0|0:0,0:0:0:0:
191,132,43658,1,8,0:0:0:0:
439,202,43825,2,0,L|448:99,1,76.5000014591217,8|0,0:0|0:0,0:0:0:0:
123,57,44158,2,0,L|111:156,1,76.5000014591217,8|8,0:0|0:0,0:0:0:0:
390,239,44491,6,0,L|297:235,1,76.5000014591217,8|0,0:0|0:0,0:0:0:0:
461,165,44825,2,0,L|360:164,1,76.5000014591217,8|0,0:0|0:0,0:0:0:0:
141,198,45158,2,0,L|247:198,1,76.5000014591217,8|8,0:0|0:3,0:0:0:0:
70,136,45491,2,0,L|165:136,1,76.5000014591217,8|8,0:3|0:3,0:0:0:0:
428,212,45825,6,0,L|438:109,1,90,4|0,0:0|0:0,0:0:0:0:
173,136,46158,2,0,L|117:135,1,45,8|0,0:0|0:0,0:0:0:0:
129,135,46325,2,0,L|173:136,1,45,0|0,0:0|0:0,0:0:0:0:
377,238,46491,6,0,L|301:237,1,45,8|0,0:0|0:0,0:0:0:0:
186,145,46658,2,0,L|102:147,1,45,0|0,0:0|0:0,0:0:0:0:
347,170,46825,2,0,L|420:168,1,45,8|0,0:0|0:0,0:0:0:0:
392,168,46991,2,0,L|347:170,1,45,0|0,0:0|0:0,0:0:0:0:
196,248,47158,5,8,0:0:0:0:
200,204,47241,1,0,0:0:0:0:
230,172,47324,1,0,0:0:0:0:
274,167,47408,1,0,0:0:0:0:
107,152,47491,1,8,0:0:0:0:
67,134,47574,1,0,0:0:0:0:
40,98,47657,1,0,0:0:0:0:
34,54,47741,1,0,0:0:0:0:
278,297,47825,5,8,0:0:0:0:
285,254,47908,1,0,0:0:0:0:
263,216,47991,1,0,0:0:0:0:
221,202,48075,1,0,0:0:0:0:
412,244,48158,1,8,0:0:0:0:
455,229,48241,1,0,0:0:0:0:
486,197,48324,1,0,0:0:0:0:
498,154,48408,1,0,0:0:0:0:
237,152,48491,6,0,L|176:148,1,45,8|0,0:0|0:0,0:0:0:0:
340,86,48658,2,0,L|405:86,1,45,0|0,0:0|0:0,0:0:0:0:
202,61,48825,2,0,L|145:60,1,45,8|0,0:0|0:0,0:0:0:0:
351,184,48991,2,0,L|370:121,1,45,0|0,0:0|0:0,0:0:0:0:
190,232,49158,6,0,L|177:164,1,45,8|0,0:0|0:0,0:0:0:0:
225,144,49325,2,0,L|283:142,1,45,8|0,0:0|0:0,0:0:0:0:
88,132,49491,2,0,L|20:137,1,45,8|0,0:0|0:0,0:0:0:0:
43,135,49658,2,0,L|87:131,1,45,8|0,0:0|0:0,0:0:0:0:
320,122,49825,6,0,L|410:120,2,90,8|0|8,0:0|0:0|0:0,0:0:0:0:
87,131,50325,1,0,0:0:0:0:
363,83,50491,2,0,L|373:200,1,90,8|8,0:0|0:3,0:0:0:0:
106,273,50825,2,0,L|91:156,1,90,8|0,0:0|0:0,0:0:0:0:
427,200,51158,6,0,L|305:206,1,90,4|0,0:0|0:0,0:0:0:0:
485,131,51491,1,8,0:0:0:0:
337,204,51658,1,0,0:0:0:0:
72,195,51825,2,0,L|202:198,1,90,8|0,0:3|0:0,0:0:0:0:
24,131,52158,1,8,0:0:0:0:
161,197,52325,1,8,0:3:0:0:
445,107,52491,6,0,L|451:198,1,90,0|0,0:0|0:0,0:0:0:0:
288,230,52825,2,0,L|159:229,1,90,8|0,0:0|0:0,0:0:0:0:
466,167,53158,2,0,L|376:171,1,90,8|0,0:3|0:0,0:0:0:0:
18,175,53491,2,0,L|123:173,1,90,8|0,0:0|0:0,0:0:0:0:
349,142,53825,5,4,0:0:0:0:
186,175,53991,1,0,0:0:0:0:
349,142,54158,1,8,0:0:0:0:
186,175,54325,1,0,0:0:0:0:
445,92,54491,1,8,0:0:0:0:
289,90,54658,1,0,0:0:0:0:
129,96,54825,1,8,0:0:0:0:
289,90,54991,1,0,0:0:0:0:
42,188,55158,5,8,0:0:0:0:
376,187,55325,1,8,0:0:0:0:
465,244,55825,2,0,P|468:189|346:92,1,202.500007724762,0|0,0:0|0:0,0:0:0:0:
77,230,56491,6,0,L|61:107,1,99.0000030212403,4|0,0:0|0:0,0:0:0:0:
388,71,56825,2,0,L|407:208,1,99.0000030212403,8|0,0:0|0:0,0:0:0:0:
169,207,57158,1,8,0:3:0:0:
312,170,57325,1,8,0:3:0:0:
52,268,57491,2,0,L|41:163,1,99.0000030212403,8|8,0:0|0:3,0:0:0:0:
287,188,57825,6,0,L|181:190,1,99.0000030212403,0|8,0:0|0:3,0:0:0:0:
448,86,58158,2,0,L|466:215,1,99.0000030212403,8|0,0:0|0:0,0:0:0:0:
201,258,58491,2,0,L|355:256,1,99.0000030212403,0|8,0:0|0:3,0:0:0:0:
52,168,58825,2,0,L|182:171,1,99.0000030212403,8|0,0:0|0:0,0:0:0:0:
484,212,59158,6,0,L|356:213,1,99.0000030212403,8|0,0:3|0:0,0:0:0:0:
45,194,59491,1,8,0:0:0:0:
198,159,59658,1,0,0:0:0:0:
45,194,59825,1,8,0:3:0:0:
198,159,59991,1,8,0:0:0:0:
362,136,60158,1,0,0:0:0:0:
496,131,60325,1,8,0:3:0:0:
172,237,60491,6,0,L|70:241,1,99.0000030212403,0|8,0:0|0:3,0:0:0:0:
306,149,60825,1,8,0:0:0:0:
175,155,60991,1,0,0:0:0:0:
426,84,61158,2,0,L|440:201,1,99.0000030212403,0|8,0:0|0:3,0:0:0:0:
97,99,61491,2,0,L|83:228,1,99.0000030212403,8|0,0:0|0:0,0:0:0:0:
396,247,61825,6,0,L|156:273,1,198.000006042481,4|8,0:0|0:0,0:0:0:0:
426,156,62325,1,0,0:0:0:0:
92,188,62491,2,0,L|318:202,1,198.000006042481,8|0,0:3|0:0,0:0:0:0:
56,112,62991,1,8,0:3:0:0:
331,125,63158,6,0,L|437:115,1,99.0000030212403,0|0,0:0|0:0,0:0:0:0:
146,211,63491,1,8,0:0:0:0:
286,189,63658,1,0,0:0:0:0:
59,267,63825,2,0,L|46:153,1,99.0000030212403,0|8,0:0|0:3,0:0:0:0:
404,83,64158,2,0,L|416:198,1,99.0000030212403,8|0,0:0|0:0,0:0:0:0:
60,214,64491,5,8,0:3:0:0:
200,168,64658,1,0,0:0:0:0:
60,214,64825,1,8,0:0:0:0:
382,155,64991,1,0,0:0:0:0:
106,250,65158,2,0,L|91:131,1,99.0000030212403,8|8,0:3|0:0,0:0:0:0:
416,73,65491,2,0,L|431:187,1,99.0000030212403,0|8,0:0|0:3,0:0:0:0:
184,188,65825,5,4,0:0:0:0:
323,162,65991,1,8,0:3:0:0:
184,188,66158,1,8,0:0:0:0:
323,162,66325,1,0,0:0:0:0:
72,139,66491,6,0,L|137:139,1,49.5000015106202,8|8,0:3|0:3,0:0:0:0:
341,103,66658,2,0,L|407:104,1,49.5000015106202,8|8,0:3|0:3,0:0:0:0:
171,78,66825,2,0,L|99:83,1,49.5000015106202,8|0,0:0|0:0,0:0:0:0:
351,54,66991,2,0,L|437:58,1,49.5000015106202,8|0,0:0|0:0,0:0:0:0:
124,229,67158,6,0,L|108:118,1,99.0000030212403,4|0,0:0|0:0,0:0:0:0:
348,187,67491,2,0,L|477:185,1,99.0000030212403,8|0,0:0|0:0,0:0:0:0:
158,158,67825,1,8,0:3:0:0:
288,143,67991,1,8,0:0:0:0:
47,276,68158,2,0,L|35:161,1,99.0000030212403,0|8,0:0|0:3,0:0:0:0:
335,203,68491,6,0,L|440:201,1,99.0000030212403,0|8,0:0|0:3,0:0:0:0:
164,250,68825,2,0,L|147:132,1,99.0000030212403,8|0,0:0|0:0,0:0:0:0:
300,146,69158,1,0,0:0:0:0:
149,152,69325,1,8,0:3:0:0:
385,187,69491,2,0,L|509:192,1,99.0000030212403,8|0,0:0|0:0,0:0:0:0:
72,232,69825,6,0,L|200:233,1,99.0000030212403,8|0,0:3|0:0,0:0:0:0:
467,194,70158,1,8,0:0:0:0:
314,159,70325,1,0,0:0:0:0:
467,194,70492,1,8,0:3:0:0:
314,159,70658,1,8,0:0:0:0:
150,136,70825,1,0,0:0:0:0:
16,131,70992,1,8,0:3:0:0:
326,236,71158,6,0,L|428:240,1,99.0000030212403,0|8,0:0|0:3,0:0:0:0:
190,154,71492,1,8,0:0:0:0:
337,155,71658,1,0,0:0:0:0:
109,83,71825,2,0,L|95:200,1,99.0000030212403,8|8,0:3|0:3,0:0:0:0:
385,92,72158,2,0,L|399:221,1,99.0000030212403,8|0,0:0|0:0,0:0:0:0:
116,247,72492,6,0,L|356:273,1,198.000006042481,4|8,0:0|0:0,0:0:0:0:
86,156,72992,1,0,0:0:0:0:
420,188,73158,2,0,L|194:202,1,198.000006042481,8|0,0:3|0:0,0:0:0:0:
456,112,73658,1,8,0:3:0:0:
181,125,73825,6,0,L|75:115,1,99.0000030212403,0|8,0:0|0:3,0:0:0:0:
366,211,74158,1,8,0:0:0:0:
226,189,74325,1,0,0:0:0:0:
453,267,74492,2,0,L|466:153,1,99.0000030212403,8|8,0:3|0:3,0:0:0:0:
108,83,74825,2,0,L|96:198,1,99.0000030212403,8|0,0:0|0:0,0:0:0:0:
452,214,75158,5,8,0:3:0:0:
312,168,75325,1,0,0:0:0:0:
452,214,75492,1,8,0:0:0:0:
130,155,75658,1,0,0:0:0:0:
406,250,75825,2,0,L|421:131,1,99.0000030212403,8|8,0:3|0:0,0:0:0:0:
96,73,76158,2,0,L|81:187,1,99.0000030212403,0|8,0:0|0:3,0:0:0:0:
328,188,76492,5,4,0:3:0:0:
189,162,76658,1,8,0:3:0:0:
328,188,76825,1,8,0:0:0:0:
189,162,76992,1,8,0:3:0:0:
429,236,77158,6,0,L|493:237,1,49.5000015106202,8|0,0:3|0:0,0:0:0:0:
478,236,77325,2,0,L|428:235,1,49.5000015106202,8|0,0:3|0:0,0:0:0:0:
184,110,77491,2,0,L|110:107,1,49.5000015106202,8|0,0:0|0:0,0:0:0:0:
392,83,77658,2,0,L|457:83,1,49.5000015106202,0|0,0:0|0:0,0:0:0:0:
115,241,77825,6,0,L|105:132,1,90,4|0,0:0|0:0,0:0:0:0:
264,190,78158,1,8,0:0:0:0:
115,241,78325,1,0,0:0:0:0:
264,190,78491,1,8,0:3:0:0:
24,194,78658,2,0,L|154:196,1,90,0|0,0:0|0:0,0:0:0:0:
362,138,78991,1,0,0:0:0:0:
66,297,79158,6,0,L|50:176,1,90,8|0,0:3|0:0,0:0:0:0:
280,206,79491,2,0,L|388:206,1,90,8|0,0:0|0:0,0:0:0:0:
97,227,79825,1,0,0:0:0:0:
331,224,79991,2,0,L|420:223,1,90,8|8,0:3|0:0,0:0:0:0:
186,202,80325,1,0,0:0:0:0:
449,163,80491,6,0,L|347:168,1,90,4|0,0:0|0:0,0:0:0:0:
121,161,80825,1,8,0:0:0:0:
360,120,80991,2,0,L|450:120,1,90,4|0,0:0|0:0,0:0:0:0:
90,112,81325,1,8,0:3:0:0:
438,233,81491,6,0,P|442:161|326:128,1,180,4|0,0:0|0:0,0:0:0:0:
208,155,81991,1,8,0:3:0:0:
364,71,82158,2,0,L|373:162,1,90,8|0,0:0|0:0,0:0:0:0:
101,224,82491,1,8,0:3:0:0:
25,183,82657,1,8,0:3:0:0:
26,97,82824,1,8,0:0:0:0:
102,58,82991,1,0,0:0:0:0:
381,83,83158,6,0,L|392:197,1,90,4|0,0:0|0:0,0:0:0:0:
125,263,83491,2,0,L|108:162,1,90,8|0,0:0|0:0,0:0:0:0:
273,153,83825,1,8,0:3:0:0:
110,174,83991,1,8,0:3:0:0:
356,123,84158,2,0,L|464:122,1,90,8|0,0:0|0:0,0:0:0:0:
146,206,84491,6,0,L|133:106,1,90,8|0,0:3|0:0,0:0:0:0:
415,120,84825,2,0,L|324:120,1,90,8|0,0:0|0:0,0:0:0:0:
45,141,85158,2,0,L|151:137,1,90,8|8,0:3|0:3,0:0:0:0:
484,61,85491,2,0,L|372:66,1,90,8|0,0:0|0:0,0:0:0:0:
61,244,85825,6,0,L|46:120,1,90,4|0,0:0|0:0,0:0:0:0:
316,156,86158,1,8,0:3:0:0:
175,158,86325,1,8,0:3:0:0:
316,156,86491,1,8,0:3:0:0:
175,158,86658,1,8,0:3:0:0:
404,89,86825,1,8,0:0:0:0:
103,94,86991,1,8,0:0:0:0:
404,89,87158,6,0,P|485:124|400:244,1,270,0|0,0:0|0:0,0:0:0:0:
101,275,87825,2,0,L|91:-1,1,270,0|0,0:0|0:0,0:0:0:0:
