osu file format v14

[General]
AudioFilename: audio.mp3
AudioLeadIn: 0
PreviewTime: 55741
Countdown: 0
SampleSet: Soft
StackLeniency: 0.5
Mode: 2
LetterboxInBreaks: 0
WidescreenStoryboard: 1

[Editor]
DistanceSpacing: 1
BeatDivisor: 4
GridSize: 8
TimelineZoom: 2.599999

[Metadata]
Title:Shout Baby (TV Size)
TitleUnicode:Shout Baby (TV Size)
Artist:Ryokuoushoku Shakai
ArtistUnicode:緑黄色社会
Creator:Secre
Version:Cup
Source:僕のヒーローアカデミア
Tags:ryokushaka ending boku no jpop j pop エンディングテーマ ED theme 長屋 晴子 小林 壱誓 peppe 穴見 真吾 my hero academia japanese anime greaper Anami Shingo Nagaya Haruko Kobayashi Issei chickenbible
BeatmapID:2478405
BeatmapSetID:1189400

[Difficulty]
HPDrainRate:2
CircleSize:2.5
OverallDifficulty:6
ApproachRate:6
SliderMultiplier:1.45
SliderTickRate:1

[Events]
//Background and Video events
0,0,"ilovenejiredekusucks.jpg",0,0
//Break Periods
//Storyboard Layer 0 (Background)
//Storyboard Layer 1 (Fail)
//Storyboard Layer 2 (Pass)
//Storyboard Layer 3 (Foreground)
//Storyboard Layer 4 (Overlay)
//Storyboard Sound Samples

[TimingPoints]
492,333.333333333333,4,2,11,70,1,0
3158,-100,4,2,11,70,0,0
3408,-100,4,2,11,5,0,0
3491,-100,4,2,11,70,0,0
6075,-100,4,2,11,5,0,0
6158,-100,4,2,11,70,0,0
8741,-100,4,2,11,5,0,0
8824,-100,4,2,11,70,0,0
13825,-133.333333333333,4,2,11,60,0,0
29741,-133.333333333333,4,2,11,5,0,0
29825,-133.333333333333,4,2,11,60,0,0
35158,-117.647058823529,4,2,11,65,0,0
35241,-117.647058823529,4,3,12,65,0,0
45825,-100,4,3,12,70,0,0
46075,-100,4,3,12,5,0,0
46158,-100,4,3,12,60,0,0
49825,-100,4,2,11,60,0,0
50825,-100,4,2,11,60,0,0
51158,-100,4,2,11,70,0,0
55491,-133.333333333333,4,2,11,60,0,0
56158,-100,4,2,11,60,0,0
56491,-90.9090909090909,4,2,11,80,0,1
56741,-90.9090909090909,4,2,11,5,0,1
56824,-90.9090909090909,4,2,11,80,0,1
59408,-90.9090909090909,4,2,11,5,0,1
59491,-90.9090909090909,4,2,11,80,0,1
62075,-90.9090909090909,4,2,11,5,0,1
62158,-90.9090909090909,4,2,11,80,0,1
64741,-90.9090909090909,4,2,11,5,0,1
64824,-90.9090909090909,4,2,11,80,0,1
67158,-90.9090909090909,4,2,11,80,0,1
67408,-90.9090909090909,4,2,11,5,0,1
67491,-90.9090909090909,4,2,11,80,0,1
72741,-90.9090909090909,4,2,11,5,0,1
72824,-90.9090909090909,4,2,11,80,0,1
75408,-90.9090909090909,4,2,11,5,0,1
75491,-90.9090909090909,4,2,11,80,0,1
77825,-100,4,2,11,70,0,0
78075,-100,4,2,11,5,0,0
78158,-100,4,2,11,70,0,0
80741,-100,4,2,11,5,0,0
80824,-100,4,2,11,70,0,0
81241,-100,4,2,11,5,0,0
81324,-100,4,2,11,70,0,0
84741,-100,4,2,11,5,0,0
84824,-100,4,2,11,70,0,0
86075,-100,4,2,11,5,0,0
86158,-100,4,2,11,70,0,0

[Colours]
Combo1 : 111,217,206
Combo2 : 133,165,250
Combo3 : 140,237,242

[HitObjects]
256,192,492,12,0,2825,0:0:0:0:
240,125,3158,5,4,0:0:0:0:
388,218,3491,2,0,P|384:140|260:66,1,217.5,8|0,0:0|0:0,0:0:0:0:
131,240,4325,6,0,L|126:52,1,145,0|0,0:0|0:0,0:0:0:0:
268,159,4991,2,0,L|101:163,1,145,0|0,0:0|0:0,0:0:0:0:
184,92,5491,1,8,0:0:0:0:
257,84,5658,1,0,0:0:0:0:
349,75,5825,5,4,0:0:0:0:
185,298,6158,2,0,P|189:220|313:146,1,217.5,8|0,0:0|0:0,0:0:0:0:
436,81,6991,6,0,L|435:273,1,145,0|0,0:0|0:0,0:0:0:0:
291,241,7658,1,0,0:0:0:0:
158,248,7991,2,0,L|30:250,2,72.5,0|8|0,0:0|0:0|0:0,0:0:0:0:
240,164,8491,5,4,0:0:0:0:
385,185,8825,2,0,L|123:194,1,217.5,8|0,0:0|0:0,0:0:0:0:
320,92,9658,6,0,L|334:256,1,145,0|0,0:0|0:0,0:0:0:0:
185,273,10325,1,0,0:0:0:0:
45,237,10658,1,0,0:0:0:0:
45,237,10825,1,8,0:0:0:0:
120,187,10991,1,0,0:0:0:0:
277,177,11325,5,0,0:0:0:0:
356,145,11491,1,8,0:0:0:0:
356,145,11658,1,0,0:0:0:0:
277,177,11825,1,0,0:0:0:0:
131,182,12158,1,8,0:0:0:0:
271,90,12491,6,0,L|438:85,1,145,0|8,0:0|0:0,0:0:0:0:
264,241,13158,2,0,P|177:222|136:77,1,217.5,0|8,0:0|0:3,0:0:0:0:
224,142,13825,6,0,L|390:144,1,163.125006222725,4|0,0:0|0:0,0:0:0:0:
320,77,14491,2,0,L|162:78,1,108.750004148483,0|8,0:0|0:0,0:0:0:0:
106,237,15158,5,8,0:3:0:0:
216,180,15491,2,0,L|64:182,2,108.750004148483,8|0|4,0:0|0:0|0:3,0:0:0:0:
350,243,16491,6,0,P|347:159|214:81,1,217.500008296967,8|0,0:3|0:0,0:0:0:0:
136,149,17491,1,8,0:0:0:0:
28,156,17825,5,8,0:3:0:0:
178,240,18158,2,0,L|328:240,2,108.750004148483,8|8|8,0:0|0:3|0:0,0:0:0:0:
40,244,19158,6,0,P|40:179|189:99,1,217.500008296967,4|8,0:0|0:3,0:0:0:0:
261,127,20158,1,8,0:0:0:0:
376,87,20491,6,0,L|388:220,1,108.750004148483,8|8,0:3|0:0,0:0:0:0:
256,242,21158,2,0,L|240:107,1,108.750004148483,8|8,0:3|0:0,0:0:0:0:
371,193,21825,6,0,P|429:157|361:51,1,217.500008296967,8|0,0:3|0:0,0:0:0:0:
285,72,22658,1,8,0:3:0:0:
207,83,22825,1,8,0:0:0:0:
93,137,23158,5,8,0:3:0:0:
211,187,23491,2,0,L|61:199,2,108.750004148483,8|0|8,0:0|0:0|0:0,0:0:0:0:
356,222,24491,6,0,P|363:150|225:68,1,217.500008296967,4|0,0:0|0:0,0:0:0:0:
114,177,25491,2,0,L|256:180,2,108.750004148483,8|8|8,0:0|0:3|0:0,0:0:0:0:
234,246,26491,2,0,L|367:243,1,108.750004148483,0|4,0:0|0:3,0:0:0:0:
194,294,27158,6,0,P|194:220|291:181,1,163.125006222725,8|0,0:3|0:0,0:0:0:0:
341,180,27825,2,0,P|339:116|153:43,1,271.875010371209,0|8,0:0|0:3,0:0:0:0:
54,249,28991,2,0,L|47:108,1,108.750004148483,8|8,0:3|0:3,0:0:0:0:
237,158,29825,5,4,0:0:0:0:
341,204,30158,2,0,L|208:206,2,108.750004148483,8|0|8,0:0|0:0|0:0,0:0:0:0:
457,222,31158,6,0,P|478:170|402:118,1,163.125006222725,8|8,0:3|0:3,0:0:0:0:
341,145,31825,2,0,L|243:146,2,54.3750020742417,0|8|8,0:0|0:3|0:0,0:0:0:0:
471,94,32491,5,10,0:3:0:0:
326,174,32825,1,8,0:0:0:0:
326,174,32991,1,10,0:3:0:0:
183,151,33325,1,10,0:3:0:0:
114,152,33491,1,8,0:0:0:0:
183,151,33658,1,0,0:0:0:0:
301,203,33991,5,10,0:3:0:0:
370,204,34157,1,4,0:0:0:0:
301,203,34324,1,0,0:0:0:0:
228,221,34491,2,0,L|226:73,1,108.750004148483,10|10,0:0|0:3,0:0:0:0:
392,109,35158,6,0,L|259:108,1,123.250002350807,4|8,0:0|0:0,0:0:0:0:
125,154,35825,2,0,L|280:161,1,123.250002350807,8|8,0:0|0:0,0:0:0:0:
404,91,36491,6,0,L|414:238,1,123.250002350807,8|8,0:0|0:0,0:0:0:0:
268,266,37158,2,0,L|248:130,1,123.250002350807,8|8,0:0|0:0,0:0:0:0:
401,161,37825,6,0,P|398:92|229:47,1,246.500004701614,8|8,0:0|0:0,0:0:0:0:
130,177,38825,1,8,0:0:0:0:
263,182,39158,6,0,P|341:162|391:7,1,246.500004701614,8|8,0:0|0:0,0:0:0:0:
265,78,40158,1,8,0:0:0:0:
203,80,40325,1,0,0:0:0:0:
285,75,40491,6,0,P|359:90|393:205,1,184.875003526211,4|8,0:0|0:0,0:0:0:0:
317,219,41158,2,0,L|117:219,1,184.875003526211,8|0,0:0|0:0,0:0:0:0:
205,151,41825,5,8,0:0:0:0:
335,127,42158,1,8,0:0:0:0:
462,112,42491,1,8,0:0:0:0:
321,128,42825,1,8,0:0:0:0:
169,264,43158,6,0,L|156:119,1,123.250002350807,8|8,0:0|0:0,0:0:0:0:
309,147,43825,1,8,0:0:0:0:
247,147,43991,1,0,0:0:0:0:
185,148,44158,1,8,0:0:0:0:
47,212,44491,6,0,L|41:67,1,123.250002350807,8|8,0:0|0:0,0:0:0:0:
191,88,45158,2,0,L|362:87,1,123.250002350807,8|8,0:0|0:3,0:0:0:0:
150,220,45825,6,0,L|313:214,1,145,4|8,0:0|0:0,0:0:0:0:
429,108,46491,2,0,L|436:268,1,145,8|8,0:0|0:0,0:0:0:0:
265,242,47158,6,0,L|420:257,3,145,8|8|8|8,0:0|0:0|0:0|0:0,0:0:0:0:
229,314,48491,6,0,P|222:238|504:95,1,435,8|8,0:0|0:0,0:0:0:0:
318,192,49825,6,0,L|162:197,1,145,8|8,0:0|0:0,0:0:0:0:
246,125,50325,1,0,0:0:0:0:
322,114,50491,1,8,0:0:0:0:
462,61,50825,1,8,0:0:0:0:
462,61,50991,1,0,0:0:0:0:
361,182,51158,5,4,0:0:0:0:
210,146,51491,1,8,0:0:0:0:
277,120,51658,1,0,0:0:0:0:
341,97,51825,1,8,0:3:0:0:
198,67,52158,1,8,0:0:0:0:
198,67,52325,1,8,0:3:0:0:
277,68,52491,6,0,L|465:69,1,145,0|8,0:0|0:0,0:0:0:0:
238,182,53158,2,0,L|70:186,1,145,8|8,0:3|0:0,0:0:0:0:
272,248,53825,6,0,P|373:209|407:81,1,217.5,4|0,0:0|0:0,0:0:0:0:
327,115,54491,2,0,L|31:125,1,290,8|8,0:0|0:0,0:0:0:0:
130,52,55325,1,8,0:0:0:0:
329,238,55825,6,0,P|330:167|215:126,1,163.125006222725,0|0,0:0|0:0,0:0:0:0:
155,202,56491,6,0,L|144:33,1,159.500004867554,4|8,0:0|0:0,0:0:0:0:
295,99,57158,1,8,0:3:0:0:
446,93,57491,1,8,0:0:0:0:
269,205,57825,6,0,L|416:135,1,159.500004867554,0|8,0:0|0:0,0:0:0:0:
216,130,58491,2,0,L|61:218,1,159.500004867554,0|8,0:0|0:0,0:0:0:0:
239,68,59158,5,8,0:3:0:0:
416,73,59491,1,8,0:0:0:0:
239,68,59825,1,8,0:3:0:0:
416,73,60158,1,0,0:0:0:0:
416,73,60325,1,8,0:3:0:0:
343,98,60491,5,0,0:0:0:0:
190,190,60825,2,0,L|332:290,2,159.500004867554,8|0|8,0:0|0:0|0:0,0:0:0:0:
18,274,61825,6,0,P|21:190|181:108,1,239.250007301331,4|0,0:0|0:0,0:0:0:0:
258,192,62491,2,0,P|264:100|126:48,1,239.250007301331,8|8,0:3|0:3,0:0:0:0:
65,124,63158,5,0,0:0:0:0:
225,176,63491,2,0,L|80:259,2,159.500004867554,8|0|8,0:0|0:0|0:0,0:0:0:0:
388,216,64491,6,0,P|388:129|251:63,1,239.250007301331,8|0,0:3|0:0,0:0:0:0:
158,241,65158,2,0,P|153:143|366:41,1,319.000009735108,8|4,0:3|0:0,0:0:0:0:
478,142,66158,5,8,0:0:0:0:
309,227,66491,2,0,L|133:286,1,159.500004867554,8|8,0:3|0:0,0:0:0:0:
345,212,67158,6,0,L|356:43,1,159.500004867554,4|8,0:0|0:0,0:0:0:0:
205,109,67825,1,8,0:3:0:0:
54,103,68158,1,0,0:0:0:0:
220,215,68492,6,0,L|64:278,1,159.500004867554,0|8,0:0|0:0,0:0:0:0:
226,141,69158,2,0,L|371:49,1,159.500004867554,0|8,0:0|0:0,0:0:0:0:
211,81,69825,5,8,0:3:0:0:
66,83,70158,1,8,0:0:0:0:
244,70,70492,1,8,0:3:0:0:
84,83,70825,1,0,0:0:0:0:
84,83,70992,1,8,0:3:0:0:
157,108,71158,5,0,0:0:0:0:
310,200,71492,2,0,L|150:271,2,159.500004867554,8|8|8,0:0|0:3|0:0,0:0:0:0:
482,284,72491,6,0,P|479:200|319:118,1,239.250007301331,4|0,0:0|0:0,0:0:0:0:
242,202,73158,2,0,P|236:110|374:58,1,239.250007301331,8|8,0:3|0:3,0:0:0:0:
435,134,73825,5,0,0:0:0:0:
275,186,74158,2,0,L|432:250,2,159.500004867554,8|8|8,0:0|0:3|0:0,0:0:0:0:
112,226,75158,6,0,P|112:139|249:73,1,239.250007301331,8|0,0:3|0:0,0:0:0:0:
342,251,75825,2,0,P|347:153|134:51,1,319.000009735108,8|4,0:3|0:3,0:0:0:0:
32,155,76825,5,8,0:0:0:0:
194,228,77158,2,0,L|356:294,1,159.500004867554,8|8,0:3|0:0,0:0:0:0:
182,164,77825,5,4,0:0:0:0:
46,217,78158,1,8,0:0:0:0:
46,217,78325,1,0,0:0:0:0:
123,156,78491,1,8,0:3:0:0:
198,162,78658,2,0,L|370:167,1,145,0|0,0:0|0:0,0:0:0:0:
274,106,79158,5,8,0:3:0:0:
136,127,79491,1,8,0:0:0:0:
274,106,79825,1,0,0:0:0:0:
274,106,79991,1,8,0:3:0:0:
133,169,80325,1,0,0:0:0:0:
206,174,80491,6,0,L|385:172,1,145,4|8,0:0|0:0,0:0:0:0:
274,106,80991,1,4,0:0:0:0:
137,122,81325,1,8,0:3:0:0:
54,167,81491,6,0,P|48:88|181:36,1,217.5,4|8,0:0|0:3,0:0:0:0:
236,104,82158,1,8,0:0:0:0:
402,89,82491,2,0,L|410:277,1,145,8|8,0:3|0:0,0:0:0:0:
243,274,83158,6,0,L|413:274,1,145,4|8,0:0|0:0,0:0:0:0:
218,183,83825,1,8,0:3:0:0:
144,191,83991,1,8,0:3:0:0:
218,183,84158,1,8,0:0:0:0:
379,130,84491,5,8,0:3:0:0:
211,255,84825,2,0,L|377:253,2,145,8|8|8,0:0|0:3|0:0,0:0:0:0:
50,289,85825,6,0,P|45:209|237:89,1,290,4|8,0:0|0:3,0:0:0:0:
349,140,86825,1,8,0:0:0:0:
349,140,86991,1,8,0:0:0:0:
349,140,87158,6,0,P|349:58|221:18,1,217.5,0|0,0:0|0:0,0:0:0:0:
142,212,87825,2,0,L|136:-34,1,217.5,0|0,0:0|0:0,0:0:0:0:
