osu file format v14

[General]
AudioFilename: audio.mp3
AudioLeadIn: 0
PreviewTime: 55741
Countdown: 0
SampleSet: Soft
StackLeniency: 0.7
Mode: 0
LetterboxInBreaks: 0
WidescreenStoryboard: 1

[Editor]
Bookmarks: 3170,13837,24503,35170,45837,51170,56503,67170,77837,87170
DistanceSpacing: 0.4
BeatDivisor: 4
GridSize: 8
TimelineZoom: 3.199999

[Metadata]
Title:Shout Baby (TV Size)
TitleUnicode:Shout Baby (TV Size)
Artist:Ryokuoushoku Shakai
ArtistUnicode:緑黄色社会
Creator:HakuYT
Version:frozz's Insane
Source:僕のヒーローアカデミア
Tags:ryokushaka ending boku no jpop j pop エンディングテーマ ED theme 長屋 晴子 小林 壱誓 peppe 穴見 真吾 my hero academia japanese anime frozz
BeatmapID:2328979
BeatmapSetID:1101897

[Difficulty]
HPDrainRate:6
CircleSize:4
OverallDifficulty:8
ApproachRate:9
SliderMultiplier:1.6
SliderTickRate:1

[Events]
//Background and Video events
0,0,"bggggg.png",0,0
Video,-12,"video.mp4"
//Break Periods
//Storyboard Layer 0 (Background)
//Storyboard Layer 1 (Fail)
//Storyboard Layer 2 (Pass)
//Storyboard Layer 3 (Foreground)
//Storyboard Layer 4 (Overlay)
//Storyboard Sound Samples

[TimingPoints]
492,333.333333333333,4,2,1,70,1,0
3075,-100,4,2,1,5,0,0
3158,-111.111111111111,4,2,1,70,0,0
6075,-111.111111111111,4,2,1,5,0,0
6158,-111.111111111111,4,2,1,70,0,0
8742,-111.111111111111,4,2,1,5,0,0
8825,-111.111111111111,4,2,1,70,0,0
13825,-125,4,2,1,60,0,0
21742,-125,4,2,1,5,0,0
21825,-125,4,2,1,60,0,0
29742,-125,4,2,1,5,0,0
29825,-125,4,2,1,60,0,0
35158,-125,4,2,1,55,0,0
45825,-125,4,2,1,65,0,0
46075,-125,4,2,1,5,0,0
46158,-125,4,2,1,60,0,0
51158,-100,4,2,1,70,0,0
55992,-100,4,2,1,60,0,0
56408,-100,4,2,1,5,0,0
56491,-83.3333333333333,4,2,1,85,0,1
77825,-100,4,2,1,70,0,0
80742,-100,4,2,1,5,0,0
80825,-100,4,2,1,70,0,0
87158,-100,4,2,1,60,0,0
87242,-100,4,2,1,30,0,0
88492,-100,4,2,1,5,0,0

[Colours]
Combo1 : 255,255,170
Combo2 : 212,212,212
Combo3 : 255,170,170

[HitObjects]
256,192,158,12,0,2658,0:0:0:0:
413,173,2825,6,0,B|420:260|420:260|457:217,1,120,8|0,0:0|0:0,0:0:0:0:
495,114,3158,6,0,P|430:77|339:98,1,143.999995605469,4|10,1:2|0:2,0:0:0:0:
302,187,3658,1,2,1:2:0:0:
287,71,3825,1,2,0:2:0:0:
413,173,3991,2,0,P|421:238|408:275,1,71.9999978027344,2|8,1:2|0:2,0:0:0:0:
308,257,4325,6,0,P|298:222|301:186,1,71.9999978027344,2|0,0:2|1:2,0:0:0:0:
351,333,4658,2,0,P|310:344|264:332,1,71.9999978027344,2|8,0:2|0:2,0:0:0:0:
212,253,4991,2,0,P|253:242|299:254,1,71.9999978027344,2|0,0:2|1:2,0:0:0:0:
186,340,5325,1,2,1:2:0:0:
130,223,5491,1,10,0:2:0:0:
186,340,5658,1,2,0:2:0:0:
179,157,5825,6,0,P|128:143|66:167,1,107.999996704102,4|0,1:2|0:2,0:0:0:0:
58,183,6158,1,10,0:2:0:0:
84,36,6325,1,2,1:2:0:0:
4,113,6491,1,2,0:2:0:0:
161,65,6658,2,0,L|240:55,1,71.9999978027344,2|8,1:2|0:2,0:0:0:0:
336,149,6991,6,0,L|257:139,1,71.9999978027344,2|0,0:2|1:2,0:0:0:0:
411,108,7325,2,0,P|418:171|402:205,1,71.9999978027344,2|8,0:2|0:2,0:0:0:0:
350,306,7658,2,0,P|343:243|359:209,1,71.9999978027344,2|0,0:2|0:2,0:0:0:0:
440,324,7991,1,2,1:2:0:0:
288,363,8158,1,10,0:2:0:0:
440,324,8325,1,2,0:2:0:0:
275,203,8491,6,0,P|213:193|149:215,1,107.999996704102,4|0,1:2|0:2,0:0:0:0:
157,214,8825,1,10,0:2:0:0:
222,298,8991,1,2,1:2:0:0:
145,119,9158,1,2,0:2:0:0:
95,285,9325,2,0,L|106:375,1,71.9999978027344,2|8,1:2|0:2,0:0:0:0:
4,245,9658,6,0,L|15:155,1,71.9999978027344,2|0,0:2|1:2,0:0:0:0:
145,104,9991,2,0,P|94:115|49:94,1,71.9999978027344,2|8,0:2|0:2,0:0:0:0:
187,21,10325,2,0,P|238:10|283:31,1,71.9999978027344,2|0,0:2|1:2,0:0:0:0:
309,105,10658,1,2,1:2:0:0:
403,0,10825,1,10,0:2:0:0:
309,105,10991,1,2,0:2:0:0:
476,77,11158,6,0,L|486:173,1,71.9999978027344,4|2,1:2|0:2,0:0:0:0:
391,250,11491,2,0,L|398:178,1,71.9999978027344,10|2,0:2|1:2,0:0:0:0:
445,328,11825,1,2,0:2:0:0:
303,265,11991,1,2,1:2:0:0:
445,328,12158,1,10,0:2:0:0:
290,384,12325,1,2,0:2:0:0:
391,250,12491,6,0,P|400:204|382:150,1,71.9999978027344,2|2,0:2|1:2,0:0:0:0:
298,66,12825,2,0,P|294:101|303:136,1,71.9999978027344,10|8,0:2|0:2,0:0:0:0:
315,158,13075,1,8,0:2:0:0:
315,158,13158,1,2,1:2:0:0:
388,93,13325,1,10,0:2:0:0:
224,9,13491,1,2,1:2:0:0:
388,93,13658,1,10,0:2:0:0:
198,117,13825,6,0,P|124:120|67:165,1,128,6|8,1:2|0:2,0:0:0:0:
77,234,14325,1,2,0:2:0:0:
160,264,14491,2,0,P|166:229|154:181,1,64,2|0,0:2|1:2,0:0:0:0:
77,234,14825,2,0,P|71:269|83:317,1,64,8|0,0:2|0:2,0:0:0:0:
263,249,15158,1,0,1:2:0:0:
263,249,15491,2,0,P|211:248|177:262,1,64,10|0,0:2|1:2,0:0:0:0:
328,314,15825,2,0,P|350:255|319:178,1,128,2|10,0:2|0:2,0:0:0:0:
235,117,16325,1,0,1:2:0:0:
235,117,16408,1,0,1:2:0:0:
235,117,16491,6,0,L|389:102,1,128,2|8,1:2|0:2,0:0:0:0:
428,44,16991,1,2,0:2:0:0:
497,95,17158,2,0,P|507:157|503:181,1,64,2|0,0:2|1:2,0:0:0:0:
434,235,17491,2,0,P|424:173|428:149,1,64,8|0,0:2|0:2,0:0:0:0:
287,266,17825,1,0,1:2:0:0:
287,266,18158,2,0,P|328:254|377:266,1,64,10|0,0:2|1:2,0:0:0:0:
221,337,18491,2,0,P|199:290|223:202,1,128,2|10,0:2|0:2,0:0:0:0:
316,143,18991,1,0,1:2:0:0:
316,143,19075,1,0,1:2:0:0:
316,143,19158,6,0,L|163:131,1,128,6|8,1:2|0:2,0:0:0:0:
125,70,19658,1,2,0:2:0:0:
46,108,19825,2,0,P|38:164|47:197,1,64,2|0,0:2|1:2,0:0:0:0:
90,252,20158,1,8,0:2:0:0:
39,170,20325,1,2,0:2:0:0:
29,334,20491,2,0,P|52:339|103:335,1,64,2|0,1:2|0:2,0:0:0:0:
227,297,20825,2,0,P|203:291|153:296,1,64,10|0,0:2|1:2,0:0:0:0:
301,340,21158,2,0,P|310:300|301:264,1,64,2|0,0:2|1:2,0:0:0:0:
248,124,21491,2,0,P|223:181|255:213,1,96,10|0,0:2|0:0,0:0:0:0:
245,207,21825,6,0,P|299:199|393:207,1,128,2|8,1:2|0:2,0:0:0:0:
433,260,22325,1,2,0:2:0:0:
501,208,22491,2,0,P|509:164|501:129,1,64,2|0,0:2|1:2,0:0:0:0:
431,78,22825,2,0,P|423:122|431:157,1,64,8|0,0:2|0:2,0:0:0:0:
466,2,23158,2,0,P|425:-3|377:10,1,64,0|0,1:2|0:2,0:0:0:0:
283,59,23491,2,0,P|324:64|372:51,1,64,10|0,0:2|1:2,0:0:0:0:
216,3,23825,2,0,P|197:47|233:137,1,128,2|10,0:2|0:2,0:0:0:0:
283,205,24325,1,0,1:2:0:0:
283,205,24408,1,0,1:2:0:0:
283,205,24491,6,0,B|188:205|188:205|155:163,2,128,6|8|0,1:2|0:2|0:0,0:0:0:0:
346,140,25325,1,0,1:2:0:0:
423,175,25491,2,0,P|433:220|428:258,1,64,10|0,0:2|0:2,0:0:0:0:
385,327,25825,2,0,P|347:335|308:328,1,64,2|0,1:2|0:2,0:0:0:0:
237,257,26158,2,0,P|274:248|313:255,1,64,10|0,0:2|1:2,0:0:0:0:
172,329,26491,2,0,P|146:255|170:191,1,128,2|10,0:2|0:2,0:0:0:0:
55,127,26991,1,0,1:2:0:0:
55,127,27075,1,0,1:2:0:0:
55,127,27158,6,0,P|63:208|45:268,1,128,2|8,1:2|0:2,0:0:0:0:
0,323,27658,1,2,0:2:0:0:
108,320,27825,2,0,L|186:330,1,64,2|0,0:2|1:0,0:0:0:0:
250,233,28158,2,0,P|246:278|256:316,1,64,8|0,0:2|0:2,0:0:0:0:
306,368,28491,1,0,1:2:0:0:
328,267,28658,1,0,1:2:0:0:
306,368,28825,1,8,0:2:0:0:
409,294,28991,2,0,P|409:243|396:211,1,64,2|0,1:2|0:2,0:0:0:0:
335,181,29325,1,2,1:2:0:0:
457,153,29491,2,0,P|410:133|412:78,1,96,8|0,0:2|0:2,0:0:0:0:
410,84,29825,6,0,P|331:89|269:85,1,128,4|10,1:2|0:2,0:0:0:0:
209,37,30325,1,0,0:2:0:0:
139,75,30491,2,0,P|135:112|142:145,1,64,2|0,0:2|1:2,0:0:0:0:
220,222,30825,2,0,P|224:185|217:152,1,64,10|0,0:2|0:2,0:0:0:0:
158,285,31158,2,0,P|224:310|292:272,1,128,2|8,1:2|0:2,0:0:0:0:
307,206,31658,1,2,1:2:0:0:
357,298,31825,2,0,L|351:369,1,64,2|2,0:2|1:2,0:0:0:0:
446,261,32158,2,0,L|440:190,1,64,10|0,0:2|0:2,0:0:0:0:
388,109,32491,6,0,P|343:99|300:112,1,64,0|0,1:2|0:2,0:0:0:0:
244,145,32825,1,8,0:2:0:0:
155,58,32991,2,0,L|163:142,1,64,0|0,1:2|0:2,0:0:0:0:
80,225,33325,2,0,L|88:141,1,64,0|8,1:2|0:2,0:0:0:0:
157,270,33658,1,0,0:2:0:0:
36,303,33825,1,0,0:2:0:0:
157,270,33991,2,0,L|246:278,1,64,0|8,1:2|0:2,0:0:0:0:
291,340,34325,1,8,0:2:0:0:
345,225,34491,1,0,1:2:0:0:
280,167,34658,1,8,0:3:0:0:
337,108,34825,1,8,0:3:0:0:
323,96,34991,1,8,0:3:0:0:
454,28,35158,6,0,P|444:82|454:114,1,64,6|8,1:2|0:2,0:0:0:0:
496,161,35491,2,0,P|506:215|496:247,1,64,10|8,0:2|0:2,0:0:0:0:
499,243,35741,1,8,0:2:0:0:
498,243,35825,1,2,1:2:0:0:
415,284,35991,1,8,0:2:0:0:
452,371,36158,2,0,L|378:362,1,64,10|8,0:2|0:2,0:0:0:0:
304,319,36491,6,0,B|208:302|208:302|171:326,1,128,2|10,1:2|0:2,0:0:0:0:
94,366,36991,1,8,0:2:0:0:
94,366,37075,1,8,0:2:0:0:
94,366,37158,2,0,P|103:322|92:286,1,64,2|8,1:2|0:2,0:0:0:0:
10,267,37491,2,0,P|6:298|15:329,1,64,10|8,0:2|0:2,0:0:0:0:
92,212,37825,6,0,L|85:138,1,64,2|8,1:2|0:2,0:0:0:0:
12,88,38158,1,8,0:2:0:0:
7,72,38241,1,8,0:2:0:0:
7,56,38325,1,8,0:2:0:0:
12,41,38408,1,8,0:0:0:0:
21,28,38491,2,0,L|105:19,1,64,2|8,1:2|0:2,0:0:0:0:
159,69,38825,2,0,L|243:78,1,64,10|8,0:2|0:2,0:0:0:0:
299,33,39158,6,0,P|308:81|302:122,1,64,2|8,1:2|0:2,0:0:0:0:
255,170,39491,2,0,P|246:218|252:259,1,64,8|8,0:2|0:2,0:0:0:0:
252,251,39741,1,8,0:2:0:0:
252,251,39825,2,0,L|328:243,1,64,2|8,1:2|0:0,0:0:0:0:
382,301,40158,1,10,0:2:0:0:
432,233,40325,1,10,0:2:0:0:
505,294,40491,6,0,P|526:227|497:164,1,128,6|8,1:2|0:2,0:0:0:0:
422,140,40991,1,10,0:2:0:0:
448,54,41158,2,0,B|354:70|354:70|297:47,1,128,2|8,1:2|0:2,0:0:0:0:
206,38,41658,1,10,0:2:0:0:
206,38,41741,1,8,0:2:0:0:
206,38,41825,6,0,P|219:80|212:125,1,64,2|8,1:2|0:2,0:0:0:0:
162,167,42158,2,0,P|149:209|156:254,1,64,10|8,0:2|0:2,0:0:0:0:
215,297,42491,1,2,1:2:0:0:
136,340,42658,1,8,0:2:0:0:
215,297,42825,2,0,L|288:306,1,64,10|8,0:2|0:2,0:0:0:0:
353,368,43158,6,0,P|374:300|343:231,1,128,0|8,1:2|0:2,0:0:0:0:
279,204,43658,1,8,0:2:0:0:
197,239,43825,1,0,1:2:0:0:
152,165,43991,1,8,0:2:0:0:
64,186,44158,2,0,L|63:106,1,64,8|8,0:2|0:2,0:0:0:0:
63,98,44408,1,8,0:2:0:0:
63,98,44491,6,0,P|99:88|138:89,1,64,0|8,1:2|0:2,0:0:0:0:
214,73,44825,2,0,P|250:83|289:82,1,64,8|8,0:2|0:2,0:0:0:0:
347,35,45158,1,0,1:2:0:0:
368,124,45325,1,8,1:3:0:0:
461,66,45491,2,0,L|453:145,1,64,2|0,1:2|1:0,0:0:0:0:
456,154,45741,1,0,1:0:0:0:
456,154,45825,6,0,P|451:224|457:274,1,96,6|0,1:2|0:2,0:0:0:0:
462,278,46158,2,0,L|509:287,3,32,10|0|0|0,0:2|1:2|1:2|1:2,0:0:0:0:
390,354,46491,2,0,L|343:363,3,32,10|0|0|0,0:2|1:2|1:2|1:2,0:0:0:0:
299,277,46825,1,10,0:2:0:0:
269,264,46908,1,0,1:2:0:0:
238,258,46991,1,0,1:2:0:0:
206,259,47075,1,0,1:2:0:0:
175,265,47158,6,0,L|186:315,3,32,10|0|0|0,0:2|1:2|1:2|1:2,0:0:0:0:
100,189,47491,2,0,L|111:139,3,32,10|0|0|0,0:2|1:2|1:2|1:2,0:0:0:0:
42,277,47825,2,0,L|53:327,3,32,10|0|0|0,0:2|1:2|1:2|1:2,0:0:0:0:
13,176,48158,1,10,0:2:0:0:
6,145,48241,1,0,1:2:0:0:
10,113,48325,1,0,1:2:0:0:
26,86,48408,1,0,1:2:0:0:
52,67,48491,6,0,L|97:78,3,32,10|0|0|0,0:2|1:2|1:2|1:2,0:0:0:0:
181,114,48825,2,0,L|226:103,3,32,8|0|0|0,0:2|1:2|1:2|1:2,0:0:0:0:
301,39,49158,2,0,L|346:50,3,32,8|0|0|0,0:2|1:2|1:2|1:2,0:0:0:0:
349,141,49491,1,8,0:2:0:0:
347,180,49575,1,0,1:2:0:0:
368,213,49658,1,0,1:2:0:0:
404,229,49741,1,0,1:2:0:0:
443,222,49825,6,0,L|452:173,3,32,8|0|0|0,0:2|1:2|1:2|1:2,0:0:0:0:
352,294,50158,1,8,0:2:0:0:
312,296,50241,1,0,1:2:0:0:
272,299,50325,1,2,1:2:0:0:
232,302,50408,1,0,1:2:0:0:
192,305,50491,2,0,L|162:272,1,32,10|0,0:2|1:2,0:0:0:0:
89,183,50658,1,2,1:2:0:0:
89,183,50741,1,0,1:2:0:0:
89,183,50825,2,0,P|98:219|89:265,1,64,10|2,0:2|0:2,0:0:0:0:
31,105,51158,6,0,B|72:86|72:86|200:104,1,160,6|10,1:2|0:2,0:0:0:0:
245,192,51658,1,2,0:2:0:0:
279,94,51825,2,0,P|271:37|284:4,1,80,2|8,1:2|0:2,0:0:0:0:
358,144,52158,5,2,0:2:0:0:
245,192,52325,1,2,1:2:0:0:
355,50,52491,2,0,L|448:41,1,80,2|0,0:2|1:2,0:0:0:0:
463,203,52825,2,0,P|447:160|460:109,1,80,10|0,0:2|0:2,0:0:0:0:
378,297,53158,2,0,P|381:257|366:220,1,80,2|0,1:2|1:2,0:0:0:0:
328,371,53491,2,0,P|385:385|425:375,1,80,10|0,0:2|0:2,0:0:0:0:
287,280,53825,6,0,L|110:295,1,160,14|8,0:2|0:2,0:0:0:0:
44,213,54325,1,10,0:2:0:0:
77,375,54491,1,10,0:2:0:0:
22,201,54658,1,8,0:2:0:0:
97,383,54825,1,8,0:2:0:0:
0,189,54991,1,8,0:2:0:0:
0,365,55158,5,8,0:2:0:0:
146,216,55325,1,8,0:2:0:0:
146,216,55991,5,0,1:2:0:0:
153,105,56158,2,0,B|167:191|167:191|142:219,1,120,8|0,0:2|0:0,0:0:0:0:
118,26,56491,6,0,B|227:-3|193:79|299:52,1,191.999994140625,6|8,1:2|0:2,0:0:0:0:
414,4,56991,1,0,0:0:0:0:
390,135,57158,2,0,P|380:197|402:254,1,95.9999970703126,0|8,1:2|0:2,0:0:0:0:
254,272,57491,2,0,P|262:225|251:178,1,95.9999970703126,2|0,0:2|1:2,0:0:0:0:
171,364,57825,6,0,P|93:378|47:342,1,95.9999970703126,2|0,0:2|1:2,0:0:0:0:
77,238,58158,2,0,P|155:224|201:260,1,95.9999970703126,10|0,0:2|0:2,0:0:0:0:
4,308,58491,2,0,B|-16:257|-16:257|2:109,1,191.999994140625,2|10,0:2|0:2,0:0:0:0:
86,31,58991,1,0,1:2:0:0:
86,31,59075,1,0,1:2:0:0:
86,31,59158,6,0,P|129:50|205:23,1,95.9999970703126,2|0,1:2|0:0,0:0:0:0:
295,151,59491,2,0,P|248:144|204:163,1,95.9999970703126,10|0,0:2|0:2,0:0:0:0:
389,75,59825,2,0,L|412:182,1,95.9999970703126,2|8,1:2|0:2,0:0:0:0:
334,326,60158,2,0,P|321:265|343:207,1,95.9999970703126,2|0,0:2|1:2,0:0:0:0:
499,382,60491,5,2,0:2:0:0:
499,382,60825,2,0,P|430:362|379:385,1,95.9999970703126,10|0,0:2|0:2,0:0:0:0:
247,286,61158,2,0,P|313:297|323:174,1,191.999994140625,2|10,0:2|0:2,0:0:0:0:
260,115,61658,1,0,1:2:0:0:
260,115,61741,1,0,1:2:0:0:
260,115,61825,6,0,B|114:135|114:135|72:96,1,191.999994140625,6|8,1:2|0:2,0:0:0:0:
36,0,62325,1,2,0:2:0:0:
0,167,62491,2,0,P|14:241|-9:297,1,95.9999970703126,2|8,1:2|0:2,0:0:0:0:
111,353,62825,2,0,P|106:305|120:260,1,95.9999970703126,0|2,0:2|1:2,0:0:0:0:
231,380,63158,5,2,0:2:0:0:
231,380,63491,2,0,P|291:360|347:386,1,95.9999970703126,10|0,0:2|0:2,0:0:0:0:
453,384,63825,2,0,P|424:319|481:208,1,191.999994140625,2|10,0:2|0:2,0:0:0:0:
448,100,64325,1,0,1:2:0:0:
448,100,64408,1,0,1:2:0:0:
448,100,64491,6,0,B|336:138|368:49|266:77,1,191.999994140625,2|8,1:2|0:2,0:0:0:0:
210,217,64991,1,2,0:2:0:0:
128,98,65158,2,0,L|137:-6,1,95.9999970703126,2|8,1:2|0:2,0:0:0:0:
40,189,65491,2,0,L|49:293,1,95.9999970703126,0|0,0:2|1:2,0:0:0:0:
154,286,65825,5,8,0:2:0:0:
19,384,65991,1,0,1:2:0:0:
154,286,66158,2,0,P|228:283|269:320,1,95.9999970703126,8|0,0:2|0:2,0:0:0:0:
381,362,66491,2,0,P|341:299|352:245,1,95.9999970703126,10|8,0:2|0:2,0:0:0:0:
345,261,66741,1,8,0:2:0:0:
347,232,66825,1,8,1:2:0:0:
350,198,66908,1,8,0:2:0:0:
353,159,66991,1,8,0:2:0:0:
356,116,67075,1,8,0:2:0:0:
360,69,67158,1,6,1:2:0:0:
175,191,67491,6,0,P|94:194|82:94,1,191.999994140625,8|0,0:2|1:2,0:0:0:0:
184,89,67991,1,8,0:2:0:0:
259,173,68158,2,0,P|270:237|246:300,1,95.9999970703126,2|0,0:2|1:2,0:0:0:0:
112,360,68491,6,0,P|163:353|216:366,1,95.9999970703126,2|0,0:2|1:2,0:0:0:0:
357,264,68825,2,0,P|310:273|262:265,1,95.9999970703126,10|0,0:2|0:2,0:0:0:0:
127,150,69158,2,0,B|171:118|171:118|164:276,1,191.999994140625,2|10,0:2|0:2,0:0:0:0:
36,201,69658,1,0,1:2:0:0:
36,201,69741,1,0,1:2:0:0:
36,201,69825,6,0,P|23:139|65:83,1,95.9999970703126,6|0,1:2|0:2,0:0:0:0:
172,28,70158,2,0,P|185:73|170:118,1,95.9999970703126,10|0,0:2|0:2,0:0:0:0:
164,255,70491,2,0,L|278:240,1,95.9999970703126,2|8,1:2|0:2,0:0:0:0:
420,167,70825,2,0,P|342:176|317:152,1,95.9999970703126,2|0,0:2|1:2,0:0:0:0:
263,11,71158,5,2,0:2:0:0:
263,11,71491,2,0,L|256:132,1,95.9999970703126,10|0,0:2|0:2,0:0:0:0:
308,339,71825,2,0,B|292:195|292:195|340:163,1,191.999994140625,2|10,1:2|0:2,0:0:0:0:
474,232,72325,1,0,1:2:0:0:
474,232,72408,1,0,1:2:0:0:
474,232,72491,6,0,P|386:244|330:160,1,191.999994140625,6|8,1:2|0:2,0:0:0:0:
422,52,72991,1,2,0:2:0:0:
284,100,73158,2,0,L|178:107,1,95.9999970703126,2|8,1:2|0:2,0:0:0:0:
86,0,73491,2,0,P|100:61|79:101,1,95.9999970703126,0|2,0:2|1:2,0:0:0:0:
0,203,73825,5,2,0:2:0:0:
0,203,74158,2,0,P|63:200|105:222,1,95.9999970703126,10|0,0:2|0:2,0:0:0:0:
188,349,74491,2,0,P|171:293|245:170,1,191.999994140625,2|10,1:2|0:2,0:0:0:0:
348,241,74991,1,0,1:2:0:0:
348,241,75075,1,0,1:2:0:0:
348,241,75158,6,0,P|435:257|476:150,2,191.999994140625,6|8|2,1:2|0:2|1:2,0:0:0:0:
349,132,75991,1,8,0:2:0:0:
227,179,76158,2,0,P|168:176|125:207,1,95.9999970703126,0|2,0:2|1:2,0:0:0:0:
55,67,76491,6,0,P|97:87|144:81,1,95.9999970703126,2|0,0:2|1:2,0:0:0:0:
332,34,76825,2,0,L|216:26,1,95.9999970703126,8|0,0:2|1:2,0:0:0:0:
349,132,77158,1,8,1:3:0:0:
437,27,77325,1,8,1:3:0:0:
446,197,77491,2,0,L|430:314,1,95.9999970703126,8|2,0:2|0:2,0:0:0:0:
303,366,77825,6,0,B|182:344|182:344|126:370,1,160,6|10,1:2|0:2,0:0:0:0:
143,255,78325,1,2,0:2:0:0:
65,384,78491,1,2,1:2:0:0:
143,255,78658,2,0,L|124:160,1,80,2|8,0:2|0:2,0:0:0:0:
40,95,78991,1,2,0:2:0:0:
157,89,79158,6,0,P|210:103|251:83,1,80,2|0,1:2|0:2,0:0:0:0:
304,200,79491,2,0,P|251:186|210:206,1,80,10|0,0:2|1:2,0:0:0:0:
317,114,79825,1,2,0:2:0:0:
262,266,79991,2,0,L|273:366,1,80,2|8,1:2|0:2,0:0:0:0:
304,200,80325,1,2,0:2:0:0:
359,368,80491,6,0,P|428:354|457:284,1,120,6|0,1:2|0:2,0:0:0:0:
456,304,80825,2,0,L|436:260,1,40,10|0,0:2|0:0,0:0:0:0:
384,152,80991,1,8,0:3:0:0:
342,299,81158,1,4,0:3:0:0:
474,181,81325,1,4,0:3:0:0:
283,195,81491,6,0,P|215:174|195:79,1,160,6|0,1:2|0:2,0:0:0:0:
236,0,81991,1,0,1:2:0:0:
113,40,82158,2,0,P|100:116|117:151,1,80,8|0,0:2|0:2,0:0:0:0:
128,276,82491,2,0,P|132:209|113:187,1,80,2|0,1:2|1:2,0:0:0:0:
75,346,82825,1,8,0:2:0:0:
217,311,82991,1,0,1:2:0:0:
217,311,83075,1,0,1:2:0:0:
217,311,83158,6,0,B|281:303|281:303|313:315|313:315|387:305,2,160,6|10|2,1:2|0:2|1:2,0:0:0:0:
328,231,83991,1,2,1:2:0:0:
177,216,84158,2,0,P|165:147|180:106,1,80,10|0,0:2|0:2,0:0:0:0:
237,14,84491,5,0,1:2:0:0:
237,14,84825,2,0,P|247:82|231:127,1,80,10|0,0:2|0:2,0:0:0:0:
328,231,85158,2,0,P|324:141|405:81,1,160,2|10,1:2|0:2,0:0:0:0:
394,299,85658,1,0,1:2:0:0:
394,299,85741,1,0,1:2:0:0:
394,299,85825,6,0,B|352:325|352:325|207:309,1,160,6|0,1:2|1:0,0:0:0:0:
139,162,86325,1,0,1:2:0:0:
133,316,86491,1,8,0:2:0:0:
166,136,86658,1,8,0:2:0:0:
135,330,86825,1,8,0:2:0:0:
303,247,86991,1,10,0:2:0:0:
46,171,87158,1,2,0:2:0:0:
256,192,87241,12,0,88491,0:0:0:0:
