osu file format v14

[General]
AudioFilename: audio.mp3
AudioLeadIn: 0
PreviewTime: 55741
Countdown: 0
SampleSet: Drum
StackLeniency: 0.5
Mode: 0
LetterboxInBreaks: 0
WidescreenStoryboard: 0

[Editor]
DistanceSpacing: 0.4
BeatDivisor: 4
GridSize: 8
TimelineZoom: 1

[Metadata]
Title:Shout Baby (TV Size)
TitleUnicode:Shout Baby (TV Size)
Artist:Ryokuoushoku Shakai
ArtistUnicode:緑黄色社会
Creator:A r M i N
Version:Plus Ultra
Source:僕のヒーローアカデミア
Tags:ryokushaka ending boku no j-pop jpop j pop エンディングテーマ ED theme 長屋 晴子 小林 壱誓 peppe 穴見 真吾 my hero academia japanese anime Armin A_r_M_i_N Smoke Doormat Hazu- Grindle SINGALONG
BeatmapID:2419262
BeatmapSetID:1159397

[Difficulty]
HPDrainRate:5.8
CircleSize:3.8
OverallDifficulty:9
ApproachRate:9.2
SliderMultiplier:1.8
SliderTickRate:1

[Events]
//Background and Video events
0,0,"thumb-1920-1061275.png",0,0
//Break Periods
//Storyboard Layer 0 (Background)
//Storyboard Layer 1 (Fail)
//Storyboard Layer 2 (Pass)
//Storyboard Layer 3 (Foreground)
//Storyboard Layer 4 (Overlay)
//Storyboard Sound Samples

[TimingPoints]
492,333.333333333333,4,2,1,70,1,0
3158,-100,4,2,1,70,0,0
13825,-125,4,2,2,60,0,0
14133,-125,4,2,2,60,0,0
29825,-111.111111111111,4,2,2,60,0,0
35158,-111.111111111111,4,3,3,60,0,0
35466,-111.111111111111,4,3,3,60,0,0
45825,-111.111111111111,4,3,3,70,0,0
46133,-111.111111111111,4,3,3,70,0,0
50825,-100,4,2,1,70,0,0
51133,-100,4,2,1,70,0,0
51158,-100,4,2,2,75,0,0
51466,-100,4,2,2,75,0,0
53825,-100,4,2,1,80,0,0
54133,-100,4,2,1,80,0,0
55825,-100,4,2,1,65,0,0
56133,-100,4,2,1,65,0,0
56491,-83.3333333333333,4,2,1,80,0,1
56800,-83.3333333333333,4,2,1,80,0,1
66658,-83.3333333333333,4,2,1,80,0,0
67158,-83.3333333333333,4,2,1,80,0,1
77825,-90.9090909090909,4,2,1,75,0,0
85825,-83.3333333333333,4,2,1,80,0,1
86991,-100,4,2,1,80,0,0
87158,-250,4,2,1,60,0,0
87466,-250,4,2,1,60,0,0

[Colours]
Combo1 : 225,209,100
Combo2 : 169,52,67
Combo3 : 202,190,203
Combo4 : 60,117,85

[HitObjects]
256,192,492,12,8,2825,0:0:0:0:
18,126,3158,6,0,B|63:118|63:118|102:133|102:133|148:126,1,135,4|0,1:2|0:0,0:0:0:0:
227,73,3491,1,8,0:0:0:0:
149,280,3658,1,2,1:2:0:0:
238,45,3825,1,2,0:0:0:0:
360,213,3991,1,2,1:2:0:0:
148,125,4158,1,12,0:0:0:0:
345,29,4325,6,0,P|331:76|320:119,1,90,2|0,0:0|1:0,0:0:0:0:
180,319,4658,2,0,P|168:275|155:232,1,90,2|8,0:0|0:0,0:0:0:0:
346,354,4991,2,0,P|302:365|259:378,1,90,2|2,0:0|0:1,0:0:0:0:
346,195,5325,1,2,1:2:0:0:
445,377,5491,1,10,0:0:0:0:
289,270,5658,1,2,0:0:0:0:
444,115,5825,6,0,P|498:164|496:225,1,135,4|0,1:2|0:0,0:0:0:0:
426,284,6158,1,10,0:0:0:0:
300,84,6325,1,2,1:2:0:0:
164,250,6491,1,2,0:0:0:0:
357,171,6658,1,2,1:2:0:0:
142,74,6825,1,12,0:0:0:0:
252,322,6991,6,0,P|263:278|276:235,1,90,2|0,0:0|1:0,0:0:0:0:
436,68,7325,2,0,P|448:111|460:154,1,90,2|8,0:0|0:0,0:0:0:0:
240,97,7658,2,0,P|283:85|326:72,1,90,2|2,0:0|0:1,0:0:0:0:
197,251,7991,1,2,1:2:0:0:
113,7,8158,1,10,0:0:0:0:
308,175,8325,1,2,0:0:0:0:
44,157,8491,6,0,L|176:133,1,135,4|0,1:2|0:0,0:0:0:0:
247,70,8825,1,10,0:0:0:0:
351,260,8991,1,2,1:2:0:0:
441,75,9158,1,2,0:0:0:0:
260,197,9325,1,0,1:0:0:0:
502,273,9491,1,12,0:0:0:0:
353,39,9658,6,0,P|340:82|328:125,1,90,2|0,0:0|1:0,0:0:0:0:
154,267,9991,2,0,P|142:223|129:180,1,90,2|8,0:0|0:0,0:0:0:0:
325,296,10325,2,0,P|368:283|411:271,1,90,2|2,0:0|0:1,0:0:0:0:
250,141,10658,1,2,1:2:0:0:
191,366,10825,1,10,0:0:0:0:
328,198,10991,1,2,0:0:0:0:
130,103,11158,6,0,P|142:146|154:189,1,90,4|2,1:2|0:0,0:0:0:0:
241,52,11491,1,10,0:0:0:0:
40,175,11658,1,2,1:2:0:0:
258,283,11825,1,2,0:3:0:0:
130,103,11991,1,2,1:2:0:0:
45,367,12158,1,14,0:0:0:0:
121,131,12325,1,2,0:0:0:0:
198,355,12491,5,2,0:3:0:0:
20,195,12658,1,2,0:3:0:0:
262,100,12825,1,10,0:0:0:0:
123,243,12991,1,2,0:0:0:0:
123,243,13075,1,8,0:0:0:0:
123,243,13158,5,10,3:0:0:0:
211,6,13325,1,10,3:2:0:0:
348,200,13491,1,2,1:2:0:0:
424,45,13658,1,10,3:2:0:0:
206,184,13825,6,0,P|222:254|237:324,1,144,4|8,1:0|0:0,0:0:0:0:
322,199,14325,1,2,0:0:0:0:
398,311,14491,2,0,L|329:294,1,72,2|0,0:0|1:0,0:0:0:0:
407,140,14825,2,0,L|425:210,1,72,8|0,0:0|0:0,0:0:0:0:
241,150,15158,6,0,L|259:80,1,72,0|0,1:0|0:0,0:0:0:0:
173,246,15491,1,10,0:0:0:0:
322,199,15658,1,0,1:0:0:0:
168,89,15825,2,0,P|150:119|146:155,1,72,2|0,0:0|1:0,0:0:0:0:
352,94,16158,2,0,L|334:24,1,72,14|0,0:0|0:0,0:0:0:0:
241,150,16491,6,0,P|292:196|362:188,1,144,2|8,1:2|0:0,0:0:0:0:
428,37,16991,1,0,0:0:0:0:
507,151,17158,2,0,P|472:141|438:132,1,72,2|0,0:0|1:0,0:0:0:0:
355,288,17491,2,0,P|389:278|424:268,1,72,8|0,0:0|0:0,0:0:0:0:
255,216,17825,6,0,L|237:286,1,72,0|0,1:0|0:0,0:0:0:0:
362,188,18158,1,10,0:0:0:0:
208,124,18325,1,0,1:0:0:0:
288,29,18491,2,0,P|298:64|308:99,1,72,2|0,0:0|1:0,0:0:0:0:
116,41,18825,2,0,P|151:31|186:22,1,72,10|0,0:0|0:0,0:0:0:0:
362,188,19158,6,0,B|349:238|349:238|374:273|374:273|363:321,1,144,4|8,1:0|0:0,0:0:0:0:
240,218,19658,1,2,0:0:0:0:
195,330,19825,2,0,P|230:320|265:310,1,72,2|0,0:0|1:0,0:0:0:0:
168,155,20158,2,0,P|150:185|146:221,1,72,8|2,0:0|0:0,0:0:0:0:
363,320,20491,6,0,L|345:250,1,72,2|0,1:2|0:0,0:0:0:0:
403,70,20825,1,10,0:0:0:0:
263,191,20991,1,0,1:0:0:0:
441,180,21158,2,0,P|406:170|371:160,1,72,2|0,0:0|1:0,0:0:0:0:
242,51,21491,2,0,P|277:41|312:31,1,72,14|0,0:0|0:0,0:0:0:0:
244,178,21825,6,0,B|170:159|181:220|108:201,1,144,2|8,1:2|0:0,0:0:0:0:
0,62,22325,1,2,0:0:0:0:
129,109,22491,1,2,0:0:0:0:
30,264,22658,2,0,P|20:229|10:194,1,72,2|10,1:2|0:0,0:0:0:0:
139,307,22991,6,0,P|112:352|24:359,1,144,2|2,0:0|0:0,0:0:0:0:
107,200,23491,1,10,0:0:0:0:
228,337,23658,1,0,1:0:0:0:
302,154,23825,2,0,P|267:164|232:174,1,72,2|0,0:0|1:0,0:0:0:0:
406,286,24158,2,0,P|416:251|426:216,1,72,10|2,0:0|0:0,0:0:0:0:
411,175,24408,1,2,0:0:0:0:
411,175,24491,6,0,P|392:244|372:313,1,144,4|8,1:0|0:0,0:0:0:0:
182,231,24991,2,0,B|232:180|232:180|302:198,1,144,2|2,0:0|1:2,0:0:0:0:
284,364,25491,2,0,P|274:329|264:294,1,72,10|0,0:0|0:0,0:0:0:0:
126,149,25825,6,0,P|161:159|196:169,1,72,2|0,1:2|0:0,0:0:0:0:
349,60,26158,2,0,P|384:50|419:40,1,72,10|0,0:0|1:0,0:0:0:0:
446,221,26491,6,0,P|411:211|376:201,1,72,2|0,0:0|1:0,0:0:0:0:
245,11,26825,2,0,P|210:21|175:31,1,72,12|0,0:0|0:0,0:0:0:0:
45,244,27158,6,0,P|31:195|86:118,1,144,2|8,1:2|0:0,0:0:0:0:
233,168,27658,1,2,0:0:0:0:
148,271,27825,2,0,L|130:201,1,72,2|0,0:0|1:0,0:0:0:0:
264,67,28158,1,8,0:0:0:0:
354,174,28325,6,0,P|364:139|374:104,1,72,2|0,0:0|1:0,0:0:0:0:
233,168,28658,1,2,1:2:0:0:
400,257,28825,1,8,0:0:0:0:
235,342,28991,2,0,B|185:329|185:329|150:354|150:354|102:343,1,144,2|2,1:2|1:2,0:0:0:0:
304,243,29491,2,0,P|314:296|324:349,1,108,12|0,0:0|0:0,0:0:0:0:
354,361,29825,6,0,P|346:325|335:278,1,80.9999975280763,4|0,1:0|0:0,0:0:0:0:
434,113,30158,2,0,P|424:152|415:191,1,80.9999975280763,10|0,0:0|0:0,0:0:0:0:
227,102,30491,6,0,P|268:94|306:86,1,80.9999975280763,2|0,0:0|1:0,0:0:0:0:
415,297,30825,2,0,P|379:290|334:281,1,80.9999975280763,10|0,0:0|0:0,0:0:0:0:
110,235,31158,6,0,P|55:291|68:369,1,161.999995056153,2|8,1:2|0:0,0:0:0:0:
204,274,31658,1,2,1:2:0:0:
94,133,31825,1,2,0:0:0:0:
222,297,31991,1,2,1:2:0:0:
349,87,32158,2,0,P|356:126|363:166,1,80.9999975280763,10|2,0:0|0:0,0:0:0:0:
396,193,32408,1,2,0:0:0:0:
396,193,32491,6,0,P|356:185|316:178,1,80.9999975280763,2|2,1:3|0:0,0:0:0:0:
141,286,32825,1,10,0:0:0:0:
264,375,32991,2,0,P|278:297|231:234,1,161.999995056153,2|2,1:2|1:2,0:0:0:0:
49,344,33491,1,10,0:0:0:0:
124,206,33658,2,0,L|139:285,1,80.9999975280763,2|4,0:0|0:1,0:0:0:0:
223,86,33991,5,0,1:0:0:0:
28,185,34158,1,8,0:0:0:0:
248,270,34325,1,2,0:0:0:0:
248,270,34408,1,2,0:0:0:0:
248,270,34491,1,0,1:0:0:0:
136,50,34658,1,8,0:3:0:0:
58,219,34825,1,4,0:3:0:0:
204,129,34991,1,4,0:3:0:0:
43,9,35158,6,0,P|35:48|27:92,1,80.9999975280763,12|0,0:1|0:0,0:0:0:0:
156,215,35491,1,2,0:2:0:0:
245,88,35658,1,2,0:2:0:0:
264,84,35741,1,0,0:0:0:0:
284,79,35825,2,0,P|292:118|300:162,1,80.9999975280763,10|2,0:2|0:2,0:0:0:0:
427,298,36158,1,2,0:2:0:0:
470,141,36325,1,0,0:0:0:0:
325,257,36491,6,0,P|284:259|247:245,1,80.9999975280763,10|0,0:2|0:0,0:0:0:0:
158,77,36825,1,2,0:2:0:0:
41,214,36992,1,0,0:0:0:0:
59,223,37075,1,0,0:0:0:0:
77,232,37158,2,0,P|116:223|155:214,1,80.9999975280763,10|0,0:2|0:0,0:0:0:0:
309,92,37491,1,2,0:2:0:0:
247,245,37658,1,0,0:0:0:0:
122,58,37825,6,0,P|113:97|104:136,1,80.9999975280763,10|0,0:2|0:0,0:0:0:0:
0,251,38158,1,2,0:2:0:0:
19,246,38241,1,0,0:0:0:0:
39,241,38324,1,2,0:2:0:0:
59,237,38408,1,0,0:0:0:0:
78,232,38491,2,0,P|87:271|96:310,1,80.9999975280763,10|0,0:2|0:0,0:0:0:0:
223,167,38825,2,0,P|184:158|145:149,1,80.9999975280763,2|0,0:2|0:0,0:0:0:0:
237,332,39158,6,0,P|277:331|312:311,1,80.9999975280763,10|0,0:2|0:0,0:0:0:0:
403,160,39491,1,2,0:2:0:0:
391,176,39574,1,0,0:0:0:0:
383,195,39657,1,0,0:0:0:0:
380,215,39741,1,0,0:0:0:0:
382,235,39825,2,0,P|421:244|460:253,1,80.9999975280763,10|0,0:2|0:0,0:0:0:0:
318,109,40158,1,2,0:2:0:0:
254,254,40325,1,2,0:2:0:0:
132,101,40491,6,0,P|123:140|114:179,1,80.9999975280763,14|0,0:2|0:0,0:0:0:0:
16,348,40825,1,0,0:0:0:0:
157,269,40991,1,2,0:2:0:0:
0,206,41158,1,10,0:2:0:0:
114,358,41325,1,2,0:2:0:0:
172,172,41491,1,2,0:2:0:0:
152,170,41574,1,0,0:0:0:0:
132,173,41657,1,2,0:2:0:0:
114,180,41741,1,0,0:0:0:0:
98,192,41825,6,0,P|89:231|80:270,1,80.9999975280763,10|0,0:2|0:0,0:0:0:0:
245,379,42158,2,0,P|236:340|227:301,1,80.9999975280763,2|0,0:2|0:0,0:0:0:0:
395,172,42491,1,10,0:2:0:0:
340,319,42658,1,0,0:0:0:0:
209,198,42825,2,0,P|248:207|287:216,1,80.9999975280763,2|0,0:2|0:0,0:0:0:0:
144,284,43158,5,10,0:2:0:0:
269,107,43325,1,0,0:0:0:0:
340,319,43491,1,0,0:0:0:0:
179,175,43658,1,2,0:2:0:0:
399,78,43825,1,10,0:2:0:0:
268,231,43991,1,2,0:2:0:0:
248,32,44158,1,2,0:2:0:0:
260,49,44241,1,0,0:0:0:0:
268,67,44325,1,0,0:0:0:0:
271,87,44408,1,0,0:0:0:0:
269,107,44491,6,0,P|229:97|190:89,1,80.9999975280763,10|0,0:2|0:0,0:0:0:0:
54,274,44825,2,0,P|93:264|132:256,1,80.9999975280763,2|0,0:2|0:0,0:0:0:0:
129,5,45158,1,10,2:0:0:0:
50,173,45325,1,8,2:3:0:0:
190,89,45491,1,10,2:0:0:0:
239,281,45658,1,4,2:3:0:0:
239,281,45741,1,4,2:3:0:0:
239,281,45825,6,0,B|301:269|293:313|356:301,1,121.499996292114,12|0,2:1|0:0,0:0:0:0:
431,246,46158,2,0,L|423:206,3,40.4999987640381,10|0|0|0,0:2|0:0|0:0|0:0,0:0:0:0:
320,151,46491,2,0,L|312:190,3,40.4999987640381,10|0|0|0,0:2|0:0|0:0|0:0,0:0:0:0:
410,95,46825,2,0,L|449:87,3,40.4999987640381,10|0|0|0,0:2|0:0|0:0|0:0,0:0:0:0:
284,16,47158,6,0,L|244:8,3,40.4999987640381,10|0|0|0,0:2|0:0|0:0|0:0,0:0:0:0:
162,54,47492,1,10,0:2:0:0:
151,71,47575,1,0,0:0:0:0:
145,90,47658,1,0,0:0:0:0:
143,110,47742,1,0,0:0:0:0:
146,130,47825,2,0,P|156:155|162:182,3,40.4999987640381,10|0|0|0,0:2|0:0|0:0|0:0,0:0:0:0:
112,251,48158,1,10,0:2:0:0:
91,247,48241,1,0,0:0:0:0:
71,244,48324,1,0,0:0:0:0:
51,241,48408,1,0,0:0:0:0:
31,238,48491,6,0,P|21:263|15:290,3,40.4999987640381,10|0|0|0,0:2|0:0|0:0|0:0,0:0:0:0:
73,358,48825,2,0,L|112:350,3,40.4999987640381,8|0|0|0,0:2|0:0|0:0|0:0,0:0:0:0:
210,262,49158,2,0,L|249:269,3,40.4999987640381,10|0|0|0,0:2|0:0|0:0|0:0,0:0:0:0:
390,347,49491,2,0,L|382:307,3,40.4999987640381,8|0|0|0,0:2|0:0|0:0|0:0,0:0:0:0:
360,205,49825,5,10,0:2:0:0:
372,176,49908,1,0,0:0:0:0:
394,155,49991,1,0,0:0:0:0:
422,142,50075,1,0,0:0:0:0:
452,139,50158,1,8,0:2:0:0:
481,146,50241,1,0,0:0:0:0:
506,164,50325,2,0,L|498:204,1,40.4999987640381,2|0,0:2|0:0,0:0:0:0:
421,356,50491,5,10,2:0:0:0:
275,205,50658,1,10,2:0:0:0:
275,205,50741,1,8,2:0:0:0:
275,205,50825,2,0,P|266:250|258:293,1,90,4|2,1:2|0:0,0:0:0:0:
39,307,51158,6,0,P|65:251|178:235,1,180,4|10,1:0|0:0,0:0:0:0:
318,380,51658,1,2,0:0:0:0:
431,177,51825,2,0,P|455:213|459:258,1,90,2|8,1:2|0:0,0:0:0:0:
297,119,52158,1,2,0:0:0:0:
488,41,52325,1,2,1:2:0:0:
357,250,52491,6,0,L|266:234,1,90,2|0,0:0|1:0,0:0:0:0:
380,27,52825,2,0,L|395:115,1,90,14|0,0:0|0:0,0:0:0:0:
168,216,53158,1,2,1:2:0:0:
297,119,53325,1,0,1:0:0:0:
283,322,53491,2,0,L|268:234,1,90,10|0,0:0|0:0,0:0:0:0:
75,111,53825,6,0,P|32:147|36:225,1,135,14|0,0:0|0:0,0:0:0:0:
104,285,54158,1,10,1:2:0:0:
209,72,54325,1,8,1:2:0:0:
283,322,54491,5,10,1:2:0:0:
75,111,54658,1,8,1:2:0:0:
399,8,54825,1,10,1:2:0:0:
154,339,54991,1,8,1:2:0:0:
118,5,55158,5,10,1:2:0:0:
451,290,55325,1,10,1:2:0:0:
98,353,55991,5,8,1:3:0:0:
232,159,56158,2,0,P|167:163|131:218,1,135,8|0,0:0|0:0,0:0:0:0:
189,304,56491,6,0,L|295:322,1,107.999996704102,6|0,1:2|0:0,0:0:0:0:
448,122,56825,2,0,L|341:140,1,107.999996704102,8|0,0:0|0:0,0:0:0:0:
500,276,57158,1,0,1:0:0:0:
391,26,57325,1,8,0:0:0:0:
274,219,57491,2,0,P|320:244|373:240,1,107.999996704102,2|0,0:0|1:0,0:0:0:0:
218,75,57825,5,2,0:0:0:0:
125,281,57991,1,0,1:0:0:0:
341,140,58158,2,0,L|322:33,1,107.999996704102,10|0,0:0|0:0,0:0:0:0:
135,161,58491,1,2,0:0:0:0:
373,240,58658,1,0,1:0:0:0:
202,349,58825,2,0,L|220:242,1,107.999996704102,10|0,0:0|0:0,0:0:0:0:
450,171,59158,6,0,P|475:217|471:270,1,107.999996704102,4|0,1:0|0:0,0:0:0:0:
256,100,59491,2,0,P|283:54|331:31,1,107.999996704102,10|0,0:0|0:0,0:0:0:0:
276,272,59825,1,2,1:2:0:0:
135,66,59991,1,8,0:0:0:0:
354,133,60158,2,0,L|372:239,1,107.999996704102,2|0,0:0|1:0,0:0:0:0:
150,332,60491,6,0,L|168:225,1,107.999996704102,2|0,0:1|1:0,0:0:0:0:
37,35,60825,2,0,P|33:88|58:134,1,107.999996704102,10|0,0:0|0:0,0:0:0:0:
267,192,61158,1,2,0:0:0:0:
135,66,61325,1,0,1:0:0:0:
55,291,61491,2,0,L|161:272,1,107.999996704102,10|0,0:0|0:0,0:0:0:0:
461,316,61825,6,0,P|483:213|417:133,1,215.999993408203,6|8,1:2|0:0,0:0:0:0:
186,79,62325,1,2,0:0:0:0:
368,243,62491,1,2,1:2:0:0:
316,16,62658,2,0,L|297:122,1,107.999996704102,8|2,0:0|0:1,0:0:0:0:
161,272,62991,1,0,1:0:0:0:
71,58,63158,5,2,0:0:0:0:
267,221,63325,1,0,1:0:0:0:
45,332,63491,2,0,L|63:225,1,107.999996704102,10|0,0:0|0:0,0:0:0:0:
297,122,63825,1,2,0:0:0:0:
115,19,63991,1,0,1:0:0:0:
267,221,64158,2,0,P|320:225|367:200,1,107.999996704102,10|0,0:0|0:0,0:0:0:0:
103,55,64491,6,0,B|64:184|64:184|77:229|121:241,1,215.999993408203,4|8,1:0|0:0,0:0:0:0:
316,89,64991,1,2,0:0:0:0:
384,310,65158,1,2,1:2:0:0:
218,121,65325,1,8,0:0:0:0:
155,377,65491,1,2,0:1:0:0:
327,197,65658,1,0,1:0:0:0:
88,179,65825,5,12,0:1:0:0:
384,310,65991,1,0,1:0:0:0:
229,40,66158,2,0,L|210:146,1,107.999996704102,12|0,0:0|0:0,0:0:0:0:
155,377,66491,5,8,1:3:0:0:
315,253,66658,1,8,0:0:0:0:
354,243,66741,1,8,0:0:0:0:
393,251,66824,1,8,0:0:0:0:
425,275,66907,1,8,0:0:0:0:
444,311,66991,2,0,L|434:364,1,53.9999983520508,8|8,0:0|0:0,0:0:0:0:
214,289,67158,6,0,L|233:183,1,107.999996704102,6|0,1:2|0:0,0:0:0:0:
434,89,67491,2,0,L|453:195,1,107.999996704102,8|0,0:0|0:0,0:0:0:0:
280,91,67825,1,0,1:0:0:0:
508,18,67991,1,8,0:0:0:0:
361,241,68158,2,0,P|308:245|261:220,1,107.999996704102,2|0,0:0|1:0,0:0:0:0:
159,49,68491,5,2,0:0:0:0:
101,272,68658,1,0,1:0:0:0:
330,142,68825,2,0,L|311:36,1,107.999996704102,10|0,0:0|0:0,0:0:0:0:
162,188,69158,1,2,0:0:0:0:
379,246,69325,1,0,1:0:0:0:
217,366,69491,2,0,L|236:260,1,107.999996704102,10|0,0:0|0:0,0:0:0:0:
456,177,69825,6,0,P|481:224|477:277,1,107.999996704102,4|0,1:0|0:0,0:0:0:0:
289,135,70158,2,0,P|285:81|310:34,1,107.999996704102,10|0,0:0|0:0,0:0:0:0:
379,246,70491,1,2,1:2:0:0:
151,154,70658,1,8,0:0:0:0:
387,104,70825,2,0,L|493:85,1,107.999996704102,2|0,0:0|1:0,0:0:0:0:
365,282,71158,6,0,L|259:263,1,107.999996704102,2|0,0:1|1:0,0:0:0:0:
184,55,71491,2,0,P|229:83|252:131,1,107.999996704102,10|0,0:0|0:0,0:0:0:0:
101,331,71825,1,2,1:2:0:0:
151,154,71991,1,8,0:3:0:0:
365,282,72158,2,0,L|384:176,1,107.999996704102,10|0,0:0|0:0,0:0:0:0:
193,311,72491,6,0,B|57:341|57:341|23:316|32:273,1,215.999993408203,6|8,1:2|0:0,0:0:0:0:
190,154,72991,1,2,0:0:0:0:
288,352,73158,1,2,1:2:0:0:
69,176,73325,2,0,L|88:70,1,107.999996704102,8|2,0:0|0:1,0:0:0:0:
267,231,73658,1,2,1:2:0:0:
32,273,73825,5,2,0:0:0:0:
222,109,73991,1,0,1:0:0:0:
300,330,74158,2,0,P|246:334|199:309,1,107.999996704102,10|0,0:0|0:0,0:0:0:0:
383,164,74491,1,2,1:2:0:0:
455,374,74658,1,0,1:0:0:0:
267,231,74825,2,0,L|286:125,1,107.999996704102,10|0,0:0|0:0,0:0:0:0:
88,8,75158,6,0,B|45:21|28:50|28:50|78:181,1,215.999993408203,6|8,1:2|0:0,0:0:0:0:
299,329,75658,1,0,0:0:0:0:
183,124,75825,1,2,1:2:0:0:
107,347,75991,1,8,0:0:0:0:
308,173,76158,1,2,0:1:0:0:
58,72,76325,2,0,L|67:125,1,53.9999983520508,2|2,1:2|0:0,0:0:0:0:
226,282,76491,5,2,0:0:0:0:
319,26,76658,1,0,1:0:0:0:
381,321,76825,5,12,0:0:0:0:
218,88,76991,1,0,1:0:0:0:
126,375,77158,5,8,0:3:0:0:
322,146,77325,1,0,1:0:0:0:
11,98,77491,1,12,0:1:0:0:
226,282,77658,1,2,0:0:0:0:
134,17,77825,6,0,L|116:114,1,99.0000030212403,6|2,1:2|0:2,0:0:0:0:
24,297,78158,1,10,0:0:0:0:
212,176,78325,1,2,0:0:0:0:
11,98,78491,1,2,1:2:0:0:
153,294,78658,1,2,0:0:0:0:
244,64,78825,1,8,0:0:0:0:
91,189,78991,1,2,0:0:0:0:
319,287,79158,6,0,L|301:190,1,99.0000030212403,2|0,1:2|0:0,0:0:0:0:
488,87,79491,2,0,L|470:184,1,99.0000030212403,10|0,0:0|1:0,0:0:0:0:
242,99,79825,1,2,0:0:0:0:
422,5,79991,1,2,1:2:0:0:
300,189,80158,1,8,0:0:0:0:
177,6,80325,1,2,0:0:0:0:
79,224,80491,6,0,P|118:233|185:158,1,148.50000453186,6|0,1:2|0:0,0:0:0:0:
114,88,80825,1,10,0:0:0:0:
339,9,80991,2,0,L|321:106,1,99.0000030212403,4|0,1:0|0:0,0:0:0:0:
177,6,81325,1,2,1:2:0:0:
432,78,81491,6,0,B|462:197|462:197|440:230|397:229,1,198.000006042481,14|2,0:0|0:1,0:0:0:0:
209,156,81991,1,0,1:0:0:0:
266,347,82158,1,8,0:0:0:0:
327,134,82325,1,2,0:0:0:0:
172,282,82491,1,2,1:2:0:0:
359,372,82658,1,2,1:2:0:0:
225,179,82825,2,0,L|128:161,1,99.0000030212403,10|0,0:0|0:0,0:0:0:0:
399,59,83158,6,0,P|424:100|429:149,1,99.0000030212403,6|0,1:2|0:0,0:0:0:0:
305,354,83491,2,0,L|287:257,1,99.0000030212403,10|0,1:0|0:0,0:0:0:0:
176,89,83825,1,2,1:2:0:0:
86,287,83991,1,2,0:0:0:0:
271,154,84158,2,0,P|319:158|361:184,1,99.0000030212403,10|0,0:1|0:0,0:0:0:0:
202,361,84491,6,0,L|184:264,1,99.0000030212403,0|0,1:0|0:0,0:0:0:0:
25,116,84825,2,0,L|7:213,1,99.0000030212403,10|0,0:1|0:0,0:0:0:0:
211,45,85158,1,2,1:2:0:0:
286,256,85325,1,0,1:0:0:0:
113,168,85491,2,0,L|259:140,1,148.50000453186,10|0,0:0|0:0,0:0:0:0:
359,117,85825,5,14,1:2:0:0:
359,117,86158,5,10,1:2:0:0:
232,372,86325,1,8,1:2:0:0:
211,45,86491,5,10,1:2:0:0:
371,312,86658,1,8,1:2:0:0:
417,2,86825,5,10,1:2:0:0:
232,372,86991,1,10,1:2:0:0:
148,169,87158,6,0,L|254:189,1,108,2|2,0:0|0:0,0:0:0:0:
391,75,87825,2,0,P|347:76|312:103,1,90,2|0,0:0|0:0,0:0:0:0:
