osu file format v14

[General]
AudioFilename: audio.mp3
AudioLeadIn: 0
PreviewTime: 55741
Countdown: 0
SampleSet: Soft
StackLeniency: 0.5
Mode: 0
LetterboxInBreaks: 0
WidescreenStoryboard: 0

[Editor]
DistanceSpacing: 0.4
BeatDivisor: 4
GridSize: 32
TimelineZoom: 2.1

[Metadata]
Title:Shout Baby (TV Size)
TitleUnicode:Shout Baby (TV Size)
Artist:Ryokuoushoku Shakai
ArtistUnicode:緑黄色社会
Creator:A r M i N
Version:Hazu's Insane
Source:僕のヒーローアカデミア
Tags:ryokushaka ending boku no j-pop jpop j pop エンディングテーマ ED theme 長屋 晴子 小林 壱誓 peppe 穴見 真吾 my hero academia japanese anime Armin A_r_M_i_N Smoke Doormat Hazu- Grindle SINGALONG
BeatmapID:2419383
BeatmapSetID:1159397

[Difficulty]
HPDrainRate:5
CircleSize:4.2
OverallDifficulty:7
ApproachRate:9
SliderMultiplier:1.6
SliderTickRate:1

[Events]
//Background and Video events
0,0,"thumb-1920-1061275.png",0,0
//Break Periods
//Storyboard Layer 0 (Background)
//Storyboard Layer 1 (Fail)
//Storyboard Layer 2 (Pass)
//Storyboard Layer 3 (Foreground)
//Storyboard Layer 4 (Overlay)
//Storyboard Sound Samples

[TimingPoints]
492,333.333333333333,4,2,1,70,1,0
3158,-100,4,2,1,70,0,0
13825,-125,4,2,2,60,0,0
16408,-125,4,2,2,5,0,0
16491,-125,4,2,2,60,0,0
21741,-125,4,2,2,5,0,0
21825,-125,4,2,2,60,0,0
27075,-125,4,2,2,5,0,0
27158,-125,4,2,2,60,0,0
29741,-125,4,2,2,5,0,0
29825,-125,4,2,2,60,0,0
35158,-111.111111111111,4,3,3,60,0,0
45825,-111.111111111111,4,3,3,70,0,0
50825,-100,4,2,1,70,0,0
51158,-100,4,2,2,75,0,0
53825,-100,4,2,1,80,0,0
55825,-100,4,2,1,65,0,0
56408,-100,4,2,1,5,0,0
56491,-90.9090909090909,4,2,1,80,0,1
66658,-90.9090909090909,4,2,1,80,0,0
67158,-90.9090909090909,4,2,1,80,0,1
77825,-90.9090909090909,4,2,1,75,0,0
85741,-90.9090909090909,4,2,1,5,0,0
85825,-90.9090909090909,4,2,1,80,0,1
86991,-90.9090909090909,4,2,1,80,0,0
87158,-133.333333333333,4,2,1,60,0,0

[Colours]
Combo1 : 225,209,100
Combo2 : 169,52,67
Combo3 : 202,190,203
Combo4 : 60,117,85

[HitObjects]
256,192,492,12,8,2825,0:0:0:0:
161,115,3158,6,0,P|176:186|197:286,1,160,4|8,1:2|0:0,0:0:0:0:
281,320,3658,1,2,1:2:0:0:
99,370,3825,2,0,P|105:331|115:267,1,80,2|2,0:0|1:2,0:0:0:0:
269,206,4158,5,12,0:0:0:0:
269,206,4325,2,0,P|303:198|373:184,1,80,2|0,0:0|1:0,0:0:0:0:
213,119,4658,2,0,P|179:111|109:97,1,80,2|8,0:0|0:0,0:0:0:0:
16,200,4991,2,0,P|92:190|143:247,1,160,2|2,0:0|1:2,0:0:0:0:
179,360,5491,1,10,0:0:0:0:
84,313,5658,1,2,0:0:0:0:
227,273,5825,6,0,B|309:255|302:339|380:318,1,160,4|10,1:2|0:0,0:0:0:0:
463,277,6325,1,2,1:2:0:0:
350,152,6491,2,0,P|359:196|373:261,1,80,2|2,0:0|1:2,0:0:0:0:
393,63,6825,5,12,0:0:0:0:
393,63,6991,2,0,B|348:51|348:51|298:67,1,80,2|0,0:0|1:0,0:0:0:0:
197,135,7325,2,0,B|242:147|242:147|292:131,1,80,2|8,0:0|0:0,0:0:0:0:
101,57,7658,2,0,P|114:112|137:217,1,160,2|2,0:0|1:2,0:0:0:0:
133,328,8158,1,10,0:0:0:0:
216,253,8325,1,2,0:0:0:0:
48,208,8491,6,0,P|9:270|47:365,1,160,4|10,1:2|0:0,0:0:0:0:
126,377,8991,1,2,1:2:0:0:
223,245,9158,2,0,P|186:253|124:267,1,80,2|0,0:0|1:0,0:0:0:0:
290,373,9491,5,12,0:0:0:0:
290,373,9658,2,0,P|300:329|313:270,1,80,2|0,0:0|1:0,0:0:0:0:
377,176,9991,2,0,P|385:215|394:254,1,80,2|8,0:0|0:0,0:0:0:0:
444,97,10325,2,0,B|402:69|402:69|286:95,1,160,2|2,0:0|1:2,0:0:0:0:
182,159,10825,1,10,0:0:0:0:
286,190,10991,1,2,0:0:0:0:
182,319,11158,6,0,P|190:279|199:240,1,80,4|2,1:2|0:0,0:0:0:0:
83,159,11491,2,0,P|91:198|100:237,1,80,10|2,0:0|1:2,0:0:0:0:
160,91,11825,1,2,0:3:0:0:
160,91,11991,1,2,1:2:0:0:
17,56,12158,6,0,P|9:95|0:134,1,80,14|2,0:0|0:0,0:0:0:0:
140,192,12491,2,0,P|101:201|58:210,1,80,2|2,0:3|0:3,0:0:0:0:
176,101,12825,2,0,P|215:109|254:118,1,80,10|2,0:0|0:0,0:0:0:0:
343,183,13158,1,10,3:0:0:0:
263,95,13325,1,10,3:2:0:0:
262,248,13491,1,2,1:2:0:0:
390,114,13658,1,10,3:2:0:0:
210,170,13825,6,0,P|157:185|70:205,1,128,4|8,1:0|0:0,0:0:0:0:
38,316,14325,1,2,0:0:0:0:
124,281,14491,2,0,P|159:288|201:297,1,64,2|0,0:0|1:0,0:0:0:0:
258,356,14825,1,8,0:0:0:0:
381,200,15158,6,0,P|330:156|270:169,1,128,0|10,1:0|0:0,0:0:0:0:
212,271,15658,1,0,1:0:0:0:
212,271,15825,2,0,P|247:263|298:252,1,64,2|0,0:0|1:0,0:0:0:0:
177,181,16158,2,0,P|133:173|70:162,1,96,14|0,0:0|0:0,0:0:0:0:
56,140,16491,6,0,P|76:233|88:288,1,128,2|8,1:2|0:0,0:0:0:0:
148,353,16991,1,0,0:0:0:0:
148,353,17158,2,0,P|156:317|167:266,1,64,2|0,0:0|1:0,0:0:0:0:
238,372,17491,1,8,0:0:0:0:
83,186,17825,6,0,P|139:198|234:217,1,128,0|10,1:0|0:0,0:0:0:0:
346,241,18325,1,0,1:0:0:0:
266,289,18491,2,0,P|273:320|279:351,1,64,2|0,0:0|1:0,0:0:0:0:
366,363,18825,1,10,0:0:0:0:
162,302,19158,6,0,P|175:225|189:148,1,128,4|8,1:0|0:0,0:0:0:0:
264,118,19658,1,2,0:0:0:0:
122,38,19825,2,0,P|128:66|138:117,1,64,2|0,0:0|1:0,0:0:0:0:
64,216,20158,1,8,0:0:0:0:
108,123,20325,1,2,0:0:0:0:
195,243,20491,6,0,P|263:230|320:218,1,128,2|10,1:2|0:0,0:0:0:0:
410,139,20991,1,0,1:0:0:0:
410,139,21158,2,0,P|378:132|347:126,1,64,2|0,0:0|1:0,0:0:0:0:
274,59,21491,2,0,P|238:35|176:47,1,96,14|0,0:0|0:0,0:0:0:0:
158,64,21825,6,0,P|169:124|186:213,1,128,2|8,1:2|0:0,0:0:0:0:
111,298,22325,1,2,0:0:0:0:
204,270,22491,2,0,P|237:277|289:289,1,64,2|2,0:0|1:2,0:0:0:0:
347,234,22825,2,0,P|315:241|284:247,1,64,10|2,0:0|0:0,0:0:0:0:
420,296,23158,6,0,P|447:242|418:171,1,128,2|10,1:2|0:0,0:0:0:0:
321,137,23658,1,0,1:0:0:0:
321,137,23825,2,0,P|330:173|340:220,1,64,2|0,0:0|1:0,0:0:0:0:
399,82,24158,1,10,0:0:0:0:
308,33,24325,5,2,0:0:0:0:
308,33,24408,1,2,0:0:0:0:
308,33,24491,2,0,P|255:23|162:5,1,128,4|8,1:0|0:0,0:0:0:0:
104,66,24991,2,0,P|121:130|142:216,1,128,2|2,0:0|1:2,0:0:0:0:
88,274,25491,1,10,0:0:0:0:
250,217,25825,6,0,P|256:185|263:147,1,64,2|0,1:2|0:0,0:0:0:0:
282,37,26158,1,10,0:0:0:0:
361,97,26325,1,0,1:0:0:0:
361,97,26491,2,0,P|366:128|372:159,1,64,2|0,0:0|1:0,0:0:0:0:
465,168,26824,2,0,P|473:120|482:73,1,96,12|0,0:0|0:0,0:0:0:0:
471,43,27158,6,0,P|436:10|340:31,1,128,2|8,1:2|0:0,0:0:0:0:
261,87,27658,1,2,0:0:0:0:
350,121,27825,2,0,P|359:161|368:209,1,64,2|0,0:0|1:0,0:0:0:0:
260,254,28158,5,8,0:0:0:0:
260,254,28325,2,0,P|267:222|273:191,1,64,2|0,0:0|1:0,0:0:0:0:
373,341,28658,2,0,P|337:333|301:325,1,64,2|8,1:2|0:0,0:0:0:0:
441,237,28991,2,0,P|455:291|476:377,1,128,2|2,1:2|1:2,0:0:0:0:
347,247,29491,2,0,P|332:200|362:147,1,96,12|0,0:0|0:0,0:0:0:0:
374,151,29825,5,4,1:0:0:0:
267,304,30158,2,0,P|201:316|130:328,1,128,10|2,0:0|0:0,0:0:0:0:
42,343,30658,1,0,1:0:0:0:
42,343,30825,2,0,P|73:349|124:361,1,64,10|0,0:0|0:0,0:0:0:0:
213,226,31158,6,0,P|169:183|99:198,1,128,2|8,1:2|0:0,0:0:0:0:
16,266,31658,1,2,1:2:0:0:
124,335,31825,2,0,P|117:300|111:272,1,64,2|2,0:0|1:2,0:0:0:0:
42,360,32158,1,10,0:0:0:0:
211,370,32325,5,2,0:0:0:0:
211,370,32408,1,2,0:0:0:0:
211,370,32491,2,0,P|217:336|223:307,1,64,2|2,1:3|0:0,0:0:0:0:
310,266,32825,1,10,0:0:0:0:
154,233,32991,2,0,P|137:172|166:117,1,128,2|2,1:2|1:2,0:0:0:0:
259,56,33491,1,10,0:0:0:0:
325,162,33658,6,0,P|286:152|242:143,1,64,2|4,0:0|0:1,0:0:0:0:
392,50,33991,1,0,1:0:0:0:
392,50,34158,2,0,P|398:86|409:142,1,64,8|2,0:0|0:0,0:0:0:0:
490,255,34491,1,0,1:0:0:0:
430,189,34658,1,8,0:3:0:0:
349,188,34825,1,4,0:3:0:0:
316,208,34991,1,4,0:3:0:0:
304,224,35158,6,0,P|299:263|293:307,1,71.9999978027344,12|0,0:1|0:0,0:0:0:0:
189,352,35491,1,2,0:2:0:0:
134,242,35658,1,2,0:2:0:0:
134,242,35741,1,0,0:0:0:0:
134,242,35825,2,0,P|179:252|215:261,1,71.9999978027344,10|2,0:2|0:2,0:0:0:0:
35,308,36158,2,0,P|70:315|105:324,1,71.9999978027344,2|0,0:2|0:0,0:0:0:0:
22,154,36491,6,0,P|13:193|4:229,1,71.9999978027344,10|0,0:2|0:0,0:0:0:0:
127,148,36825,1,2,0:2:0:0:
84,59,36991,1,0,0:0:0:0:
84,59,37075,1,0,0:0:0:0:
84,59,37158,2,0,P|49:50|13:42,1,71.9999978027344,10|0,0:2|0:0,0:0:0:0:
185,19,37491,2,0,P|190:46|201:104,1,71.9999978027344,2|0,0:2|0:0,0:0:0:0:
109,217,37825,6,0,P|115:181|122:146,1,71.9999978027344,10|0,0:2|0:0,0:0:0:0:
206,229,38158,2,0,L|217:280,3,35.9999989013672,2|0|2|0,0:2|0:0|0:2|0:0,0:0:0:0:
197,282,38491,1,10,0:2:0:0:
274,334,38658,1,0,0:0:0:0:
345,269,38825,2,0,P|353:233|361:198,1,71.9999978027344,2|0,0:2|0:0,0:0:0:0:
257,98,39158,6,0,P|265:133|273:168,1,71.9999978027344,10|0,0:2|0:0,0:0:0:0:
370,51,39491,2,0,L|320:39,3,35.9999989013672,2|0|0|0,0:2|0:0|0:0|0:0,0:0:0:0:
314,25,39825,1,10,0:2:0:0:
217,11,39991,1,0,0:0:0:0:
145,80,40158,2,0,P|153:115|161:150,1,71.9999978027344,2|2,0:2|0:2,0:0:0:0:
279,228,40491,6,0,P|270:192|262:157,1,71.9999978027344,14|0,0:2|0:0,0:0:0:0:
194,279,40825,1,0,0:0:0:0:
290,327,40991,1,2,0:2:0:0:
379,266,41158,2,0,P|387:230|395:195,1,71.9999978027344,10|2,0:2|0:2,0:0:0:0:
287,119,41491,2,0,L|293:154,3,35.9999989013672,2|0|2|0,0:2|0:0|0:2|0:0,0:0:0:0:
322,167,41825,5,10,0:2:0:0:
378,87,41991,1,0,0:0:0:0:
295,31,42158,2,0,P|259:22|221:32,1,71.9999978027344,2|0,0:2|0:0,0:0:0:0:
223,176,42491,2,0,P|248:149|259:111,1,71.9999978027344,10|0,0:2|0:0,0:0:0:0:
131,40,42825,2,0,P|141:75|168:103,1,71.9999978027344,2|0,0:2|0:0,0:0:0:0:
325,23,43158,6,0,P|289:29|254:35,1,71.9999978027344,10|0,0:2|0:0,0:0:0:0:
381,125,43491,2,0,P|345:118|310:112,1,71.9999978027344,0|2,0:0|0:2,0:0:0:0:
443,214,43825,2,0,P|407:220|372:226,1,71.9999978027344,10|2,0:2|0:2,0:0:0:0:
292,330,44158,2,0,L|301:272,3,35.9999989013672,2|0|0|0,0:2|0:0|0:0|0:0,0:0:0:0:
283,275,44492,5,10,0:2:0:0:
199,235,44658,1,0,0:0:0:0:
125,300,44825,2,0,P|94:308|47:319,1,71.9999978027344,2|0,0:2|0:0,0:0:0:0:
15,201,45158,1,10,2:0:0:0:
84,138,45325,1,8,2:3:0:0:
174,144,45491,1,10,2:0:0:0:
224,232,45658,5,4,2:3:0:0:
224,232,45741,1,4,2:3:0:0:
224,232,45825,2,0,P|233:273|245:327,1,71.9999978027344,12|0,2:1|0:0,0:0:0:0:
315,213,46158,2,0,P|322:177|330:142,1,71.9999978027344,10|0,0:2|0:0,0:0:0:0:
404,50,46491,2,0,L|414:116,3,35.9999989013672,10|0|0|0,0:2|0:0|0:0|0:0,0:0:0:0:
445,112,46825,2,0,L|455:178,3,35.9999989013672,10|0|0|0,0:2|0:0|0:0|0:0,0:0:0:0:
475,188,47158,6,0,P|435:179|383:170,1,71.9999978027344,10|0,0:2|0:0,0:0:0:0:
309,272,47491,2,0,P|344:264|379:257,1,71.9999978027344,10|0,0:2|0:0,0:0:0:0:
243,185,47825,1,10,0:2:0:0:
223,176,47908,1,0,0:0:0:0:
202,171,47991,1,0,0:0:0:0:
180,172,48075,1,0,0:0:0:0:
159,177,48158,1,10,0:2:0:0:
140,187,48241,1,0,0:0:0:0:
124,201,48325,1,0,0:0:0:0:
111,218,48408,1,0,0:0:0:0:
104,238,48491,6,0,L|113:292,3,35.9999989013672,10|0|0|0,0:2|0:0|0:0|0:0,0:0:0:0:
185,313,48825,2,0,L|190:277,3,35.9999989013672,8|0|0|0,0:2|0:0|0:0|0:0,0:0:0:0:
264,231,49158,2,0,L|273:285,3,35.9999989013672,10|0|0|0,0:2|0:0|0:0|0:0,0:0:0:0:
345,306,49492,2,0,L|350:270,3,35.9999989013672,8|0|0|0,0:2|0:0|0:0|0:0,0:0:0:0:
424,218,49825,5,10,0:2:0:0:
441,200,49908,1,0,0:0:0:0:
454,178,49991,1,0,0:0:0:0:
461,154,50075,1,0,0:0:0:0:
462,129,50158,1,8,0:2:0:0:
457,104,50241,1,0,0:0:0:0:
445,82,50325,1,2,0:2:0:0:
429,63,50408,1,0,0:0:0:0:
408,48,50491,6,0,L|395:97,1,35.9999989013672,10|0,2:0|0:0,0:0:0:0:
328,24,50658,2,0,L|315:73,1,35.9999989013672,10|8,2:0|2:0,0:0:0:0:
251,175,50825,1,4,1:2:0:0:
344,140,50991,1,2,0:0:0:0:
143,96,51158,6,0,P|157:156|181:258,1,160,4|10,1:0|0:0,0:0:0:0:
260,309,51658,1,2,0:0:0:0:
84,344,51825,2,0,P|93:297|103:248,1,80,2|8,1:2|0:0,0:0:0:0:
242,165,52158,1,2,0:0:0:0:
196,255,52325,1,2,1:2:0:0:
78,130,52491,6,0,P|117:141|167:153,1,80,2|0,0:0|1:0,0:0:0:0:
260,48,52825,2,0,P|221:59|171:71,1,80,14|0,0:0|0:0,0:0:0:0:
314,141,53158,2,0,P|383:154|437:92,1,160,2|10,1:2|0:0,0:0:0:0:
174,33,53825,6,0,P|187:89|211:195,1,160,14|10,0:0|1:2,0:0:0:0:
164,276,54325,1,8,1:2:0:0:
366,233,54491,2,0,P|323:223|271:212,1,80,10|8,1:2|1:2,0:0:0:0:
369,138,54825,2,0,P|412:128|464:117,1,80,10|8,1:2|1:2,0:0:0:0:
272,85,55158,5,10,1:2:0:0:
375,286,55325,1,10,1:2:0:0:
479,172,55991,5,8,1:3:0:0:
443,188,56158,2,0,P|391:178|303:162,1,120,8|0,0:0|0:0,0:0:0:0:
299,192,56491,6,0,P|311:246|324:304,1,88.000002685547,6|0,1:2|0:0,0:0:0:0:
215,103,56825,2,0,P|205:146|196:188,1,88.000002685547,8|0,0:0|0:0,0:0:0:0:
105,340,57158,1,0,1:0:0:0:
201,280,57325,1,8,0:0:0:0:
9,214,57491,2,0,P|18:256|28:299,1,88.000002685547,2|0,0:0|1:0,0:0:0:0:
163,158,57825,6,0,P|120:148|76:139,1,88.000002685547,2|0,0:0|1:0,0:0:0:0:
209,268,58158,2,0,P|263:204|345:220,1,176.000005371094,10|2,0:0|0:0,0:0:0:0:
423,292,58658,1,0,1:0:0:0:
473,135,58825,2,0,P|486:182|499:232,1,88.000002685547,10|0,0:0|0:0,0:0:0:0:
295,101,59158,6,0,P|338:92|380:82,1,88.000002685547,4|0,1:0|0:0,0:0:0:0:
251,195,59491,2,0,P|208:185|165:176,1,88.000002685547,10|0,0:0|0:0,0:0:0:0:
62,24,59825,1,2,1:2:0:0:
166,79,59991,1,8,0:0:0:0:
39,191,60158,2,0,P|25:149|38:108,1,88.000002685547,2|0,0:0|1:0,0:0:0:0:
145,252,60491,6,0,B|238:239|215:339|319:308,1,176.000005371094,2|10,0:1|0:0,0:0:0:0:
419,206,60991,1,0,0:0:0:0:
270,119,61158,2,0,P|280:162|293:223,1,88.000002685547,2|0,0:0|1:0,0:0:0:0:
376,108,61491,2,0,P|385:64|395:22,1,88.000002685547,10|0,0:0|0:0,0:0:0:0:
203,19,61825,6,0,P|153:77|185:179,1,176.000005371094,6|8,1:2|0:0,0:0:0:0:
327,231,62325,1,2,0:0:0:0:
266,140,62491,1,2,1:2:0:0:
146,275,62658,2,0,P|200:263|250:253,1,88.000002685547,8|2,0:0|0:1,0:0:0:0:
79,344,62991,1,0,1:0:0:0:
15,188,63158,6,0,P|1:230|26:287,1,88.000002685547,2|0,0:0|1:0,0:0:0:0:
107,135,63491,2,0,P|178:151|289:177,1,176.000005371094,10|2,0:0|0:0,0:0:0:0:
436,125,63991,1,0,1:0:0:0:
321,23,64158,2,0,P|329:66|340:108,1,88.000002685547,10|0,0:0|0:0,0:0:0:0:
424,259,64491,6,0,P|366:197|283:213,1,176.000005371094,4|8,1:0|0:0,0:0:0:0:
168,344,64991,1,2,0:0:0:0:
280,297,65158,1,2,1:2:0:0:
152,172,65325,2,0,P|160:216|171:276,1,88.000002685547,8|2,0:0|0:1,0:0:0:0:
250,130,65658,1,0,1:0:0:0:
76,91,65825,6,0,P|68:135|57:195,1,88.000002685547,12|0,0:1|1:0,0:0:0:0:
237,46,66158,2,0,P|193:37|150:30,1,88.000002685547,12|0,0:0|0:0,0:0:0:0:
312,148,66491,2,0,L|300:95,1,44.0000013427735,8|8,1:3|0:3,0:0:0:0:
369,53,66658,1,8,0:0:0:0:
399,69,66741,1,8,0:0:0:0:
423,95,66824,1,8,0:0:0:0:
436,128,66907,1,8,0:0:0:0:
438,163,66991,1,8,0:0:0:0:
429,196,67074,1,8,0:0:0:0:
409,225,67158,6,0,B|316:212|339:312|235:281,1,176.000005371094,6|8,1:2|0:0,0:0:0:0:
166,171,67658,2,0,P|224:159|266:188,1,88.000002685547,0|0,0:0|1:0,0:0:0:0:
119,278,67991,1,8,0:0:0:0:
16,147,68158,2,0,P|26:189|36:232,1,88.000002685547,2|0,0:0|1:0,0:0:0:0:
168,90,68491,6,0,P|124:81|81:72,1,88.000002685547,2|0,0:0|1:0,0:0:0:0:
270,217,68825,2,0,P|308:143|258:58,1,176.000005371094,10|2,0:0|0:0,0:0:0:0:
172,12,69325,1,0,1:0:0:0:
49,130,69491,2,0,P|94:119|151:104,1,88.000002685547,10|0,0:0|0:0,0:0:0:0:
270,217,69825,6,0,P|225:206|168:191,1,88.000002685547,4|0,1:0|0:0,0:0:0:0:
325,66,70158,2,0,P|339:127|351:180,1,88.000002685547,10|0,0:0|0:0,0:0:0:0:
389,298,70491,1,2,1:2:0:0:
434,194,70658,1,8,0:0:0:0:
293,240,70825,2,0,P|283:282|273:325,1,88.000002685547,2|0,0:0|1:0,0:0:0:0:
161,215,71158,6,0,P|123:139|187:48,1,176.000005371094,2|10,0:1|0:0,0:0:0:0:
272,14,71658,1,0,0:0:0:0:
347,136,71825,2,0,P|296:122|255:113,1,88.000002685547,2|8,1:2|0:3,0:0:0:0:
392,44,72158,2,0,P|434:34|477:22,1,88.000002685547,10|0,0:0|0:0,0:0:0:0:
499,219,72491,6,0,P|447:147|357:171,1,176.000005371094,6|8,1:2|0:0,0:0:0:0:
280,303,72991,1,2,0:0:0:0:
378,252,73158,1,2,1:2:0:0:
225,217,73325,2,0,P|172:206|116:193,1,88.000002685547,8|2,0:0|0:1,0:0:0:0:
46,253,73658,1,2,1:2:0:0:
98,100,73825,6,0,P|151:89|207:76,1,88.000002685547,2|0,0:0|1:0,0:0:0:0:
355,37,74158,2,0,P|342:100|314:229,1,176.000005371094,10|2,0:0|1:2,0:0:0:0:
266,60,74658,1,0,1:0:0:0:
423,146,74825,2,0,P|434:193|446:251,1,88.000002685547,10|0,0:0|0:0,0:0:0:0:
342,341,75158,6,0,P|296:276|207:289,1,176.000005371094,6|8,1:2|0:0,0:0:0:0:
47,369,75658,1,0,0:0:0:0:
121,248,75825,1,2,1:2:0:0:
221,382,75991,2,0,P|179:371|127:358,1,88.000002685547,8|2,0:0|0:1,0:0:0:0:
257,289,76325,1,0,1:0:0:0:
373,383,76491,6,0,P|360:334|342:268,1,88.000002685547,2|0,0:0|1:0,0:0:0:0:
467,208,76825,2,0,P|454:257|436:323,1,88.000002685547,12|0,0:0|1:0,0:0:0:0:
343,120,77158,1,8,0:3:0:0:
453,84,77325,1,0,1:0:0:0:
319,129,77491,1,12,0:1:0:0:
423,166,77658,1,2,0:0:0:0:
305,28,77825,6,0,P|246:43|118:74,1,176.000005371094,6|10,1:2|0:0,0:0:0:0:
79,198,78325,1,2,0:0:0:0:
236,168,78491,1,2,1:2:0:0:
236,168,78658,2,0,P|195:160|131:148,1,88.000002685547,2|8,0:0|0:0,0:0:0:0:
248,264,78991,1,2,0:0:0:0:
322,132,79158,6,0,P|332:169|352:244,1,88.000002685547,2|0,1:2|0:0,0:0:0:0:
418,98,79491,2,0,P|352:31|261:58,1,176.000005371094,10|2,0:0|0:0,0:0:0:0:
149,112,79991,2,0,P|195:122|242:132,1,88.000002685547,2|8,1:2|0:0,0:0:0:0:
120,25,80325,1,2,0:0:0:0:
31,130,80491,6,0,P|43:181|71:307,1,176.000005371094,6|10,1:2|0:0,0:0:0:0:
241,183,80991,1,4,1:0:0:0:
241,183,81325,1,2,1:2:0:0:
126,140,81491,6,0,P|138:191|166:317,1,176.000005371094,14|2,0:0|0:1,0:0:0:0:
262,347,81991,1,0,1:0:0:0:
51,369,82158,2,0,P|62:317|74:255,1,88.000002685547,8|2,0:0|0:0,0:0:0:0:
172,189,82491,2,0,P|183:241|195:303,1,88.000002685547,2|2,1:2|1:2,0:0:0:0:
4,144,82825,2,0,P|45:136|108:120,1,88.000002685547,10|0,0:0|0:0,0:0:0:0:
316,102,83158,6,0,P|280:55|162:71,2,176.000005371094,6|10|2,1:2|1:0|1:2,0:0:0:0:
365,234,83991,1,2,0:0:0:0:
201,211,84158,2,0,P|245:199|317:178,1,88.000002685547,10|0,0:1|0:0,0:0:0:0:
128,373,84491,6,0,P|138:330|149:285,1,88.000002685547,0|0,1:0|0:0,0:0:0:0:
33,179,84825,2,0,P|43:222|54:267,1,88.000002685547,10|0,0:1|0:0,0:0:0:0:
155,127,85158,1,2,1:2:0:0:
51,76,85325,1,0,1:0:0:0:
257,47,85491,2,0,P|249:86|225:193,1,132.00000402832,10|0,0:0|0:0,0:0:0:0:
217,208,85825,6,0,P|205:146|175:2,1,176.000005371094,14|10,1:2|1:2,0:0:0:0:
108,162,86324,1,8,1:2:0:0:
284,127,86491,1,10,1:2:0:0:
83,178,86658,1,8,1:2:0:0:
267,40,86824,1,10,1:2:0:0:
299,261,86991,1,10,1:2:0:0:
160,127,87158,6,0,B|258:107|236:214|346:182,1,180.000006866455,2|2,0:0|0:0,0:0:0:0:
436,125,87825,2,0,P|388:77|303:115,1,150.000005722046,2|0,0:0|0:0,0:0:0:0:
