osu file format v14

[General]
AudioFilename: audio.mp3
AudioLeadIn: 0
PreviewTime: 55741
Countdown: 0
SampleSet: Soft
StackLeniency: 0.4
Mode: 0
LetterboxInBreaks: 0
WidescreenStoryboard: 1

[Editor]
DistanceSpacing: 1.3
BeatDivisor: 4
GridSize: 4
TimelineZoom: 1

[Metadata]
Title:Shout Baby (TV Size)
TitleUnicode:Shout Baby (TV Size)
Artist:Ryokuoushoku Shakai
ArtistUnicode:緑黄色社会
Creator:A r M i N
Version:Hard
Source:僕のヒーローアカデミア
Tags:ryokushaka ending boku no j-pop jpop j pop エンディングテーマ ED theme 長屋 晴子 小林 壱誓 peppe 穴見 真吾 my hero academia japanese anime Armin A_r_M_i_N Smoke Doormat Hazu- Grindle SINGALONG
BeatmapID:2419260
BeatmapSetID:1159397

[Difficulty]
HPDrainRate:4.5
CircleSize:3.5
OverallDifficulty:6.5
ApproachRate:8
SliderMultiplier:1.5
SliderTickRate:1

[Events]
//Background and Video events
0,0,"thumb-1920-1061275.png",0,0
//Break Periods
//Storyboard Layer 0 (Background)
//Storyboard Layer 1 (Fail)
//Storyboard Layer 2 (Pass)
//Storyboard Layer 3 (Foreground)
//Storyboard Layer 4 (Overlay)
//Storyboard Sound Samples

[TimingPoints]
492,333.333333333333,4,2,1,70,1,0
3158,-100,4,2,1,70,0,0
13825,-125,4,2,2,60,0,0
29825,-111.111111111111,4,2,2,60,0,0
35158,-111.111111111111,4,3,3,60,0,0
45825,-111.111111111111,4,3,3,70,0,0
50825,-100,4,2,1,70,0,0
51158,-100,4,2,2,75,0,0
53825,-100,4,2,1,80,0,0
55825,-100,4,2,1,65,0,0
56491,-90.9090909090909,4,2,1,80,0,1
66658,-90.9090909090909,4,2,1,80,0,0
67158,-90.9090909090909,4,2,1,80,0,1
77825,-100,4,2,1,75,0,0
85825,-90.9090909090909,4,2,1,80,0,1
86991,-100,4,2,1,80,0,0
87158,-166.666666666667,4,2,1,60,0,0

[Colours]
Combo1 : 225,209,100
Combo2 : 169,52,67
Combo3 : 202,190,203
Combo4 : 60,117,85

[HitObjects]
256,192,492,12,8,2825,0:0:0:0:
23,279,3158,6,0,P|75:329|146:317,1,150,4|8,1:2|0:0,0:0:0:0:
208,231,3658,1,2,1:2:0:0:
279,307,3825,2,0,P|269:343|262:380,1,75,2|2,0:0|1:2,0:0:0:0:
377,272,4158,1,12,0:0:0:0:
487,303,4325,6,0,P|479:266|470:229,1,75,2|0,0:0|1:0,0:0:0:0:
386,166,4658,2,0,P|393:129|402:92,1,75,2|8,0:0|0:0,0:0:0:0:
320,26,4991,2,0,B|243:6|254:70|178:51,1,150,2|2,0:0|1:2,0:0:0:0:
85,12,5491,1,10,0:0:0:0:
85,12,5658,1,2,0:0:0:0:
26,131,5825,6,0,P|40:204|53:278,1,150,4|10,1:2|0:0,0:0:0:0:
135,348,6325,1,2,1:2:0:0:
224,260,6491,2,0,P|187:253|151:244,1,75,2|2,0:0|1:2,0:0:0:0:
238,365,6825,1,12,0:0:0:0:
320,300,6991,6,0,P|329:336|336:373,1,75,2|0,0:0|1:0,0:0:0:0:
433,330,7325,2,0,P|440:293|449:256,1,75,2|8,0:0|0:0,0:0:0:0:
507,169,7658,2,0,P|455:119|384:131,1,150,2|2,0:0|1:2,0:0:0:0:
295,41,8158,1,10,0:0:0:0:
295,41,8325,1,2,0:0:0:0:
253,172,8491,6,0,B|264:224|264:224|241:261|241:261|253:313,1,150,4|10,1:2|0:0,0:0:0:0:
169,376,8991,1,2,1:2:0:0:
105,291,9158,2,0,P|113:254|120:217,1,75,2|0,0:0|1:0,0:0:0:0:
32,104,9491,1,12,0:0:0:0:
135,114,9658,6,0,P|171:105|208:98,1,75,2|0,0:0|1:0,0:0:0:0:
290,32,9991,2,0,P|326:40|363:47,1,75,2|8,0:0|0:0,0:0:0:0:
460,5,10325,2,0,P|512:55|511:128,1,150,2|2,0:0|1:2,0:0:0:0:
433,199,10825,1,10,0:0:0:0:
433,199,10991,1,2,0:0:0:0:
486,321,11158,6,0,P|449:327|412:336,1,75,4|2,1:2|0:0,0:0:0:0:
312,367,11491,2,0,P|305:330|296:293,1,75,10|2,0:0|1:2,0:0:0:0:
220,220,11825,1,2,0:3:0:0:
220,220,11991,1,2,1:2:0:0:
130,276,12158,2,0,P|93:277|59:262,1,75,14|2,0:0|0:0,0:0:0:0:
13,167,12491,6,0,P|49:158|86:151,1,75,2|2,0:3|0:3,0:0:0:0:
152,68,12825,2,0,P|188:76|225:83,1,75,10|2,0:0|0:0,0:0:0:0:
289,174,13158,1,10,3:0:0:0:
289,174,13325,1,10,3:2:0:0:
383,126,13491,1,2,1:2:0:0:
383,126,13658,1,10,3:2:0:0:
447,204,13825,6,0,P|436:263|425:323,1,120,4|8,1:0|0:0,0:0:0:0:
350,373,14325,1,2,0:0:0:0:
350,373,14491,2,0,P|321:364|291:357,1,60,2|0,0:0|1:0,0:0:0:0:
234,287,14825,2,0,P|174:297|115:308,1,120,8|0,0:0|1:0,0:0:0:0:
116,307,15491,6,0,P|122:277|127:247,1,60,10|0,0:0|1:0,0:0:0:0:
198,192,15825,2,0,P|192:162|186:132,1,60,2|0,0:0|1:0,0:0:0:0:
239,60,16158,2,0,P|282:56|323:77,1,90,14|0,0:0|0:0,0:0:0:0:
340,118,16491,6,0,P|329:176|318:235,1,120,2|8,1:2|0:0,0:0:0:0:
240,281,16991,1,0,0:0:0:0:
240,281,17158,2,0,P|232:252|224:222,1,60,2|0,0:0|1:0,0:0:0:0:
139,192,17491,2,0,P|105:228|103:297,1,120,8|0,0:0|1:0,0:0:0:0:
102,295,18158,6,0,P|130:302|159:310,1,60,10|0,0:0|1:0,0:0:0:0:
225,372,18491,2,0,P|253:364|282:356,1,60,2|0,0:0|1:0,0:0:0:0:
343,288,18825,2,0,P|341:260|330:229,1,60,10|0,0:0|0:0,0:0:0:0:
262,170,19158,6,0,P|272:111|284:52,1,120,4|8,1:0|0:0,0:0:0:0:
365,9,19658,1,2,0:0:0:0:
365,9,19825,2,0,P|393:11|424:22,1,60,2|0,0:0|1:0,0:0:0:0:
471,97,20158,2,0,P|465:127|458:158,1,60,8|2,0:0|0:0,0:0:0:0:
493,238,20491,6,0,P|447:274|389:267,1,120,2|10,1:2|0:0,0:0:0:0:
330,198,20991,1,0,1:0:0:0:
330,198,21158,2,0,P|294:205|264:212,1,60,2|0,0:0|1:0,0:0:0:0:
188,174,21491,2,0,P|167:213|164:258,1,90,14|0,0:0|0:0,0:0:0:0:
187,298,21825,6,0,P|128:286|69:275,1,120,2|8,1:2|0:0,0:0:0:0:
19,199,22325,1,2,0:0:0:0:
19,199,22491,1,2,0:0:0:0:
91,147,22658,2,0,P|85:117|78:88,1,60,2|10,1:2|0:0,0:0:0:0:
140,22,22991,6,0,B|200:9|192:54|253:42,1,120,2|2,0:0|0:0,0:0:0:0:
336,4,23491,2,0,P|345:32|349:63,1,60,10|0,0:0|1:0,0:0:0:0:
416,123,23825,2,0,P|407:150|403:181,1,60,2|0,0:0|1:0,0:0:0:0:
442,262,24158,2,0,L|382:272,1,60,10|2,0:0|0:0,0:0:0:0:
357,310,24408,1,2,0:0:0:0:
357,310,24491,6,0,L|238:290,1,120,4|8,1:0|0:0,0:0:0:0:
155,325,24991,2,0,P|124:274|133:216,1,120,2|2,0:0|1:2,0:0:0:0:
203,159,25491,1,10,0:0:0:0:
203,159,25825,6,0,P|197:127|190:95,1,60,2|0,1:2|0:0,0:0:0:0:
272,60,26158,2,0,P|278:89|283:118,1,60,10|0,0:0|1:0,0:0:0:0:
336,220,26491,2,0,P|306:213|277:208,1,60,2|0,0:0|1:0,0:0:0:0:
234,288,26825,2,0,P|263:293|292:299,1,60,12|0,0:0|0:0,0:0:0:0:
187,211,27158,6,0,P|149:256|147:314,1,120,2|8,1:2|0:0,0:0:0:0:
219,378,27658,1,2,0:0:0:0:
219,378,27825,2,0,P|248:371|277:366,1,60,2|0,0:0|1:0,0:0:0:0:
336,297,28158,1,8,0:0:0:0:
336,297,28325,6,0,P|365:302|394:308,1,60,2|0,0:0|1:0,0:0:0:0:
467,255,28658,2,0,P|477:227|477:195,1,60,2|8,1:2|0:0,0:0:0:0:
423,124,28991,2,0,P|364:111|305:100,1,120,2|2,1:2|1:2,0:0:0:0:
243,35,29491,2,0,P|198:40|163:66,1,90,12|0,0:0|0:0,0:0:0:0:
148,114,29825,6,0,P|159:180|169:247,1,134.999995880127,4|10,1:0|0:0,0:0:0:0:
120,336,30325,1,0,0:0:0:0:
120,336,30491,2,0,P|155:342|192:348,1,67.4999979400635,2|0,0:0|1:0,0:0:0:0:
265,283,30825,2,0,P|298:277|331:271,1,67.4999979400635,10|0,0:0|0:0,0:0:0:0:
421,319,31158,6,0,P|455:263|441:198,1,134.999995880127,2|8,1:2|0:0,0:0:0:0:
362,143,31658,1,2,1:2:0:0:
362,143,31825,2,0,P|367:109|373:76,1,67.4999979400635,2|2,0:0|1:2,0:0:0:0:
277,43,32158,2,0,P|270:76|266:109,1,67.4999979400635,10|2,0:0|0:0,0:0:0:0:
193,181,32491,6,0,P|160:179|130:164,2,67.4999979400635,2|2|10,1:3|0:0|0:0,0:0:0:0:
290,207,32991,2,0,P|330:261|323:326,1,134.999995880127,2|2,1:2|1:2,0:0:0:0:
235,377,33491,1,10,0:0:0:0:
173,296,33658,6,0,P|106:284|39:275,1,134.999995880127,2|0,0:0|1:0,0:0:0:0:
2,180,34158,2,0,P|35:174|68:167,1,67.4999979400635,8|2,0:0|0:0,0:0:0:0:
131,89,34491,1,0,1:0:0:0:
131,89,34658,1,8,0:3:0:0:
212,149,34825,2,0,P|205:182|199:215,1,67.4999979400635,4|4,0:3|0:3,0:0:0:0:
268,288,35158,6,0,P|312:301|384:254,1,134.999995880127,12|2,0:1|0:2,0:0:0:0:
464,194,35658,1,2,0:2:0:0:
464,194,35741,1,0,0:0:0:0:
464,194,35825,2,0,P|449:127|435:63,1,134.999995880127,10|2,0:2|0:2,0:0:0:0:
239,8,36491,6,0,P|224:73|209:139,1,134.999995880127,10|2,0:2|0:2,0:0:0:0:
249,243,36991,1,0,0:0:0:0:
249,243,37075,1,0,0:0:0:0:
249,243,37158,2,0,P|215:249|182:255,1,67.4999979400635,10|0,0:2|0:0,0:0:0:0:
126,340,37491,2,0,P|92:333|59:328,1,67.4999979400635,2|0,0:2|0:0,0:0:0:0:
4,242,37825,6,0,P|0:176|43:126,1,134.999995880127,10|2,0:2|0:2,0:0:0:0:
148,161,38325,1,2,0:2:0:0:
148,161,38408,1,0,0:0:0:0:
148,161,38491,2,0,B|217:176|207:122|277:138,1,134.999995880127,10|2,0:2|0:2,0:0:0:0:
468,72,39158,6,0,B|459:116|459:116|477:154|477:154|468:201,1,134.999995880127,10|2,0:2|0:2,0:0:0:0:
450,307,39658,1,0,0:0:0:0:
450,307,39741,1,0,0:0:0:0:
450,307,39825,2,0,P|416:312|383:319,1,67.4999979400635,10|0,0:2|0:0,0:0:0:0:
296,267,40158,2,0,P|291:233|284:200,1,67.4999979400635,2|2,0:2|0:2,0:0:0:0:
200,143,40491,6,0,P|154:186|164:260,1,134.999995880127,14|0,0:2|0:0,0:0:0:0:
212,345,40991,1,2,0:2:0:0:
212,345,41158,2,0,P|178:350|145:357,1,67.4999979400635,10|2,0:2|0:2,0:0:0:0:
44,344,41491,2,0,P|41:327|39:310,3,33.7499989700318,2|0|2|0,0:2|0:0|0:2|0:0,0:0:0:0:
3,272,41825,6,0,P|13:209|26:133,1,134.999995880127,10|2,0:2|0:2,0:0:0:0:
177,6,42491,2,0,P|215:53|208:126,1,134.999995880127,10|2,0:2|0:2,0:0:0:0:
139,197,42991,1,0,0:0:0:0:
216,263,43158,2,0,B|282:279|328:230|328:230|357:252|369:296,1,202.499993820191,10|2,0:2|0:2,0:0:0:0:
456,348,43825,2,0,P|462:314|467:281,1,67.4999979400635,10|2,0:2|0:2,0:0:0:0:
511,190,44158,2,0,P|508:173|506:156,3,33.7499989700318,2|0|0|0,0:2|0:0|0:0|0:0,0:0:0:0:
476,114,44491,6,0,P|446:98|412:96,1,67.4999979400635,10|0,0:2|0:0,0:0:0:0:
323,145,44825,2,0,P|318:111|311:78,1,67.4999979400635,2|0,0:2|0:0,0:0:0:0:
217,40,45158,2,0,P|210:73|205:106,1,67.4999979400635,10|8,2:0|2:3,0:0:0:0:
118,159,45491,1,10,2:0:0:0:
34,108,45658,1,4,2:3:0:0:
34,108,45741,1,4,2:3:0:0:
34,108,45825,6,0,B|12:133|12:133|35:232,1,134.999995880127,12|10,2:1|0:2,0:0:0:0:
60,330,46325,1,0,0:0:0:0:
147,279,46491,2,0,P|163:281|180:285,3,33.7499989700318,10|0|0|0,0:2|0:0|0:0|0:0,0:0:0:0:
213,324,46825,2,0,P|246:317|279:311,1,67.4999979400635,10|0,0:2|0:0,0:0:0:0:
376,339,47158,6,0,P|408:281|390:218,1,134.999995880127,10|10,0:2|0:2,0:0:0:0:
311,167,47658,1,0,0:0:0:0:
311,167,47741,1,0,0:0:0:0:
311,167,47825,2,0,P|313:133|329:104,1,67.4999979400635,10|0,0:2|0:0,0:0:0:0:
422,65,48158,2,0,P|424:81|428:98,3,33.7499989700318,10|0|0|0,0:2|0:0|0:0|0:0,0:0:0:0:
470,127,48491,6,0,P|456:193|447:260,1,134.999995880127,10|8,0:2|0:2,0:0:0:0:
373,329,48991,1,0,0:0:0:0:
313,246,49158,2,0,P|296:248|279:252,3,33.7499989700318,10|0|0|0,0:2|0:0|0:0|0:0,0:0:0:0:
247,290,49491,2,0,P|230:286|213:283,3,33.7499989700318,8|0|0|0,0:2|0:0|0:0|0:0,0:0:0:0:
167,304,49825,5,10,0:2:0:0:
163,287,49908,1,0,0:0:0:0:
160,270,49991,1,0,0:0:0:0:
156,254,50075,1,0,0:0:0:0:
128,229,50158,2,0,P|131:212|134:195,3,33.7499989700318,8|0|2|0,0:2|0:0|0:2|0:0,0:0:0:0:
104,154,50491,5,10,2:0:0:0:
191,98,50658,1,10,2:0:0:0:
191,98,50741,1,8,2:0:0:0:
191,98,50825,2,0,P|226:108|268:118,1,75,4|2,1:2|0:0,0:0:0:0:
374,62,51158,6,0,B|397:82|407:106|407:106|378:196,1,150,4|10,1:0|0:0,0:0:0:0:
431,286,51658,1,2,0:0:0:0:
338,335,51825,2,0,P|301:326|264:319,1,75,2|8,1:2|0:0,0:0:0:0:
173,368,52158,1,2,0:0:0:0:
173,368,52325,1,2,1:2:0:0:
108,243,52491,6,0,P|111:209|132:169,1,75,2|0,0:0|1:0,0:0:0:0:
234,165,52825,2,0,P|230:202|213:235,1,75,14|0,0:0|0:0,0:0:0:0:
177,77,53158,2,0,P|213:68|250:61,1,75,2|0,1:2|1:0,0:0:0:0:
129,172,53491,2,0,P|92:163|55:156,1,75,10|0,0:0|0:0,0:0:0:0:
212,235,53825,6,0,B|197:325|197:325|216:349|248:349,1,150,14|10,0:0|1:2,0:0:0:0:
331,285,54325,1,8,1:2:0:0:
423,332,54491,2,0,P|429:295|439:258,1,75,10|8,1:2|1:2,0:0:0:0:
305,177,54825,2,0,P|315:214|322:251,1,75,10|8,1:2|1:2,0:0:0:0:
460,160,55158,1,10,1:2:0:0:
460,160,55325,1,10,1:2:0:0:
88,50,55991,5,8,1:3:0:0:
88,50,56158,2,0,P|126:88|125:143,1,112.5,8|0,0:0|0:0,0:0:0:0:
90,183,56491,6,0,B|144:171|144:171|191:194|191:194|246:183,1,165.000005035401,6|8,1:2|0:0,0:0:0:0:
305,92,56991,1,0,0:0:0:0:
385,163,57158,2,0,P|375:203|369:243,1,82.5000025177003,0|8,1:0|0:0,0:0:0:0:
408,343,57491,2,0,P|367:353|327:362,1,82.5000025177003,2|0,0:0|1:0,0:0:0:0:
187,319,57825,6,0,P|184:278|168:240,1,82.5000025177003,2|0,0:0|1:0,0:0:0:0:
76,186,58158,2,0,P|128:204|208:135,1,165.000005035401,10|2,0:0|0:0,0:0:0:0:
158,44,58658,1,0,1:0:0:0:
258,6,58825,2,0,P|300:15|338:21,1,82.5000025177003,10|0,0:0|0:0,0:0:0:0:
454,124,59158,6,0,P|440:163|432:203,1,82.5000025177003,4|0,1:0|0:0,0:0:0:0:
335,247,59491,2,0,P|327:206|313:167,1,82.5000025177003,10|0,0:0|0:0,0:0:0:0:
223,119,59825,1,2,1:2:0:0:
223,119,59991,1,8,0:0:0:0:
160,206,60158,2,0,P|80:211|32:148,1,165.000005035401,2|2,0:0|0:1,0:0:0:0:
136,58,60658,5,0,1:0:0:0:
223,119,60825,2,0,P|263:112|304:103,1,82.5000025177003,10|0,0:0|0:0,0:0:0:0:
400,149,61158,2,0,P|417:185|419:226,1,82.5000025177003,2|0,0:0|1:0,0:0:0:0:
376,325,61491,2,0,P|314:316|253:307,1,123.75000377655,10|0,0:0|0:0,0:0:0:0:
210,341,61825,6,0,B|236:322|247:291|247:291|211:195,1,165.000005035401,6|8,1:2|0:0,0:0:0:0:
119,150,62325,1,2,0:0:0:0:
119,150,62491,1,2,1:2:0:0:
184,65,62658,2,0,P|224:73|264:81,1,82.5000025177003,8|2,0:0|0:1,0:0:0:0:
342,6,62991,1,0,1:0:0:0:
458,66,63158,6,0,P|475:102|477:143,1,82.5000025177003,2|0,0:0|1:0,0:0:0:0:
401,220,63491,2,0,P|360:228|320:236,1,82.5000025177003,10|0,0:0|0:0,0:0:0:0:
224,184,63825,2,0,P|215:224|207:264,1,82.5000025177003,2|0,0:0|1:0,0:0:0:0:
116,321,64158,2,0,P|107:280|99:240,1,82.5000025177003,10|0,0:0|0:0,0:0:0:0:
205,368,64491,6,0,P|282:380|332:319,1,165.000005035401,4|8,1:0|0:0,0:0:0:0:
293,217,64991,1,2,0:0:0:0:
376,149,65158,2,0,P|416:158|456:166,1,82.5000025177003,2|8,1:2|0:0,0:0:0:0:
353,44,65491,2,0,P|312:53|272:61,1,82.5000025177003,2|0,0:1|1:0,0:0:0:0:
130,20,65825,5,12,0:1:0:0:
130,20,65991,1,0,1:0:0:0:
64,104,66158,2,0,P|77:164|89:225,1,123.75000377655,12|0,0:0|0:0,0:0:0:0:
65,272,66491,1,8,1:3:0:0:
156,334,66658,1,8,0:0:0:0:
156,334,66741,1,8,0:0:0:0:
156,334,66825,2,0,P|160:314|166:294,3,41.2500012588501,8|8|8|8,0:0|0:0|0:0|0:0,0:0:0:0:
207,258,67158,6,0,B|290:233|277:310|361:285,1,165.000005035401,6|8,1:2|0:0,0:0:0:0:
442,214,67658,1,0,0:0:0:0:
359,145,67825,2,0,P|367:104|375:64,1,82.5000025177003,0|8,1:0|0:0,0:0:0:0:
279,15,68158,2,0,P|238:23|198:31,1,82.5000025177003,2|0,0:0|1:0,0:0:0:0:
99,138,68491,6,0,P|139:146|179:154,1,82.5000025177003,2|0,0:0|1:0,0:0:0:0:
255,231,68825,2,0,P|260:310|202:364,1,165.000005035401,10|2,0:0|0:0,0:0:0:0:
121,294,69325,1,0,1:0:0:0:
24,340,69491,2,0,P|15:299|7:259,1,82.5000025177003,10|0,0:0|0:0,0:0:0:0:
142,178,69825,6,0,P|134:218|126:259,1,82.5000025177003,4|0,1:0|0:0,0:0:0:0:
207,329,70158,2,0,P|247:327|285:310,1,82.5000025177003,10|0,0:0|0:0,0:0:0:0:
350,224,70491,1,2,1:2:0:0:
350,224,70658,1,8,0:0:0:0:
441,279,70825,2,0,P|451:197|463:115,1,165.000005035401,2|2,0:0|0:1,0:0:0:0:
356,22,71325,5,0,1:0:0:0:
299,112,71491,2,0,P|258:120|218:128,1,82.5000025177003,10|0,0:0|0:0,0:0:0:0:
113,102,71825,2,0,P|95:139|94:180,1,82.5000025177003,2|8,1:2|0:3,0:0:0:0:
164,260,72158,2,0,P|225:271|286:282,1,123.75000377655,10|0,0:0|0:0,0:0:0:0:
325,320,72491,6,0,B|313:263|313:263|336:216|336:216|324:162,1,165.000005035401,6|8,1:2|0:0,0:0:0:0:
393,80,72991,1,2,0:0:0:0:
393,80,73158,1,2,1:2:0:0:
297,30,73325,2,0,P|256:38|216:46,1,82.5000025177003,8|2,0:0|0:1,0:0:0:0:
160,139,73658,1,2,1:2:0:0:
36,83,73825,6,0,P|27:123|19:163,1,82.5000025177003,2|0,0:0|1:0,0:0:0:0:
96,238,74158,2,0,P|104:278|112:318,1,82.5000025177003,10|0,0:0|0:0,0:0:0:0:
205,372,74491,2,0,P|245:370|283:353,1,82.5000025177003,2|0,1:2|1:0,0:0:0:0:
333,257,74825,2,0,P|292:248|252:240,1,82.5000025177003,10|0,0:0|0:0,0:0:0:0:
390,349,75158,6,0,P|427:310|422:197,1,165.000005035401,6|8,1:2|0:0,0:0:0:0:
334,149,75658,1,0,0:0:0:0:
270,235,75825,2,0,P|229:226|189:218,1,82.5000025177003,2|8,1:2|0:0,0:0:0:0:
96,272,76158,2,0,P|87:231|79:191,1,82.5000025177003,2|0,0:1|1:0,0:0:0:0:
154,71,76491,5,2,0:0:0:0:
154,71,76658,1,0,1:0:0:0:
240,134,76825,2,0,P|280:132|318:115,1,82.5000025177003,12|0,0:0|1:0,0:0:0:0:
380,27,77158,1,8,0:3:0:0:
380,27,77325,1,0,1:0:0:0:
444,101,77491,2,0,P|435:141|427:181,1,82.5000025177003,12|2,0:1|0:0,0:0:0:0:
488,322,77825,6,0,P|451:329|414:337,1,75,6|2,1:2|0:2,0:0:0:0:
360,256,78158,2,0,P|323:247|286:240,1,75,10|2,0:0|0:0,0:0:0:0:
234,157,78491,1,2,1:2:0:0:
157,218,78658,2,0,P|164:254|172:291,2,75,2|8|2,0:0|0:0|0:0,0:0:0:0:
85,100,79158,6,0,P|118:82|155:79,1,75,2|0,1:2|0:0,0:0:0:0:
235,23,79491,2,0,P|268:40|305:43,1,75,10|0,0:0|1:0,0:0:0:0:
394,2,79825,1,2,0:0:0:0:
437,88,79991,2,0,P|428:124|421:161,1,75,2|8,1:2|0:0,0:0:0:0:
475,243,80325,1,2,0:0:0:0:
387,284,80491,6,0,B|310:266|321:326|244:309,1,150,6|10,1:2|0:0,0:0:0:0:
163,254,80991,2,0,P|177:179|190:103,1,150,4|2,1:0|1:2,0:0:0:0:
291,45,81491,6,0,B|223:68|223:68|156:21|156:21|89:45,1,225,14|0,0:0|1:0,0:0:0:0:
28,120,82158,2,0,P|64:182|136:189,1,150,8|2,0:0|1:2,0:0:0:0:
213,129,82658,1,2,1:2:0:0:
279,200,82825,2,0,P|269:236|260:272,1,75,10|0,0:0|0:0,0:0:0:0:
417,268,83158,6,0,P|427:196|378:142,2,150,6|10|2,1:2|1:0|1:2,0:0:0:0:
335,322,83991,1,2,0:0:0:0:
267,250,84158,2,0,P|230:257|195:270,1,75,10|0,0:1|0:0,0:0:0:0:
121,206,84491,1,0,1:0:0:0:
241,51,84825,6,0,P|230:87|222:123,1,75,10|0,0:1|0:0,0:0:0:0:
354,198,85158,2,0,P|346:161|335:125,1,75,2|0,1:2|1:0,0:0:0:0:
283,285,85491,2,0,P|320:310|390:306,1,112.5,10|0,0:0|0:0,0:0:0:0:
430,276,85825,6,0,P|444:194|458:113,1,165.000005035401,14|10,1:2|1:2,0:0:0:0:
381,38,86325,1,8,1:2:0:0:
305,140,86491,2,0,P|264:149|225:160,1,82.5000025177003,10|8,1:2|1:2,0:0:0:0:
86,114,86825,1,10,1:2:0:0:
86,114,86991,1,10,1:2:0:0:
185,83,87158,6,0,P|171:149|157:215,1,134.999995880127,2|2,0:0|0:0,0:0:0:0:
192,299,87825,2,0,P|234:263|247:210,1,112.499996566773,2|0,0:0|0:0,0:0:0:0:
